  0
SECTION
  2
HEADER
  9
$ACADVER
  1
AC1014
  9
$ACADMAINTVER
 70
     0
  9
$DWGCODEPAGE
  3
ANSI_932
  9
$INSBASE
 10
0.0
 20
0.0
 30
0.0
  9
$EXTMIN
 10
-11.677034856476
 20
-170.894676177063
  9
$EXTMAX
 10
520.4000011628
 20
151.5
  9
$LIMMIN
 10
-11.677034856476
 20
-170.894676177063
  9
$LIMMAX
 10
520.4000011628
 20
151.5
  9
$ORTHOMODE
 70
     0
  9
$REGENMODE
 70
     1
  9
$FILLMODE
 70
     1
  9
$QTEXTMODE
 70
     0
  9
$MIRRTEXT
 70
     1
  9
$DRAGMODE
 70
     2
  9
$LTSCALE
 40
1.0
  9
$OSMODE
 70
     0
  9
$ATTMODE
 70
     1
  9
$TEXTSIZE
 40
3.0
  9
$TRACEWID
 40
0.5
  9
$TEXTSTYLE
  7
STANDARD
  9
$CLAYER
  8
0
  9
$CELTYPE
  6
BYLAYER
  9
$CECOLOR
 62
   256
  9
$CELTSCALE
 40
1.0
  9
$DELOBJ
 70
     1
  9
$DISPSILH
 70
     0
  9
$DIMSCALE
 40
1.0
  9
$DIMASZ
 40
2.0
  9
$DIMEXO
 40
1.0
  9
$DIMDLI
 40
5.0
  9
$DIMRND
 40
0.0
  9
$DIMDLE
 40
3.0
  9
$DIMEXE
 40
1.0
  9
$DIMTP
 40
0.0
  9
$DIMTM
 40
0.0
  9
$DIMTXT
 40
3.5
  9
$DIMCEN
 40
2.0
  9
$DIMTSZ
 40
0.0
  9
$DIMTOL
 70
     0
  9
$DIMLIM
 70
     0
  9
$DIMTIH
 70
     0
  9
$DIMTOH
 70
     0
  9
$DIMSE1
 70
     0
  9
$DIMSE2
 70
     0
  9
$DIMTAD
 70
     1
  9
$DIMZIN
 70
     8
  9
$DIMBLK
  1

  9
$DIMASO
 70
     1
  9
$DIMSHO
 70
     1
  9
$DIMPOST
  1

  9
$DIMAPOST
  1

  9
$DIMALT
 70
     0
  9
$DIMALTD
 70
     4
  9
$DIMALTF
 40
0.0393700787401575
  9
$DIMLFAC
 40
1.0
  9
$DIMTOFL
 70
     1
  9
$DIMTVP
 40
1.0
  9
$DIMTIX
 70
     0
  9
$DIMSOXD
 70
     0
  9
$DIMSAH
 70
     0
  9
$DIMBLK1
  1

  9
$DIMBLK2
  1

  9
$DIMSTYLE
  2
ISO-25
  9
$DIMCLRD
 70
     0
  9
$DIMCLRE
 70
     0
  9
$DIMCLRT
 70
     0
  9
$DIMTFAC
 40
1.0
  9
$DIMGAP
 40
0.5
  9
$DIMJUST
 70
     0
  9
$DIMSD1
 70
     0
  9
$DIMSD2
 70
     0
  9
$DIMTOLJ
 70
     1
  9
$DIMTZIN
 70
     1
  9
$DIMALTZ
 70
     0
  9
$DIMALTTZ
 70
     0
  9
$DIMFIT
 70
     3
  9
$DIMUPT
 70
     0
  9
$DIMUNIT
 70
     2
  9
$DIMDEC
 70
     3
  9
$DIMTDEC
 70
     3
  9
$DIMALTU
 70
     8
  9
$DIMALTTD
 70
     4
  9
$DIMTXSTY
  7
STANDARD
  9
$DIMAUNIT
 70
     0
  9
$LUNITS
 70
     2
  9
$LUPREC
 70
     4
  9
$AXISMODE
 70
     0
  9
$AXISUNIT
 10
0.0
 20
0.0
  9
$SKETCHINC
 40
1.0
  9
$FILLETRAD
 40
0.0
  9
$AUNITS
 70
     0
  9
$AUPREC
 70
     0
  9
$MENU
  1
.
  9
$ELEVATION
 40
0.0
  9
$PELEVATION
 40
0.0
  9
$THICKNESS
 40
0.0
  9
$LIMCHECK
 70
     0
  9
$BLIPMODE
 70
     1
  9
$CHAMFERA
 40
0.0
  9
$CHAMFERB
 40
0.0
  9
$CHAMFERC
 40
0.0
  9
$CHAMFERD
 40
0.0
  9
$SKPOLY
 70
     0
  9
$TDCREATE
 40
2459662.57622685
  9
$TDUPDATE
 40
2459662.57622685
  9
$TDINDWG
 40
0.0
  9
$TDUSRTIMER
 40
0.0
  9
$USRTIMER
 70
     1
  9
$ANGBASE
 50
0.0
  9
$ANGDIR
 70
     0
  9
$PDMODE
 70
     0
  9
$PDSIZE
 40
0.0
  9
$PLINEWID
 40
0.0
  9
$COORDS
 70
     0
  9
$SPLFRAME
 70
     0
  9
$SPLINETYPE
 70
     6
  9
$SPLINESEGS
 70
     8
  9
$ATTDIA
 70
     0
  9
$ATTREQ
 70
     1
  9
$HANDLING
 70
     1
  9
$HANDSEED
  5
4C0
  9
$SURFTAB1
 70
     6
  9
$SURFTAB2
 70
     6
  9
$SURFTYPE
 70
     6
  9
$SURFU
 70
     6
  9
$SURFV
 70
     6
  9
$UCSNAME
  2

  9
$UCSORG
 10
0.0
 20
0.0
 30
0.0
  9
$UCSXDIR
 10
1.0
 20
0.0
 30
0.0
  9
$UCSYDIR
 10
0.0
 20
1.0
 30
0.0
  9
$PUCSNAME
  2

  9
$PUCSORG
 10
0.0
 20
1.0
 30
0.0
  9
$PUCSXDIR
 10
1.0
 20
0.0
 30
0.0
  9
$PUCSYDIR
 10
0.0
 20
1.0
 30
0.0
  9
$USERI1
 70
     0
  9
$USERI2
 70
     0
  9
$USERI3
 70
     0
  9
$USERI4
 70
     0
  9
$USERI5
 70
     0
  9
$USERR1
 40
0.0
  9
$USERR2
 40
0.0
  9
$USERR3
 40
0.0
  9
$USERR4
 40
0.0
  9
$USERR5
 40
0.0
  9
$WORLDVIEW
 70
     1
  9
$SHADEDGE
 70
     3
  9
$SHADEDIF
 70
    70
  9
$TILEMODE
 70
     1
  9
$MAXACTVP
 70
    16
  9
$PINSBASE
 10
0.0
 20
1.0
 30
0.0
  9
$PLIMCHECK
 70
     0
  9
$PEXTMIN
 10
1.00000000000000E+020
 20
1.00000000000000E+020
 30
1.00000000000000E+020
  9
$PEXTMAX
 10
-1.00000000000000E+020
 20
-1.00000000000000E+020
 30
-1.00000000000000E+020
  9
$PLIMMIN
 10
-11.677034856476
 20
-170.894676177063
  9
$PLIMMAX
 10
520.4000011628
 20
151.5
  9
$UNITMODE
 70
     0
  9
$VISRETAIN
 70
     0
  9
$PLINEGEN
 70
     0
  9
$PSLTSCALE
 70
     0
  9
$TREEDEPTH
 70
  3020
  9
$PICKSTYLE
 70
     1
  9
$CMLSTYLE
  2
STANDARD
  9
$CMLJUST
 70
     0
  9
$CMLSCALE
 40
1.0
  9
$PROXYGRAPHICS
 70
     1
  9
$MEASUREMENT
 70
     1
  0
ENDSEC
  0
SECTION
  2
CLASSES
  0
CLASS
  1
LWPOLYLINE
  2
AcDbPolyline
  3
"AutoCAD"
 90
        0
280
     0
281
     1
  0
CLASS
  1
DICTIONARYVAR
  2
AcDbDictionaryVar
  3
"AutoCAD"
 90
        0
280
     0
281
     1
  0
CLASS
  1
HATCH
  2
AcDbHatch
  3
"AutoCAD"
 90
        0
280
     0
281
     1
  0
ENDSEC
  0
SECTION
  2
TABLES
  0
TABLE
  2
VPORT
  5
8
100
AcDbSymbolTable
 70
     1
  0
VPORT
  5
4B3
100
AcDbSymbolTableRecord
100
AcDbViewportTableRecord
  2
*ACTIVE
 70
     0
 10
0.0
 20
0.0
 11
1.0
 21
1.0
 12
254.361483153162
 22
-9.69733808853155
 13
0.0
 23
0.0
 14
0.0
 24
0.0
 15
0.0
 25
0.0
 16
0.0
 26
0.0
 36
1.0
 17
0.0
 27
0.0
 37
0.0
 40
532.077036019276
 41
1.5
 42
50.0
 43
0.0
 44
0.0
 50
0.0
 51
0.0
 71
     0
 72
   100
 73
     1
 74
     1
 75
     0
 76
     0
 77
     0
 78
     0
  0
ENDTAB
  0
TABLE
  2
LTYPE
  5
5
100
AcDbSymbolTable
 70
    20
  0
LTYPE
  5
4B4
100
AcDbSymbolTableRecord
100
AcDbLinetypeTableRecord
  2
BYBLOCK
 70
     0
  3

 72
    65
 73
     0
 40
0.0
  0
LTYPE
  5
4B5
100
AcDbSymbolTableRecord
100
AcDbLinetypeTableRecord
  2
BYLAYER
 70
     0
  3

 72
    65
 73
     0
 40
0.0
  0
LTYPE
  5
4B6
100
AcDbSymbolTableRecord
100
AcDbLinetypeTableRecord
  2
CONTINUOUS
 70
    64
  3
solid line
 72
    65
 73
     0
 40
0.0
  0
LTYPE
  5
4B7
100
AcDbSymbolTableRecord
100
AcDbLinetypeTableRecord
  2
HIDDEN
 70
    64
  3
HIDDEN
 72
    65
 73
     0
 40
0.0
  0
LTYPE
  5
4B8
100
AcDbSymbolTableRecord
100
AcDbLinetypeTableRecord
  2
CENTER
 70
    64
  3
--- - --- - --- - --- - --- -
 72
    65
 73
     4
 40
6.0
 49
3.0
 74
     0
 49
-1.0
 74
     0
 49
1.0
 74
     0
 49
-1.0
 74
     0
  0
LTYPE
  5
4B9
100
AcDbSymbolTableRecord
100
AcDbLinetypeTableRecord
  2
CENTER2
 70
    64
  3
CENTER2
 72
    65
 73
     0
 40
0.0
  0
ENDTAB
  0
TABLE
  2
LAYER
  5
2
100
AcDbSymbolTable
 70
    20
  0
LAYER
  5
4BA
100
AcDbSymbolTableRecord
100
AcDbLayerTableRecord
  2
0
 70
    64
 62
     7
  6
CONTINUOUS
  0
LAYER
  5
28
100
AcDbSymbolTableRecord
100
AcDbLayerTableRecord
  2
2
 70
    64
 62
     7
  6
CONTINUOUS
  0
LAYER
  5
2A
100
AcDbSymbolTableRecord
100
AcDbLayerTableRecord
  2
6
 70
    64
 62
     7
  6
CONTINUOUS
  0
LAYER
  5
6A
100
AcDbSymbolTableRecord
100
AcDbLayerTableRecord
  2
7
 70
    64
 62
     7
  6
CONTINUOUS
  0
LAYER
  5
82
100
AcDbSymbolTableRecord
100
AcDbLayerTableRecord
  2
4
 70
    64
 62
     7
  6
CONTINUOUS
  0
LAYER
  5
12F
100
AcDbSymbolTableRecord
100
AcDbLayerTableRecord
  2
8
 70
    64
 62
     7
  6
CONTINUOUS
  0
LAYER
  5
4BB
100
AcDbSymbolTableRecord
100
AcDbLayerTableRecord
  2
DEFPOINTS
 70
     0
 62
    -7
  6
CONTINUOUS
  0
ENDTAB
  0
TABLE
  2
STYLE
  5
3
100
AcDbSymbolTable
 70
     4
  0
STYLE
  5
4BC
100
AcDbSymbolTableRecord
100
AcDbTextStyleTableRecord
  2
STANDARD
 70
    64
 40
0.0
 41
1.0
 50
0.0
 71
     0
 42
3.0
  3
monotxt
  4

  0
STYLE
  5
4BD
100
AcDbSymbolTableRecord
100
AcDbTextStyleTableRecord
  2
BIGFONT
 70
    64
 40
0.0
 41
1.0
 50
0.0
 71
     0
 42
3.0
  3
monotxt
  4
bigfont
  0
ENDTAB
  0
TABLE
  2
VIEW
  5
6
100
AcDbSymbolTable
 70
     0
  0
ENDTAB
  0
TABLE
  2
UCS
  5
7
100
AcDbSymbolTable
 70
     0
  0
ENDTAB
  0
TABLE
  2
APPID
  5
9
100
AcDbSymbolTable
 70
     1
  0
APPID
  5
4BE
100
AcDbSymbolTableRecord
100
AcDbRegAppTableRecord
  2
ACAD
 70
     0
  0
ENDTAB
  0
TABLE
  2
DIMSTYLE
  5
A
100
AcDbSymbolTable
 70
     8
  0
DIMSTYLE
105
4BF
100
AcDbSymbolTableRecord
100
AcDbDimStyleTableRecord
  2
ISO-25
 70
     0
  3

  4

  5

  6

  7

 40
1.0
 41
2.0
 42
1.0
 43
5.0
 44
1.0
 45
0.0
 46
3.0
 47
0.0
 48
0.0
140
3.5
141
2.0
142
0.0
143
0.0393700787401575
144
1.0
145
1.0
146
1.0
147
0.5
 71
     0
 72
     0
 73
     0
 74
     0
 75
     0
 76
     0
 77
     1
 78
     8
170
     0
171
     0
172
     1
173
     0
174
     0
175
     0
176
     0
177
     0
178
     0
270
     2
271
     3
272
     3
273
     8
274
     4
340
4BC
275
     0
280
     0
281
     0
282
     0
283
     1
284
     1
285
     0
286
     0
287
     3
288
     0
  0
ENDTAB
  0
TABLE
  2
BLOCK_RECORD
  5
1
100
AcDbSymbolTable
 70
     2
  0
BLOCK_RECORD
  5
20
100
AcDbSymbolTableRecord
100
AcDbBlockTableRecord
  2
*MODEL_SPACE
  0
BLOCK_RECORD
  5
22
100
AcDbSymbolTableRecord
100
AcDbBlockTableRecord
  2
*PAPER_SPACE
  0
BLOCK_RECORD
  5
26A
100
AcDbSymbolTableRecord
100
AcDbBlockTableRecord
  2
*D1
  0
BLOCK_RECORD
  5
27A
100
AcDbSymbolTableRecord
100
AcDbBlockTableRecord
  2
*D2
  0
BLOCK_RECORD
  5
28A
100
AcDbSymbolTableRecord
100
AcDbBlockTableRecord
  2
*D3
  0
BLOCK_RECORD
  5
29D
100
AcDbSymbolTableRecord
100
AcDbBlockTableRecord
  2
*D4
  0
BLOCK_RECORD
  5
2AE
100
AcDbSymbolTableRecord
100
AcDbBlockTableRecord
  2
*D5
  0
BLOCK_RECORD
  5
2C0
100
AcDbSymbolTableRecord
100
AcDbBlockTableRecord
  2
*D6
  0
BLOCK_RECORD
  5
334
100
AcDbSymbolTableRecord
100
AcDbBlockTableRecord
  2
*D7
  0
BLOCK_RECORD
  5
34A
100
AcDbSymbolTableRecord
100
AcDbBlockTableRecord
  2
*D8
  0
BLOCK_RECORD
  5
370
100
AcDbSymbolTableRecord
100
AcDbBlockTableRecord
  2
*D9
  0
BLOCK_RECORD
  5
380
100
AcDbSymbolTableRecord
100
AcDbBlockTableRecord
  2
*D10
  0
BLOCK_RECORD
  5
390
100
AcDbSymbolTableRecord
100
AcDbBlockTableRecord
  2
*D11
  0
BLOCK_RECORD
  5
3A0
100
AcDbSymbolTableRecord
100
AcDbBlockTableRecord
  2
*D12
  0
BLOCK_RECORD
  5
3B6
100
AcDbSymbolTableRecord
100
AcDbBlockTableRecord
  2
*D13
  0
BLOCK_RECORD
  5
3C5
100
AcDbSymbolTableRecord
100
AcDbBlockTableRecord
  2
*D14
  0
BLOCK_RECORD
  5
3D3
100
AcDbSymbolTableRecord
100
AcDbBlockTableRecord
  2
*D15
  0
BLOCK_RECORD
  5
3E4
100
AcDbSymbolTableRecord
100
AcDbBlockTableRecord
  2
*D16
  0
BLOCK_RECORD
  5
3F6
100
AcDbSymbolTableRecord
100
AcDbBlockTableRecord
  2
*D17
  0
BLOCK_RECORD
  5
406
100
AcDbSymbolTableRecord
100
AcDbBlockTableRecord
  2
*D18
  0
BLOCK_RECORD
  5
415
100
AcDbSymbolTableRecord
100
AcDbBlockTableRecord
  2
*D19
  0
BLOCK_RECORD
  5
428
100
AcDbSymbolTableRecord
100
AcDbBlockTableRecord
  2
*D20
  0
BLOCK_RECORD
  5
474
100
AcDbSymbolTableRecord
100
AcDbBlockTableRecord
  2
*D21
  0
BLOCK_RECORD
  5
484
100
AcDbSymbolTableRecord
100
AcDbBlockTableRecord
  2
*D22
  0
BLOCK_RECORD
  5
24
100
AcDbSymbolTableRecord
100
AcDbBlockTableRecord
  2
SUB1
  0
BLOCK_RECORD
  5
12D
100
AcDbSymbolTableRecord
100
AcDbBlockTableRecord
  2
SUB2
  0
BLOCK_RECORD
  5
2E8
100
AcDbSymbolTableRecord
100
AcDbBlockTableRecord
  2
SUB3
  0
BLOCK_RECORD
  5
2EF
100
AcDbSymbolTableRecord
100
AcDbBlockTableRecord
  2
SUB4
  0
BLOCK_RECORD
  5
2F7
100
AcDbSymbolTableRecord
100
AcDbBlockTableRecord
  2
SUB5
  0
BLOCK_RECORD
  5
304
100
AcDbSymbolTableRecord
100
AcDbBlockTableRecord
  2
SUB6
  0
BLOCK_RECORD
  5
30F
100
AcDbSymbolTableRecord
100
AcDbBlockTableRecord
  2
SUB7
  0
BLOCK_RECORD
  5
318
100
AcDbSymbolTableRecord
100
AcDbBlockTableRecord
  2
SUB8
  0
BLOCK_RECORD
  5
438
100
AcDbSymbolTableRecord
100
AcDbBlockTableRecord
  2
COMP1
  0
BLOCK_RECORD
  5
450
100
AcDbSymbolTableRecord
100
AcDbBlockTableRecord
  2
COMP2
  0
BLOCK_RECORD
  5
468
100
AcDbSymbolTableRecord
100
AcDbBlockTableRecord
  2
COMP3
  0
ENDTAB
  0
ENDSEC
  0
SECTION
  2
BLOCKS
  0
BLOCK
  5
21
100
AcDbEntity
  8
0
100
AcDbBlockBegin
  2
*MODEL_SPACE
 70
     0
 10
0.0
 20
0.0
 30
0.0
  3
*MODEL_SPACE
  1

  0
ENDBLK
  5
4B1
100
AcDbEntity
  8
0
100
AcDbBlockEnd
  0
BLOCK
  5
23
100
AcDbEntity
 67
     1
  8
0
100
AcDbBlockBegin
  2
*PAPER_SPACE
 70
     0
 10
0.0
 20
0.0
 30
0.0
  3
*PAPER_SPACE
  1

  0
ENDBLK
  5
4B2
100
AcDbEntity
 67
     1
  8
0
100
AcDbBlockEnd
  0
BLOCK
  5
26B
100
AcDbEntity
  8
0
100
AcDbBlockBegin
  2
*D1
 70
    65
 10
0.0
 20
0.0
  0
LINE
  5
26C
100
AcDbEntity
  8
0
  6
CONTINUOUS
 62
     2
100
AcDbLine
 10
10.75
 20
-58.8628334887954
 11
36.25
 21
-58.8628334887954
  0
LINE
  5
26D
100
AcDbEntity
  8
0
  6
CONTINUOUS
 62
     2
100
AcDbLine
 10
12.75
 20
-58.3628334887954
 11
10.75
 21
-58.8628334887954
  0
LINE
  5
26E
100
AcDbEntity
  8
0
  6
CONTINUOUS
 62
     2
100
AcDbLine
 10
10.75
 20
-58.8628334887954
 11
12.75
 21
-59.3628334887954
  0
LINE
  5
26F
100
AcDbEntity
  8
0
  6
CONTINUOUS
 62
     2
100
AcDbLine
 10
61.75
 20
-58.8628334887954
 11
36.25
 21
-58.8628334887954
  0
LINE
  5
270
100
AcDbEntity
  8
0
  6
CONTINUOUS
 62
     2
100
AcDbLine
 10
59.75
 20
-59.3628334887954
 11
61.75
 21
-58.8628334887954
  0
LINE
  5
271
100
AcDbEntity
  8
0
  6
CONTINUOUS
 62
     2
100
AcDbLine
 10
61.75
 20
-58.8628334887954
 11
59.75
 21
-58.3628334887954
  0
LINE
  5
272
100
AcDbEntity
  8
0
  6
CONTINUOUS
 62
     2
100
AcDbLine
 10
10.75
 20
-92.1304324036833
 11
10.75
 21
-57.8628334887954
  0
LINE
  5
273
100
AcDbEntity
  8
0
  6
CONTINUOUS
 62
     2
100
AcDbLine
 10
61.75
 20
-92.1304324036833
 11
61.75
 21
-57.8628334887954
  0
MTEXT
  5
274
100
AcDbEntity
  8
0
  6
CONTINUOUS
 62
     2
100
AcDbMText
 10
34.0625
 20
-58.3628334887954
 40
3.5
 41
0.0
 11
1.0
 21
0.0
 71
     7
 72
     5
  7
STANDARD
  1
{\T1.60714;\W0.666667;51}
 73
     1
 44
1.0
  0
POINT
  5
275
100
AcDbEntity
  8
DEFPOINTS
  6
BYBLOCK
 62
     0
100
AcDbPoint
 10
10.75
 20
-92.6304324036833
  0
POINT
  5
276
100
AcDbEntity
  8
DEFPOINTS
  6
BYBLOCK
 62
     0
100
AcDbPoint
 10
61.75
 20
-92.6304324036833
  0
POINT
  5
277
100
AcDbEntity
  8
DEFPOINTS
  6
BYBLOCK
 62
     0
100
AcDbPoint
 10
61.75
 20
-58.8628334887954
  0
ENDBLK
  5
278
100
AcDbEntity
  8
4
100
AcDbBlockEnd
  0
BLOCK
  5
27B
100
AcDbEntity
  8
0
100
AcDbBlockBegin
  2
*D2
 70
    65
 10
0.0
 20
0.0
  0
LINE
  5
27C
100
AcDbEntity
  8
0
  6
CONTINUOUS
 62
     2
100
AcDbLine
 10
71.779407767035
 20
-89.2455621180843
 11
71.779407767035
 21
-118.745562118085
  0
LINE
  5
27D
100
AcDbEntity
  8
0
  6
CONTINUOUS
 62
     2
100
AcDbLine
 10
72.279407767035
 20
-91.2455621180843
 11
71.779407767035
 21
-89.2455621180843
  0
LINE
  5
27E
100
AcDbEntity
  8
0
  6
CONTINUOUS
 62
     2
100
AcDbLine
 10
71.779407767035
 20
-89.2455621180843
 11
71.279407767035
 21
-91.2455621180843
  0
LINE
  5
27F
100
AcDbEntity
  8
0
  6
CONTINUOUS
 62
     2
100
AcDbLine
 10
71.779407767035
 20
-148.245562118085
 11
71.779407767035
 21
-118.745562118085
  0
LINE
  5
280
100
AcDbEntity
  8
0
  6
CONTINUOUS
 62
     2
100
AcDbLine
 10
71.279407767035
 20
-146.245562118085
 11
71.779407767035
 21
-148.245562118085
  0
LINE
  5
281
100
AcDbEntity
  8
0
  6
CONTINUOUS
 62
     2
100
AcDbLine
 10
71.779407767035
 20
-148.245562118085
 11
72.279407767035
 21
-146.245562118085
  0
LINE
  5
282
100
AcDbEntity
  8
0
  6
CONTINUOUS
 62
     2
100
AcDbLine
 10
43.75
 20
-89.2455621180843
 11
72.779407767035
 21
-89.2455621180843
  0
LINE
  5
283
100
AcDbEntity
  8
0
  6
CONTINUOUS
 62
     2
100
AcDbLine
 10
44.25
 20
-148.245562118085
 11
73.779407767035
 21
-148.245562118085
  0
MTEXT
  5
284
100
AcDbEntity
  8
0
  6
CONTINUOUS
 62
     2
100
AcDbMText
 10
71.279407767035
 20
-120.933062118085
 40
3.5
 41
0.0
 11
6.12323399573677E-017
 21
1.0
 71
     7
 72
     5
  7
STANDARD
  1
{\T1.60714;\W0.666667;59}
 73
     1
 44
1.0
  0
POINT
  5
285
100
AcDbEntity
  8
DEFPOINTS
  6
BYBLOCK
 62
     0
100
AcDbPoint
 10
43.25
 20
-89.2455621180843
  0
POINT
  5
286
100
AcDbEntity
  8
DEFPOINTS
  6
BYBLOCK
 62
     0
100
AcDbPoint
 10
43.25
 20
-148.245562118085
  0
POINT
  5
287
100
AcDbEntity
  8
DEFPOINTS
  6
BYBLOCK
 62
     0
100
AcDbPoint
 10
71.779407767035
 20
-148.245562118085
  0
ENDBLK
  5
288
100
AcDbEntity
  8
4
100
AcDbBlockEnd
  0
BLOCK
  5
28B
100
AcDbEntity
  8
0
100
AcDbBlockBegin
  2
*D3
 70
    65
 10
0.0
 20
0.0
  0
LINE
  5
28C
100
AcDbEntity
  8
0
  6
CONTINUOUS
 62
     2
100
AcDbLine
 10
33.494061655819
 20
-86.3464581456344
 11
22.133074664258
 21
-70.6267025830975
  0
LINE
  5
28D
100
AcDbEntity
  8
0
  6
CONTINUOUS
 62
     2
100
AcDbLine
 10
22.133074664258
 20
-70.6267025830975
 11
11.508074664258
 21
-70.6267025830975
  0
LINE
  5
28E
100
AcDbEntity
  8
0
  6
CONTINUOUS
 62
     2
100
AcDbLine
 10
31.917306187027
 20
-85.0183609384864
 11
33.494061655819
 21
-86.3464581456344
  0
LINE
  5
28F
100
AcDbEntity
  8
0
  6
CONTINUOUS
 62
     2
100
AcDbLine
 10
33.494061655819
 20
-86.3464581456344
 11
32.7277937514251
 21
-84.4326050951899
  0
MTEXT
  5
290
100
AcDbEntity
  8
0
  6
CONTINUOUS
 62
     2
100
AcDbMText
 10
12.008074664258
 20
-70.1267025830975
 40
3.5
 41
0.0
 11
1.0
 21
0.0
 71
     7
 72
     5
  7
STANDARD
  1
{\T1.60714;\W0.666667;2-M8}
 73
     1
 44
1.0
  0
POINT
  5
291
100
AcDbEntity
  8
DEFPOINTS
  6
BYBLOCK
 62
     0
100
AcDbPoint
 10
36.25
 20
-89.2455621180843
  0
POINT
  5
292
100
AcDbEntity
  8
DEFPOINTS
  6
BYBLOCK
 62
     0
100
AcDbPoint
 10
33.494061655819
 20
-86.3464581456344
  0
ENDBLK
  5
293
100
AcDbEntity
  8
4
100
AcDbBlockEnd
  0
BLOCK
  5
29E
100
AcDbEntity
  8
0
100
AcDbBlockBegin
  2
*D4
 70
    65
 10
0.0
 20
0.0
  0
LINE
  5
29F
100
AcDbEntity
  8
0
  6
CONTINUOUS
 62
     2
100
AcDbLine
 10
44.189973422949
 20
-162.834319512864
 11
65.24964861134
 21
-162.834319512864
  0
LINE
  5
2A0
100
AcDbEntity
  8
0
  6
CONTINUOUS
 62
     2
100
AcDbLine
 10
44.189973422949
 20
-162.834319512864
 11
36.249973422949
 21
-162.834319512864
  0
LINE
  5
2A1
100
AcDbEntity
  8
0
  6
CONTINUOUS
 62
     2
100
AcDbLine
 10
42.189973422949
 20
-163.334319512864
 11
44.189973422949
 21
-162.834319512864
  0
LINE
  5
2A2
100
AcDbEntity
  8
0
  6
CONTINUOUS
 62
     2
100
AcDbLine
 10
44.189973422949
 20
-162.834319512864
 11
42.189973422949
 21
-162.334319512864
  0
LINE
  5
2A3
100
AcDbEntity
  8
0
  6
CONTINUOUS
 62
     2
100
AcDbLine
 10
28.309973422949
 20
-162.834319512864
 11
36.249973422949
 21
-162.834319512864
  0
LINE
  5
2A4
100
AcDbEntity
  8
0
  6
CONTINUOUS
 62
     2
100
AcDbLine
 10
30.309973422949
 20
-162.334319512864
 11
28.309973422949
 21
-162.834319512864
  0
LINE
  5
2A5
100
AcDbEntity
  8
0
  6
CONTINUOUS
 62
     2
100
AcDbLine
 10
28.309973422949
 20
-162.834319512864
 11
30.309973422949
 21
-163.334319512864
  0
LINE
  5
2A6
100
AcDbEntity
  8
0
  6
CONTINUOUS
 62
     2
100
AcDbLine
 10
44.189973422949
 20
-125.324730688091
 11
44.189973422949
 21
-163.834319512864
  0
LINE
  5
2A7
100
AcDbEntity
  8
0
  6
CONTINUOUS
 62
     2
100
AcDbLine
 10
28.309973422949
 20
-125.32466126314
 11
28.309973422949
 21
-163.834319512864
  0
MTEXT
  5
2A8
100
AcDbEntity
  8
0
  6
CONTINUOUS
 62
     2
100
AcDbMText
 10
49.87464861134
 20
-162.334319512864
 40
3.5
 41
0.0
 11
1.0
 21
0.0
 71
     7
 72
     5
  7
STANDARD
  1
{\T1.60714;\W0.666667;□15.88}
 73
     1
 44
1.0
  0
POINT
  5
2A9
100
AcDbEntity
  8
DEFPOINTS
  6
BYBLOCK
 62
     0
100
AcDbPoint
 10
44.189973422949
 20
-124.824730688091
  0
POINT
  5
2AA
100
AcDbEntity
  8
DEFPOINTS
  6
BYBLOCK
 62
     0
100
AcDbPoint
 10
28.309973422949
 20
-124.82466126314
  0
POINT
  5
2AB
100
AcDbEntity
  8
DEFPOINTS
  6
BYBLOCK
 62
     0
100
AcDbPoint
 10
28.309973422949
 20
-162.834319512864
  0
ENDBLK
  5
2AC
100
AcDbEntity
  8
4
100
AcDbBlockEnd
  0
BLOCK
  5
2AF
100
AcDbEntity
  8
0
100
AcDbBlockBegin
  2
*D5
 70
    65
 10
0.0
 20
0.0
  0
ARC
  5
2B0
100
AcDbEntity
  8
0
  6
CONTINUOUS
 62
     2
100
AcDbCircle
 10
36.25
 20
-160.164427877895
 40
10.7302482991675
100
AcDbArc
 50
232.0
 51
270.0
  0
LINE
  5
2B1
100
AcDbEntity
  8
0
  6
CONTINUOUS
 62
     2
100
AcDbLine
 10
31.5276517464003
 20
-169.457296500357
 11
29.643799501524
 21
-168.619978926509
  0
LINE
  5
2B2
100
AcDbEntity
  8
0
  6
CONTINUOUS
 62
     2
100
AcDbLine
 10
29.643799501524
 20
-168.619978926509
 11
30.9119902710746
 21
-170.245307253964
  0
ARC
  5
2B3
100
AcDbEntity
  8
0
  6
CONTINUOUS
 62
     2
100
AcDbCircle
 10
36.25
 20
-160.164427877895
 40
10.7302482991675
100
AcDbArc
 50
270.0
 51
308.000000000001
  0
LINE
  5
2B4
100
AcDbEntity
  8
0
  6
CONTINUOUS
 62
     2
100
AcDbLine
 10
41.5880097289254
 20
-170.245307253964
 11
42.856200498476
 21
-168.619978926509
  0
LINE
  5
2B5
100
AcDbEntity
  8
0
  6
CONTINUOUS
 62
     2
100
AcDbLine
 10
42.856200498476
 20
-168.619978926509
 11
40.9723482535998
 21
-169.457296500357
  0
LINE
  5
2B6
100
AcDbEntity
  8
0
  6
CONTINUOUS
 62
     2
100
AcDbLine
 10
35.634338524674
 20
-160.952438631502
 11
28.412476550872
 21
-170.196000433723
  0
LINE
  5
2B7
100
AcDbEntity
  8
0
  6
CONTINUOUS
 62
     2
100
AcDbLine
 10
36.865661475326
 20
-160.952438631502
 11
44.087523449127
 21
-170.196000433722
  0
MTEXT
  5
2B8
100
AcDbEntity
  8
0
  6
CONTINUOUS
 62
     2
100
AcDbMText
 10
32.75
 20
-170.394676177062
 40
3.5
 41
0.0
 11
1.0
 21
5.29749333621834E-015
 71
     7
 72
     5
  7
STANDARD
  1
{\T1.60714;\W0.666667;76%%d}
 73
     1
 44
1.0
  0
POINT
  5
2B9
100
AcDbEntity
  8
DEFPOINTS
  6
BYBLOCK
 62
     0
100
AcDbPoint
 10
36.25
 20
-160.164427877895
  0
POINT
  5
2BA
100
AcDbEntity
  8
DEFPOINTS
  6
BYBLOCK
 62
     0
100
AcDbPoint
 10
36.25
 20
-160.164427877895
  0
POINT
  5
2BB
100
AcDbEntity
  8
DEFPOINTS
  6
BYBLOCK
 62
     0
100
AcDbPoint
 10
36.25
 20
-160.164427877895
  0
ENDBLK
  5
2BC
100
AcDbEntity
  8
4
100
AcDbBlockEnd
  0
BLOCK
  5
2C1
100
AcDbEntity
  8
0
100
AcDbBlockBegin
  2
*D6
 70
    65
 10
0.0
 20
0.0
  0
LINE
  5
2C2
100
AcDbEntity
  8
0
  6
CONTINUOUS
 62
     2
100
AcDbLine
 10
23.973721509567
 20
-153.119141891296
 11
18.749999999999
 21
-167.745562118084
  0
LINE
  5
2C3
100
AcDbEntity
  8
0
  6
CONTINUOUS
 62
     2
100
AcDbLine
 10
18.749999999999
 20
-167.745562118084
 11
10.749999999999
 21
-167.745562118084
  0
LINE
  5
2C4
100
AcDbEntity
  8
0
  6
CONTINUOUS
 62
     2
100
AcDbLine
 10
23.973721509567
 20
-153.119141891296
 11
36.25
 21
-118.745562118085
  0
LINE
  5
2C5
100
AcDbEntity
  8
0
  6
CONTINUOUS
 62
     2
100
AcDbLine
 10
24.1755233477659
 20
-151.067489869608
 11
23.973721509567
 21
-153.119141891296
  0
LINE
  5
2C6
100
AcDbEntity
  8
0
  6
CONTINUOUS
 62
     2
100
AcDbLine
 10
23.973721509567
 20
-153.119141891296
 11
25.1172652593607
 21
-151.403826266606
  0
LINE
  5
2C7
100
AcDbEntity
  8
0
  6
CONTINUOUS
 62
     2
100
AcDbLine
 10
48.526278490432
 20
-84.3719823448734
 11
36.25
 21
-118.745562118085
  0
LINE
  5
2C8
100
AcDbEntity
  8
0
  6
CONTINUOUS
 62
     2
100
AcDbLine
 10
48.3244766522331
 20
-86.4236343665622
 11
48.526278490432
 21
-84.3719823448734
  0
LINE
  5
2C9
100
AcDbEntity
  8
0
  6
CONTINUOUS
 62
     2
100
AcDbLine
 10
48.526278490432
 20
-84.3719823448734
 11
47.3827347406382
 21
-86.087297969564
  0
MTEXT
  5
2CA
100
AcDbEntity
  8
0
  6
CONTINUOUS
 62
     2
100
AcDbMText
 10
11.249999999999
 20
-167.245562118084
 40
3.5
 41
0.0
 11
1.0
 21
0.0
 71
     7
 72
     5
  7
STANDARD
  1
{\T1.60714;\W0.666667;%%c73}
 73
     1
 44
1.0
  0
POINT
  5
2CB
100
AcDbEntity
  8
DEFPOINTS
  6
BYBLOCK
 62
     0
100
AcDbPoint
 10
48.526278490432
 20
-84.3719823448734
  0
POINT
  5
2CC
100
AcDbEntity
  8
DEFPOINTS
  6
BYBLOCK
 62
     0
100
AcDbPoint
 10
23.973721509567
 20
-153.119141891296
  0
ENDBLK
  5
2CD
100
AcDbEntity
  8
4
100
AcDbBlockEnd
  0
BLOCK
  5
335
100
AcDbEntity
  8
0
100
AcDbBlockBegin
  2
*D7
 70
    65
 10
0.0
 20
0.0
  0
LINE
  5
336
100
AcDbEntity
  8
0
  6
CONTINUOUS
 62
     2
100
AcDbLine
 10
24.75
 20
-66.5064663493214
 11
36.25
 21
-66.5064663493214
  0
LINE
  5
337
100
AcDbEntity
  8
0
  6
CONTINUOUS
 62
     2
100
AcDbLine
 10
26.75
 20
-66.0064663493214
 11
24.75
 21
-66.5064663493214
  0
LINE
  5
338
100
AcDbEntity
  8
0
  6
CONTINUOUS
 62
     2
100
AcDbLine
 10
24.75
 20
-66.5064663493214
 11
26.75
 21
-67.0064663493214
  0
LINE
  5
339
100
AcDbEntity
  8
0
  6
CONTINUOUS
 62
     2
100
AcDbLine
 10
47.75
 20
-66.5064663493214
 11
36.25
 21
-66.5064663493214
  0
LINE
  5
33A
100
AcDbEntity
  8
0
  6
CONTINUOUS
 62
     2
100
AcDbLine
 10
45.75
 20
-67.0064663493214
 11
47.75
 21
-66.5064663493214
  0
LINE
  5
33B
100
AcDbEntity
  8
0
  6
CONTINUOUS
 62
     2
100
AcDbLine
 10
47.75
 20
-66.5064663493214
 11
45.75
 21
-66.0064663493214
  0
LINE
  5
33C
100
AcDbEntity
  8
0
  6
CONTINUOUS
 62
     2
100
AcDbLine
 10
24.75
 20
-80.2455621180854
 11
24.75
 21
-65.5064663493214
  0
LINE
  5
33D
100
AcDbEntity
  8
0
  6
CONTINUOUS
 62
     2
100
AcDbLine
 10
47.75
 20
-80.2455621180854
 11
47.75
 21
-65.5064663493214
  0
MTEXT
  5
33E
100
AcDbEntity
  8
0
  6
CONTINUOUS
 62
     2
100
AcDbMText
 10
34.0625
 20
-66.0064663493214
 40
3.5
 41
0.0
 11
1.0
 21
0.0
 71
     7
 72
     5
  7
STANDARD
  1
{\T1.60714;\W0.666667;23}
 73
     1
 44
1.0
  0
POINT
  5
33F
100
AcDbEntity
  8
DEFPOINTS
  6
BYBLOCK
 62
     0
100
AcDbPoint
 10
24.75
 20
-80.7455621180854
  0
POINT
  5
340
100
AcDbEntity
  8
DEFPOINTS
  6
BYBLOCK
 62
     0
100
AcDbPoint
 10
47.75
 20
-80.7455621180854
  0
POINT
  5
341
100
AcDbEntity
  8
DEFPOINTS
  6
BYBLOCK
 62
     0
100
AcDbPoint
 10
47.75
 20
-66.5064663493214
  0
ENDBLK
  5
342
100
AcDbEntity
  8
4
100
AcDbBlockEnd
  0
BLOCK
  5
34B
100
AcDbEntity
  8
0
100
AcDbBlockBegin
  2
*D8
 70
    65
 10
0.0
 20
0.0
  0
LINE
  5
34C
100
AcDbEntity
  8
0
  6
CONTINUOUS
 62
     2
100
AcDbLine
 10
-3.59467973613897
 20
-118.745562118085
 11
-3.59467973613897
 21
-99.2455621180854
  0
LINE
  5
34D
100
AcDbEntity
  8
0
  6
CONTINUOUS
 62
     2
100
AcDbLine
 10
-4.09467973613897
 20
-116.745562118085
 11
-3.59467973613897
 21
-118.745562118085
  0
LINE
  5
34E
100
AcDbEntity
  8
0
  6
CONTINUOUS
 62
     2
100
AcDbLine
 10
-3.59467973613897
 20
-118.745562118085
 11
-3.09467973613897
 21
-116.745562118085
  0
LINE
  5
34F
100
AcDbEntity
  8
0
  6
CONTINUOUS
 62
     2
100
AcDbLine
 10
-3.59467973613897
 20
-79.7455621180854
 11
-3.59467973613897
 21
-99.2455621180854
  0
LINE
  5
350
100
AcDbEntity
  8
0
  6
CONTINUOUS
 62
     2
100
AcDbLine
 10
-3.09467973613897
 20
-81.7455621180854
 11
-3.59467973613897
 21
-79.7455621180854
  0
LINE
  5
351
100
AcDbEntity
  8
0
  6
CONTINUOUS
 62
     2
100
AcDbLine
 10
-3.59467973613897
 20
-79.7455621180854
 11
-4.09467973613897
 21
-81.7455621180854
  0
LINE
  5
352
100
AcDbEntity
  8
0
  6
CONTINUOUS
 62
     2
100
AcDbLine
 10
7.75
 20
-118.745562118085
 11
-4.59467973613897
 21
-118.745562118085
  0
LINE
  5
353
100
AcDbEntity
  8
0
  6
CONTINUOUS
 62
     2
100
AcDbLine
 10
25.25
 20
-79.7455621180854
 11
-4.59467973613897
 21
-79.7455621180854
  0
MTEXT
  5
354
100
AcDbEntity
  8
0
  6
CONTINUOUS
 62
     2
100
AcDbMText
 10
-4.09467973613897
 20
-101.433062118085
 40
3.5
 41
0.0
 11
6.12323399573677E-017
 21
1.0
 71
     7
 72
     5
  7
STANDARD
  1
{\T1.60714;\W0.666667;39}
 73
     1
 44
1.0
  0
POINT
  5
355
100
AcDbEntity
  8
DEFPOINTS
  6
BYBLOCK
 62
     0
100
AcDbPoint
 10
8.25
 20
-118.745562118085
  0
POINT
  5
356
100
AcDbEntity
  8
DEFPOINTS
  6
BYBLOCK
 62
     0
100
AcDbPoint
 10
25.75
 20
-79.7455621180854
  0
POINT
  5
357
100
AcDbEntity
  8
DEFPOINTS
  6
BYBLOCK
 62
     0
100
AcDbPoint
 10
-3.59467973613897
 20
-79.7455621180854
  0
ENDBLK
  5
358
100
AcDbEntity
  8
4
100
AcDbBlockEnd
  0
BLOCK
  5
371
100
AcDbEntity
  8
0
100
AcDbBlockBegin
  2
*D9
 70
    65
 10
0.0
 20
0.0
  0
LINE
  5
372
100
AcDbEntity
  8
0
  6
CONTINUOUS
 62
     2
100
AcDbLine
 10
436.4
 20
-68.1983344485035
 11
418.4
 21
-68.1983344485035
  0
LINE
  5
373
100
AcDbEntity
  8
0
  6
CONTINUOUS
 62
     2
100
AcDbLine
 10
434.4
 20
-68.6983344485035
 11
436.4
 21
-68.1983344485035
  0
LINE
  5
374
100
AcDbEntity
  8
0
  6
CONTINUOUS
 62
     2
100
AcDbLine
 10
436.4
 20
-68.1983344485035
 11
434.4
 21
-67.6983344485035
  0
LINE
  5
375
100
AcDbEntity
  8
0
  6
CONTINUOUS
 62
     2
100
AcDbLine
 10
400.4
 20
-68.1983344485035
 11
418.4
 21
-68.1983344485035
  0
LINE
  5
376
100
AcDbEntity
  8
0
  6
CONTINUOUS
 62
     2
100
AcDbLine
 10
402.4
 20
-67.6983344485035
 11
400.4
 21
-68.1983344485035
  0
LINE
  5
377
100
AcDbEntity
  8
0
  6
CONTINUOUS
 62
     2
100
AcDbLine
 10
400.4
 20
-68.1983344485035
 11
402.4
 21
-68.6983344485035
  0
LINE
  5
378
100
AcDbEntity
  8
0
  6
CONTINUOUS
 62
     2
100
AcDbLine
 10
436.4
 20
-79.2455621180854
 11
436.4
 21
-67.1983344485035
  0
LINE
  5
379
100
AcDbEntity
  8
0
  6
CONTINUOUS
 62
     2
100
AcDbLine
 10
400.4
 20
-79.2455621180854
 11
400.4
 21
-67.1983344485035
  0
MTEXT
  5
37A
100
AcDbEntity
  8
0
  6
CONTINUOUS
 62
     2
100
AcDbMText
 10
416.2125
 20
-67.6983344485035
 40
3.5
 41
0.0
 11
1.0
 21
0.0
 71
     7
 72
     5
  7
STANDARD
  1
{\T1.60714;\W0.666667;36}
 73
     1
 44
1.0
  0
POINT
  5
37B
100
AcDbEntity
  8
DEFPOINTS
  6
BYBLOCK
 62
     0
100
AcDbPoint
 10
436.4
 20
-79.7455621180854
  0
POINT
  5
37C
100
AcDbEntity
  8
DEFPOINTS
  6
BYBLOCK
 62
     0
100
AcDbPoint
 10
400.4
 20
-79.7455621180854
  0
POINT
  5
37D
100
AcDbEntity
  8
DEFPOINTS
  6
BYBLOCK
 62
     0
100
AcDbPoint
 10
400.4
 20
-68.1983344485035
  0
ENDBLK
  5
37E
100
AcDbEntity
  8
4
100
AcDbBlockEnd
  0
BLOCK
  5
381
100
AcDbEntity
  8
0
100
AcDbBlockBegin
  2
*D10
 70
    65
 10
0.0
 20
0.0
  0
LINE
  5
382
100
AcDbEntity
  8
0
  6
CONTINUOUS
 62
     2
100
AcDbLine
 10
377.897872031865
 20
-78.7455621180854
 11
377.897872031865
 21
-98.7455621180854
  0
LINE
  5
383
100
AcDbEntity
  8
0
  6
CONTINUOUS
 62
     2
100
AcDbLine
 10
378.397872031865
 20
-80.7455621180854
 11
377.897872031865
 21
-78.7455621180854
  0
LINE
  5
384
100
AcDbEntity
  8
0
  6
CONTINUOUS
 62
     2
100
AcDbLine
 10
377.897872031865
 20
-78.7455621180854
 11
377.397872031865
 21
-80.7455621180854
  0
LINE
  5
385
100
AcDbEntity
  8
0
  6
CONTINUOUS
 62
     2
100
AcDbLine
 10
377.897872031865
 20
-118.745562118085
 11
377.897872031865
 21
-98.7455621180854
  0
LINE
  5
386
100
AcDbEntity
  8
0
  6
CONTINUOUS
 62
     2
100
AcDbLine
 10
377.397872031865
 20
-116.745562118085
 11
377.897872031865
 21
-118.745562118085
  0
LINE
  5
387
100
AcDbEntity
  8
0
  6
CONTINUOUS
 62
     2
100
AcDbLine
 10
377.897872031865
 20
-118.745562118085
 11
378.397872031865
 21
-116.745562118085
  0
LINE
  5
388
100
AcDbEntity
  8
0
  6
CONTINUOUS
 62
     2
100
AcDbLine
 10
400.9
 20
-78.7455621180854
 11
376.897872031865
 21
-78.7455621180854
  0
LINE
  5
389
100
AcDbEntity
  8
0
  6
CONTINUOUS
 62
     2
100
AcDbLine
 10
389.9
 20
-118.745562118085
 11
376.897872031865
 21
-118.745562118085
  0
MTEXT
  5
38A
100
AcDbEntity
  8
0
  6
CONTINUOUS
 62
     2
100
AcDbMText
 10
377.397872031865
 20
-100.933062118085
 40
3.5
 41
0.0
 11
6.12323399573677E-017
 21
1.0
 71
     7
 72
     5
  7
STANDARD
  1
{\T1.60714;\W0.666667;40}
 73
     1
 44
1.0
  0
POINT
  5
38B
100
AcDbEntity
  8
DEFPOINTS
  6
BYBLOCK
 62
     0
100
AcDbPoint
 10
401.4
 20
-78.7455621180854
  0
POINT
  5
38C
100
AcDbEntity
  8
DEFPOINTS
  6
BYBLOCK
 62
     0
100
AcDbPoint
 10
390.4
 20
-118.745562118085
  0
POINT
  5
38D
100
AcDbEntity
  8
DEFPOINTS
  6
BYBLOCK
 62
     0
100
AcDbPoint
 10
377.897872031865
 20
-118.745562118085
  0
ENDBLK
  5
38E
100
AcDbEntity
  8
4
100
AcDbBlockEnd
  0
BLOCK
  5
391
100
AcDbEntity
  8
0
100
AcDbBlockBegin
  2
*D11
 70
    65
 10
0.0
 20
0.0
  0
LINE
  5
392
100
AcDbEntity
  8
0
  6
CONTINUOUS
 62
     2
100
AcDbLine
 10
385.858589427107
 20
-97.7455621180854
 11
385.858589427107
 21
-108.245562118085
  0
LINE
  5
393
100
AcDbEntity
  8
0
  6
CONTINUOUS
 62
     2
100
AcDbLine
 10
386.358589427107
 20
-99.7455621180854
 11
385.858589427107
 21
-97.7455621180854
  0
LINE
  5
394
100
AcDbEntity
  8
0
  6
CONTINUOUS
 62
     2
100
AcDbLine
 10
385.858589427107
 20
-97.7455621180854
 11
385.358589427107
 21
-99.7455621180854
  0
LINE
  5
395
100
AcDbEntity
  8
0
  6
CONTINUOUS
 62
     2
100
AcDbLine
 10
385.858589427107
 20
-118.745562118085
 11
385.858589427107
 21
-108.245562118085
  0
LINE
  5
396
100
AcDbEntity
  8
0
  6
CONTINUOUS
 62
     2
100
AcDbLine
 10
385.358589427107
 20
-116.745562118085
 11
385.858589427107
 21
-118.745562118085
  0
LINE
  5
397
100
AcDbEntity
  8
0
  6
CONTINUOUS
 62
     2
100
AcDbLine
 10
385.858589427107
 20
-118.745562118085
 11
386.358589427107
 21
-116.745562118085
  0
LINE
  5
398
100
AcDbEntity
  8
0
  6
CONTINUOUS
 62
     2
100
AcDbLine
 10
389.9
 20
-97.7455621180854
 11
384.858589427107
 21
-97.7455621180854
  0
LINE
  5
399
100
AcDbEntity
  8
0
  6
CONTINUOUS
 62
     2
100
AcDbLine
 10
389.9
 20
-118.745562118085
 11
384.858589427107
 21
-118.745562118085
  0
MTEXT
  5
39A
100
AcDbEntity
  8
0
  6
CONTINUOUS
 62
     2
100
AcDbMText
 10
385.358589427107
 20
-110.433062118085
 40
3.5
 41
0.0
 11
6.12323399573677E-017
 21
1.0
 71
     7
 72
     5
  7
STANDARD
  1
{\T1.60714;\W0.666667;21}
 73
     1
 44
1.0
  0
POINT
  5
39B
100
AcDbEntity
  8
DEFPOINTS
  6
BYBLOCK
 62
     0
100
AcDbPoint
 10
390.4
 20
-97.7455621180854
  0
POINT
  5
39C
100
AcDbEntity
  8
DEFPOINTS
  6
BYBLOCK
 62
     0
100
AcDbPoint
 10
390.4
 20
-118.745562118085
  0
POINT
  5
39D
100
AcDbEntity
  8
DEFPOINTS
  6
BYBLOCK
 62
     0
100
AcDbPoint
 10
385.858589427107
 20
-118.745562118085
  0
ENDBLK
  5
39E
100
AcDbEntity
  8
4
100
AcDbBlockEnd
  0
BLOCK
  5
3A1
100
AcDbEntity
  8
0
100
AcDbBlockBegin
  2
*D12
 70
    65
 10
0.0
 20
0.0
  0
LINE
  5
3A2
100
AcDbEntity
  8
0
  6
CONTINUOUS
 62
     2
100
AcDbLine
 10
3.429495123989
 20
-90.2455621180843
 11
3.429495123989
 21
-104.495562118085
  0
LINE
  5
3A3
100
AcDbEntity
  8
0
  6
CONTINUOUS
 62
     2
100
AcDbLine
 10
3.929495123989
 20
-92.2455621180843
 11
3.429495123989
 21
-90.2455621180843
  0
LINE
  5
3A4
100
AcDbEntity
  8
0
  6
CONTINUOUS
 62
     2
100
AcDbLine
 10
3.429495123989
 20
-90.2455621180843
 11
2.929495123989
 21
-92.2455621180843
  0
LINE
  5
3A5
100
AcDbEntity
  8
0
  6
CONTINUOUS
 62
     2
100
AcDbLine
 10
3.429495123989
 20
-118.745562118085
 11
3.429495123989
 21
-104.495562118085
  0
LINE
  5
3A6
100
AcDbEntity
  8
0
  6
CONTINUOUS
 62
     2
100
AcDbLine
 10
2.929495123989
 20
-116.745562118085
 11
3.429495123989
 21
-118.745562118085
  0
LINE
  5
3A7
100
AcDbEntity
  8
0
  6
CONTINUOUS
 62
     2
100
AcDbLine
 10
3.429495123989
 20
-118.745562118085
 11
3.929495123989
 21
-116.745562118085
  0
LINE
  5
3A8
100
AcDbEntity
  8
0
  6
CONTINUOUS
 62
     2
100
AcDbLine
 10
12.946491498017
 20
-90.2455621180843
 11
2.429495123989
 21
-90.2455621180843
  0
LINE
  5
3A9
100
AcDbEntity
  8
0
  6
CONTINUOUS
 62
     2
100
AcDbLine
 10
7.75
 20
-118.745562118085
 11
2.429495123989
 21
-118.745562118085
  0
MTEXT
  5
3AA
100
AcDbEntity
  8
0
  6
CONTINUOUS
 62
     2
100
AcDbMText
 10
2.929495123989
 20
-109.308062118085
 40
3.5
 41
0.0
 11
6.12323399573677E-017
 21
1.0
 71
     7
 72
     5
  7
STANDARD
  1
{\T1.60714;\W0.666667;28.5}
 73
     1
 44
1.0
  0
POINT
  5
3AB
100
AcDbEntity
  8
DEFPOINTS
  6
BYBLOCK
 62
     0
100
AcDbPoint
 10
13.446491498017
 20
-90.2455621180843
  0
POINT
  5
3AC
100
AcDbEntity
  8
DEFPOINTS
  6
BYBLOCK
 62
     0
100
AcDbPoint
 10
8.25
 20
-118.745562118085
  0
POINT
  5
3AD
100
AcDbEntity
  8
DEFPOINTS
  6
BYBLOCK
 62
     0
100
AcDbPoint
 10
3.429495123989
 20
-118.745562118085
  0
ENDBLK
  5
3AE
100
AcDbEntity
  8
4
100
AcDbBlockEnd
  0
BLOCK
  5
3B7
100
AcDbEntity
  8
0
100
AcDbBlockBegin
  2
*D13
 70
    65
 10
0.0
 20
0.0
  0
LINE
  5
3B8
100
AcDbEntity
  8
0
  6
CONTINUOUS
 62
     2
100
AcDbLine
 10
0.0
 20
42.0
 11
10.0
 21
42.0
  0
LINE
  5
3B9
100
AcDbEntity
  8
0
  6
CONTINUOUS
 62
     2
100
AcDbLine
 10
2.0
 20
42.5
 11
0.0
 21
42.0
  0
LINE
  5
3BA
100
AcDbEntity
  8
0
  6
CONTINUOUS
 62
     2
100
AcDbLine
 10
0.0
 20
42.0
 11
2.0
 21
41.5
  0
LINE
  5
3BB
100
AcDbEntity
  8
0
  6
CONTINUOUS
 62
     2
100
AcDbLine
 10
20.0
 20
42.0
 11
10.0
 21
42.0
  0
LINE
  5
3BC
100
AcDbEntity
  8
0
  6
CONTINUOUS
 62
     2
100
AcDbLine
 10
18.0
 20
41.5
 11
20.0
 21
42.0
  0
LINE
  5
3BD
100
AcDbEntity
  8
0
  6
CONTINUOUS
 62
     2
100
AcDbLine
 10
20.0
 20
42.0
 11
18.0
 21
42.5
  0
MTEXT
  5
3BE
100
AcDbEntity
  8
0
  6
CONTINUOUS
 62
     2
100
AcDbMText
 10
7.8125
 20
42.5
 40
3.5
 41
0.0
 11
1.0
 21
0.0
 71
     7
 72
     5
  7
STANDARD
  1
{\T1.60714;\W0.666667;20}
 73
     1
 44
1.0
  0
LINE
  5
3BF
100
AcDbEntity
  8
0
  6
CONTINUOUS
 62
     2
100
AcDbLine
 10
20.0
 20
10.500026577051
 11
20.0
 21
43.0
  0
POINT
  5
3C0
100
AcDbEntity
  8
DEFPOINTS
  6
BYBLOCK
 62
     0
100
AcDbPoint
 10
0.0
 20
8.900026577051
  0
POINT
  5
3C1
100
AcDbEntity
  8
DEFPOINTS
  6
BYBLOCK
 62
     0
100
AcDbPoint
 10
20.0
 20
10.000026577051
  0
POINT
  5
3C2
100
AcDbEntity
  8
DEFPOINTS
  6
BYBLOCK
 62
     0
100
AcDbPoint
 10
20.0
 20
42.0
  0
ENDBLK
  5
3C3
100
AcDbEntity
  8
4
100
AcDbBlockEnd
  0
BLOCK
  5
3C6
100
AcDbEntity
  8
0
100
AcDbBlockBegin
  2
*D14
 70
    65
 10
0.0
 20
0.0
  0
LINE
  5
3C7
100
AcDbEntity
  8
0
  6
CONTINUOUS
 62
     2
100
AcDbLine
 10
36.25
 20
56.0
 11
18.125
 21
56.0
  0
LINE
  5
3C8
100
AcDbEntity
  8
0
  6
CONTINUOUS
 62
     2
100
AcDbLine
 10
34.25
 20
55.5
 11
36.25
 21
56.0
  0
LINE
  5
3C9
100
AcDbEntity
  8
0
  6
CONTINUOUS
 62
     2
100
AcDbLine
 10
36.25
 20
56.0
 11
34.25
 21
56.5
  0
LINE
  5
3CA
100
AcDbEntity
  8
0
  6
CONTINUOUS
 62
     2
100
AcDbLine
 10
0.0
 20
56.0
 11
18.125
 21
56.0
  0
LINE
  5
3CB
100
AcDbEntity
  8
0
  6
CONTINUOUS
 62
     2
100
AcDbLine
 10
2.0
 20
56.5
 11
0.0
 21
56.0
  0
LINE
  5
3CC
100
AcDbEntity
  8
0
  6
CONTINUOUS
 62
     2
100
AcDbLine
 10
0.0
 20
56.0
 11
2.0
 21
55.5
  0
MTEXT
  5
3CD
100
AcDbEntity
  8
0
  6
CONTINUOUS
 62
     2
100
AcDbMText
 10
12.0
 20
56.5
 40
3.5
 41
0.0
 11
1.0
 21
0.0
 71
     7
 72
     5
  7
STANDARD
  1
{\T1.60714;\W0.666667;36.25}
 73
     1
 44
1.0
  0
POINT
  5
3CE
100
AcDbEntity
  8
DEFPOINTS
  6
BYBLOCK
 62
     0
100
AcDbPoint
 10
36.25
 20
21.5
  0
POINT
  5
3CF
100
AcDbEntity
  8
DEFPOINTS
  6
BYBLOCK
 62
     0
100
AcDbPoint
 10
0.0
 20
8.900026577051
  0
POINT
  5
3D0
100
AcDbEntity
  8
DEFPOINTS
  6
BYBLOCK
 62
     0
100
AcDbPoint
 10
0.0
 20
56.0
  0
ENDBLK
  5
3D1
100
AcDbEntity
  8
4
100
AcDbBlockEnd
  0
BLOCK
  5
3D4
100
AcDbEntity
  8
0
100
AcDbBlockBegin
  2
*D15
 70
    65
 10
0.0
 20
0.0
  0
LINE
  5
3D5
100
AcDbEntity
  8
0
  6
CONTINUOUS
 62
     2
100
AcDbLine
 10
8.0
 20
28.0
 11
13.0
 21
28.0
  0
LINE
  5
3D6
100
AcDbEntity
  8
0
  6
CONTINUOUS
 62
     2
100
AcDbLine
 10
10.0
 20
28.5
 11
8.0
 21
28.0
  0
LINE
  5
3D7
100
AcDbEntity
  8
0
  6
CONTINUOUS
 62
     2
100
AcDbLine
 10
8.0
 20
28.0
 11
10.0
 21
27.5
  0
LINE
  5
3D8
100
AcDbEntity
  8
0
  6
CONTINUOUS
 62
     2
100
AcDbLine
 10
8.0
 20
28.0
 11
4.0
 21
28.0
  0
LINE
  5
3D9
100
AcDbEntity
  8
0
  6
CONTINUOUS
 62
     2
100
AcDbLine
 10
0.0
 20
28.0
 11
4.0
 21
28.0
  0
LINE
  5
3DA
100
AcDbEntity
  8
0
  6
CONTINUOUS
 62
     2
100
AcDbLine
 10
0.0
 20
28.0
 11
-5.0
 21
28.0
  0
LINE
  5
3DB
100
AcDbEntity
  8
0
  6
CONTINUOUS
 62
     2
100
AcDbLine
 10
-2.0
 20
27.5
 11
0.0
 21
28.0
  0
LINE
  5
3DC
100
AcDbEntity
  8
0
  6
CONTINUOUS
 62
     2
100
AcDbLine
 10
0.0
 20
28.0
 11
-2.0
 21
28.5
  0
MTEXT
  5
3DD
100
AcDbEntity
  8
0
  6
CONTINUOUS
 62
     2
100
AcDbMText
 10
3.125
 20
28.5
 40
3.5
 41
0.0
 11
1.0
 21
0.0
 71
     7
 72
     5
  7
STANDARD
  1
{\T1.60714;\W0.666667;8}
 73
     1
 44
1.0
  0
LINE
  5
3DE
100
AcDbEntity
  8
0
  6
CONTINUOUS
 62
     2
100
AcDbLine
 10
8.0
 20
4.000026577051
 11
8.0
 21
29.0
  0
POINT
  5
3DF
100
AcDbEntity
  8
DEFPOINTS
  6
BYBLOCK
 62
     0
100
AcDbPoint
 10
8.0
 20
3.500026577051
  0
POINT
  5
3E0
100
AcDbEntity
  8
DEFPOINTS
  6
BYBLOCK
 62
     0
100
AcDbPoint
 10
0.0
 20
7.940026577051
  0
POINT
  5
3E1
100
AcDbEntity
  8
DEFPOINTS
  6
BYBLOCK
 62
     0
100
AcDbPoint
 10
0.0
 20
28.0
  0
ENDBLK
  5
3E2
100
AcDbEntity
  8
4
100
AcDbBlockEnd
  0
BLOCK
  5
3E5
100
AcDbEntity
  8
0
100
AcDbBlockBegin
  2
*D16
 70
    65
 10
0.0
 20
0.0
  0
LINE
  5
3E6
100
AcDbEntity
  8
0
  6
CONTINUOUS
 62
     2
100
AcDbLine
 10
36.25
 20
56.0
 11
31.25
 21
56.0
  0
LINE
  5
3E7
100
AcDbEntity
  8
0
  6
CONTINUOUS
 62
     2
100
AcDbLine
 10
34.25
 20
55.5
 11
36.25
 21
56.0
  0
LINE
  5
3E8
100
AcDbEntity
  8
0
  6
CONTINUOUS
 62
     2
100
AcDbLine
 10
36.25
 20
56.0
 11
34.25
 21
56.5
  0
LINE
  5
3E9
100
AcDbEntity
  8
0
  6
CONTINUOUS
 62
     2
100
AcDbLine
 10
36.25
 20
56.0
 11
38.125
 21
56.0
  0
LINE
  5
3EA
100
AcDbEntity
  8
0
  6
CONTINUOUS
 62
     2
100
AcDbLine
 10
40.0
 20
56.0
 11
38.125
 21
56.0
  0
LINE
  5
3EB
100
AcDbEntity
  8
0
  6
CONTINUOUS
 62
     2
100
AcDbLine
 10
40.0
 20
56.0
 11
65.9375
 21
56.0
  0
LINE
  5
3EC
100
AcDbEntity
  8
0
  6
CONTINUOUS
 62
     2
100
AcDbLine
 10
42.0
 20
56.5
 11
40.0
 21
56.0
  0
LINE
  5
3ED
100
AcDbEntity
  8
0
  6
CONTINUOUS
 62
     2
100
AcDbLine
 10
40.0
 20
56.0
 11
42.0
 21
55.5
  0
MTEXT
  5
3EE
100
AcDbEntity
  8
0
  6
CONTINUOUS
 62
     2
100
AcDbMText
 10
34.6088693839146
 20
61.6074998761927
 40
3.5
 41
0.0
 11
1.0
 21
0.0
 71
     7
 72
     5
  7
STANDARD
  1
{\T1.60714;\W0.666667;3.75}
 73
     1
 44
1.0
  0
LINE
  5
3EF
100
AcDbEntity
  8
0
  6
CONTINUOUS
 62
     2
100
AcDbLine
 10
40.0
 20
37.0
 11
40.0
 21
57.0
  0
LINE
  5
3F0
100
AcDbEntity
  8
0
  6
CONTINUOUS
 62
     2
100
AcDbLine
 10
36.25
 20
22.0
 11
36.25
 21
57.0
  0
POINT
  5
3F1
100
AcDbEntity
  8
DEFPOINTS
  6
BYBLOCK
 62
     0
100
AcDbPoint
 10
36.25
 20
21.5
  0
POINT
  5
3F2
100
AcDbEntity
  8
DEFPOINTS
  6
BYBLOCK
 62
     0
100
AcDbPoint
 10
40.0
 20
36.5
  0
POINT
  5
3F3
100
AcDbEntity
  8
DEFPOINTS
  6
BYBLOCK
 62
     0
100
AcDbPoint
 10
40.0
 20
56.0
  0
ENDBLK
  5
3F4
100
AcDbEntity
  8
4
100
AcDbBlockEnd
  0
BLOCK
  5
3F7
100
AcDbEntity
  8
0
100
AcDbBlockBegin
  2
*D17
 70
    65
 10
0.0
 20
0.0
  0
LINE
  5
3F8
100
AcDbEntity
  8
0
  6
CONTINUOUS
 62
     2
100
AcDbLine
 10
418.4
 20
70.0
 11
209.2
 21
70.0
  0
LINE
  5
3F9
100
AcDbEntity
  8
0
  6
CONTINUOUS
 62
     2
100
AcDbLine
 10
416.4
 20
69.5
 11
418.4
 21
70.0
  0
LINE
  5
3FA
100
AcDbEntity
  8
0
  6
CONTINUOUS
 62
     2
100
AcDbLine
 10
418.4
 20
70.0
 11
416.4
 21
70.5
  0
LINE
  5
3FB
100
AcDbEntity
  8
0
  6
CONTINUOUS
 62
     2
100
AcDbLine
 10
0.0
 20
70.0
 11
209.2
 21
70.0
  0
LINE
  5
3FC
100
AcDbEntity
  8
0
  6
CONTINUOUS
 62
     2
100
AcDbLine
 10
2.0
 20
70.5
 11
0.0
 21
70.0
  0
LINE
  5
3FD
100
AcDbEntity
  8
0
  6
CONTINUOUS
 62
     2
100
AcDbLine
 10
0.0
 20
70.0
 11
2.0
 21
69.5
  0
LINE
  5
3FE
100
AcDbEntity
  8
0
  6
CONTINUOUS
 62
     2
100
AcDbLine
 10
418.4
 20
34.1999999993741
 11
418.4
 21
71.0
  0
LINE
  5
3FF
100
AcDbEntity
  8
0
  6
CONTINUOUS
 62
     2
100
AcDbLine
 10
0.0
 20
9.940026577051
 11
0.0
 21
72.0
  0
MTEXT
  5
400
100
AcDbEntity
  8
0
  6
CONTINUOUS
 62
     2
100
AcDbMText
 10
203.075
 20
70.5
 40
3.5
 41
0.0
 11
1.0
 21
0.0
 71
     7
 72
     5
  7
STANDARD
  1
{\T1.60714;\W0.666667;418.4}
 73
     1
 44
1.0
  0
POINT
  5
401
100
AcDbEntity
  8
DEFPOINTS
  6
BYBLOCK
 62
     0
100
AcDbPoint
 10
418.4
 20
33.6999999993741
  0
POINT
  5
402
100
AcDbEntity
  8
DEFPOINTS
  6
BYBLOCK
 62
     0
100
AcDbPoint
 10
0.0
 20
8.940026577051
  0
POINT
  5
403
100
AcDbEntity
  8
DEFPOINTS
  6
BYBLOCK
 62
     0
100
AcDbPoint
 10
0.0
 20
70.0
  0
ENDBLK
  5
404
100
AcDbEntity
  8
4
100
AcDbBlockEnd
  0
BLOCK
  5
407
100
AcDbEntity
  8
0
100
AcDbBlockBegin
  2
*D18
 70
    65
 10
0.0
 20
0.0
  0
LINE
  5
408
100
AcDbEntity
  8
0
  6
CONTINUOUS
 62
     2
100
AcDbLine
 10
29.0
 20
-9.999973422949
 11
29.0
 21
-46.0
  0
LINE
  5
409
100
AcDbEntity
  8
0
  6
CONTINUOUS
 62
     2
100
AcDbLine
 10
29.0
 20
-9.999973422949
 11
29.0
 21
2.65770509990659E-005
  0
LINE
  5
40A
100
AcDbEntity
  8
0
  6
CONTINUOUS
 62
     2
100
AcDbLine
 10
28.5
 20
-7.999973422949
 11
29.0
 21
-9.999973422949
  0
LINE
  5
40B
100
AcDbEntity
  8
0
  6
CONTINUOUS
 62
     2
100
AcDbLine
 10
29.0
 20
-9.999973422949
 11
29.5
 21
-7.999973422949
  0
LINE
  5
40C
100
AcDbEntity
  8
0
  6
CONTINUOUS
 62
     2
100
AcDbLine
 10
29.0
 20
10.000026577051
 11
29.0
 21
2.65770509990659E-005
  0
LINE
  5
40D
100
AcDbEntity
  8
0
  6
CONTINUOUS
 62
     2
100
AcDbLine
 10
29.5
 20
8.000026577051
 11
29.0
 21
10.000026577051
  0
LINE
  5
40E
100
AcDbEntity
  8
0
  6
CONTINUOUS
 62
     2
100
AcDbLine
 10
29.0
 20
10.000026577051
 11
28.5
 21
8.000026577051
  0
MTEXT
  5
40F
100
AcDbEntity
  8
0
  6
CONTINUOUS
 62
     2
100
AcDbMText
 10
28.5
 20
-45.5
 40
3.5
 41
0.0
 11
6.12323399573677E-017
 21
1.0
 71
     7
 72
     5
  7
STANDARD
  1
{\T1.60714;\W0.666667;%%c20}
 73
     1
 44
1.0
  0
POINT
  5
410
100
AcDbEntity
  8
DEFPOINTS
  6
BYBLOCK
 62
     0
100
AcDbPoint
 10
31.0
 20
-9.999973422949
  0
POINT
  5
411
100
AcDbEntity
  8
DEFPOINTS
  6
BYBLOCK
 62
     0
100
AcDbPoint
 10
31.0
 20
10.000026577051
  0
POINT
  5
412
100
AcDbEntity
  8
DEFPOINTS
  6
BYBLOCK
 62
     0
100
AcDbPoint
 10
29.0
 20
10.000026577051
  0
ENDBLK
  5
413
100
AcDbEntity
  8
4
100
AcDbBlockEnd
  0
BLOCK
  5
416
100
AcDbEntity
  8
0
100
AcDbBlockBegin
  2
*D19
 70
    65
 10
0.0
 20
0.0
  0
LINE
  5
417
100
AcDbEntity
  8
0
  6
CONTINUOUS
 62
     2
100
AcDbLine
 10
-5.17703485647598
 20
22.0
 11
-5.17703485647598
 21
0.0
  0
LINE
  5
418
100
AcDbEntity
  8
0
  6
CONTINUOUS
 62
     2
100
AcDbLine
 10
-4.67703485647598
 20
20.0
 11
-5.17703485647598
 21
22.0
  0
LINE
  5
419
100
AcDbEntity
  8
0
  6
CONTINUOUS
 62
     2
100
AcDbLine
 10
-5.17703485647598
 20
22.0
 11
-5.67703485647598
 21
20.0
  0
LINE
  5
41A
100
AcDbEntity
  8
0
  6
CONTINUOUS
 62
     2
100
AcDbLine
 10
-5.17703485647598
 20
-22.0
 11
-5.17703485647598
 21
0.0
  0
LINE
  5
41B
100
AcDbEntity
  8
0
  6
CONTINUOUS
 62
     2
100
AcDbLine
 10
-5.67703485647598
 20
-20.0
 11
-5.17703485647598
 21
-22.0
  0
LINE
  5
41C
100
AcDbEntity
  8
0
  6
CONTINUOUS
 62
     2
100
AcDbLine
 10
-5.17703485647598
 20
-22.0
 11
-4.67703485647598
 21
-20.0
  0
LINE
  5
41D
100
AcDbEntity
  8
0
  6
CONTINUOUS
 62
     2
100
AcDbLine
 10
36.25
 20
22.0
 11
-6.17703485647598
 21
22.0
  0
LINE
  5
41E
100
AcDbEntity
  8
0
  6
CONTINUOUS
 62
     2
100
AcDbLine
 10
36.25
 20
-22.0
 11
-6.17703485647598
 21
-22.0
  0
MTEXT
  5
41F
100
AcDbEntity
  8
0
  6
CONTINUOUS
 62
     2
100
AcDbMText
 10
-6.67703485647598
 20
-8.375
 40
3.5
 41
0.0
 11
6.12323399573677E-017
 21
1.0
 71
     7
 72
     5
  7
STANDARD
  1
{\T1.60714;\W0.666667;%%c44}
 73
     1
 44
1.0
  0
MTEXT
  5
420
100
AcDbEntity
  8
0
  6
CONTINUOUS
 62
     2
100
AcDbMText
 10
-8.67703485647598
 20
-0.375
 40
2.5
 41
0.0
 11
6.12323399573677E-017
 21
1.0
 71
     7
 72
     5
  7
STANDARD
  1
{\T1.60714;\W0.666667;-0.05}
 73
     1
 44
1.0
  0
MTEXT
  5
421
100
AcDbEntity
  8
0
  6
CONTINUOUS
 62
     2
100
AcDbMText
 10
-5.67703485647598
 20
-0.375
 40
2.5
 41
0.0
 11
6.12323399573677E-017
 21
1.0
 71
     7
 72
     5
  7
STANDARD
  1
{\T1.60714;\W0.666667;-0.1}
 73
     1
 44
1.0
  0
POINT
  5
422
100
AcDbEntity
  8
DEFPOINTS
  6
BYBLOCK
 62
     0
100
AcDbPoint
 10
36.75
 20
22.0
  0
POINT
  5
423
100
AcDbEntity
  8
DEFPOINTS
  6
BYBLOCK
 62
     0
100
AcDbPoint
 10
36.75
 20
-22.0
  0
POINT
  5
424
100
AcDbEntity
  8
DEFPOINTS
  6
BYBLOCK
 62
     0
100
AcDbPoint
 10
-5.17703485647598
 20
-22.0
  0
ENDBLK
  5
425
100
AcDbEntity
  8
4
100
AcDbBlockEnd
  0
BLOCK
  5
429
100
AcDbEntity
  8
0
100
AcDbBlockBegin
  2
*D20
 70
    65
 10
0.0
 20
0.0
  0
LINE
  5
42A
100
AcDbEntity
  8
0
  6
CONTINUOUS
 62
     2
100
AcDbLine
 10
8.81613327475799
 20
-2.096739141343
 11
15.248640990464
 21
-18.622792028478
  0
LINE
  5
42B
100
AcDbEntity
  8
0
  6
CONTINUOUS
 62
     2
100
AcDbLine
 10
15.248640990464
 20
-18.622792028478
 11
25.873640990464
 21
-18.622792028478
  0
LINE
  5
42C
100
AcDbEntity
  8
0
  6
CONTINUOUS
 62
     2
100
AcDbLine
 10
10.0075330119637
 20
-3.77916794108051
 11
8.81613327475799
 21
-2.096739141343
  0
LINE
  5
42D
100
AcDbEntity
  8
0
  6
CONTINUOUS
 62
     2
100
AcDbLine
 10
8.81613327475799
 20
-2.096739141343
 11
9.07563713712183
 21
-4.1418938409729
  0
LINE
  5
42E
100
AcDbEntity
  8
0
  6
CONTINUOUS
 62
     2
100
AcDbLine
 10
8.81613327475799
 20
-2.096739141343
 11
8.0
 21
2.65770509990659E-005
  0
LINE
  5
42F
100
AcDbEntity
  8
0
  6
CONTINUOUS
 62
     2
100
AcDbLine
 10
7.18386672524201
 20
2.096792295446
 11
8.0
 21
2.65770509990659E-005
  0
LINE
  5
430
100
AcDbEntity
  8
0
  6
CONTINUOUS
 62
     2
100
AcDbLine
 10
7.18386672524201
 20
2.096792295446
 11
6.09568902556498
 21
4.892479919971
  0
LINE
  5
431
100
AcDbEntity
  8
0
  6
CONTINUOUS
 62
     2
100
AcDbLine
 10
5.99246698803631
 20
3.77922109518351
 11
7.18386672524201
 21
2.096792295446
  0
LINE
  5
432
100
AcDbEntity
  8
0
  6
CONTINUOUS
 62
     2
100
AcDbLine
 10
7.18386672524201
 20
2.096792295446
 11
6.92436286287816
 21
4.14194699507589
  0
MTEXT
  5
433
100
AcDbEntity
  8
0
  6
CONTINUOUS
 62
     2
100
AcDbMText
 10
15.748640990464
 20
-18.122792028478
 40
3.5
 41
0.0
 11
1.0
 21
0.0
 71
     7
 72
     5
  7
STANDARD
  1
{\T1.60714;\W0.666667;%%c4.5}
 73
     1
 44
1.0
  0
POINT
  5
434
100
AcDbEntity
  8
DEFPOINTS
  6
BYBLOCK
 62
     0
100
AcDbPoint
 10
7.18386672524201
 20
2.096792295446
  0
POINT
  5
435
100
AcDbEntity
  8
DEFPOINTS
  6
BYBLOCK
 62
     0
100
AcDbPoint
 10
8.81613327475799
 20
-2.096739141343
  0
ENDBLK
  5
436
100
AcDbEntity
  8
4
100
AcDbBlockEnd
  0
BLOCK
  5
475
100
AcDbEntity
  8
0
100
AcDbBlockBegin
  2
*D21
 70
    65
 10
0.0
 20
0.0
  0
LINE
  5
476
100
AcDbEntity
  8
0
  6
CONTINUOUS
 62
     2
100
AcDbLine
 10
490.4
 20
69.6735333555189
 11
454.4
 21
69.6735333555189
  0
LINE
  5
477
100
AcDbEntity
  8
0
  6
CONTINUOUS
 62
     2
100
AcDbLine
 10
488.4
 20
69.1735333555189
 11
490.4
 21
69.6735333555189
  0
LINE
  5
478
100
AcDbEntity
  8
0
  6
CONTINUOUS
 62
     2
100
AcDbLine
 10
490.4
 20
69.6735333555189
 11
488.4
 21
70.1735333555189
  0
LINE
  5
479
100
AcDbEntity
  8
0
  6
CONTINUOUS
 62
     2
100
AcDbLine
 10
418.4
 20
69.6735333555189
 11
454.4
 21
69.6735333555189
  0
LINE
  5
47A
100
AcDbEntity
  8
0
  6
CONTINUOUS
 62
     2
100
AcDbLine
 10
420.4
 20
70.1735333555189
 11
418.4
 21
69.6735333555189
  0
LINE
  5
47B
100
AcDbEntity
  8
0
  6
CONTINUOUS
 62
     2
100
AcDbLine
 10
418.4
 20
69.6735333555189
 11
420.4
 21
69.1735333555189
  0
LINE
  5
47C
100
AcDbEntity
  8
0
  6
CONTINUOUS
 62
     2
100
AcDbLine
 10
490.4
 20
32.096421787152
 11
490.4
 21
70.6735333555189
  0
LINE
  5
47D
100
AcDbEntity
  8
0
  6
CONTINUOUS
 62
     2
100
AcDbLine
 10
418.4
 20
34.6999999993741
 11
418.4
 21
70.6735333555189
  0
MTEXT
  5
47E
100
AcDbEntity
  8
0
  6
CONTINUOUS
 62
     2
100
AcDbMText
 10
449.5875
 20
70.1735333555189
 40
3.5
 41
0.0
 11
1.0
 21
0.0
 71
     7
 72
     5
  7
STANDARD
  1
{\T1.60714;\W0.666667;(72)}
 73
     1
 44
1.0
  0
POINT
  5
47F
100
AcDbEntity
  8
DEFPOINTS
  6
BYBLOCK
 62
     0
100
AcDbPoint
 10
490.4
 20
31.596421787152
  0
POINT
  5
480
100
AcDbEntity
  8
DEFPOINTS
  6
BYBLOCK
 62
     0
100
AcDbPoint
 10
418.4
 20
34.1999999993741
  0
POINT
  5
481
100
AcDbEntity
  8
DEFPOINTS
  6
BYBLOCK
 62
     0
100
AcDbPoint
 10
418.4
 20
69.6735333555189
  0
ENDBLK
  5
482
100
AcDbEntity
  8
4
100
AcDbBlockEnd
  0
BLOCK
  5
485
100
AcDbEntity
  8
0
100
AcDbBlockBegin
  2
*D22
 70
    65
 10
0.0
 20
0.0
  0
LINE
  5
486
100
AcDbEntity
  8
0
  6
CONTINUOUS
 62
     2
100
AcDbLine
 10
418.4
 20
56.0
 11
229.2
 21
56.0
  0
LINE
  5
487
100
AcDbEntity
  8
0
  6
CONTINUOUS
 62
     2
100
AcDbLine
 10
416.4
 20
55.5
 11
418.4
 21
56.0
  0
LINE
  5
488
100
AcDbEntity
  8
0
  6
CONTINUOUS
 62
     2
100
AcDbLine
 10
418.4
 20
56.0
 11
416.4
 21
56.5
  0
LINE
  5
489
100
AcDbEntity
  8
0
  6
CONTINUOUS
 62
     2
100
AcDbLine
 10
40.0
 20
56.0
 11
229.2
 21
56.0
  0
LINE
  5
48A
100
AcDbEntity
  8
0
  6
CONTINUOUS
 62
     2
100
AcDbLine
 10
42.0
 20
56.5
 11
40.0
 21
56.0
  0
LINE
  5
48B
100
AcDbEntity
  8
0
  6
CONTINUOUS
 62
     2
100
AcDbLine
 10
40.0
 20
56.0
 11
42.0
 21
55.5
  0
LINE
  5
48C
100
AcDbEntity
  8
0
  6
CONTINUOUS
 62
     2
100
AcDbLine
 10
418.4
 20
35.1999999993741
 11
418.4
 21
57.0
  0
LINE
  5
48D
100
AcDbEntity
  8
0
  6
CONTINUOUS
 62
     2
100
AcDbLine
 10
40.0
 20
37.0
 11
40.0
 21
57.0
  0
MTEXT
  5
48E
100
AcDbEntity
  8
0
  6
CONTINUOUS
 62
     2
100
AcDbMText
 10
223.075
 20
56.5
 40
3.5
 41
0.0
 11
1.0
 21
0.0
 71
     7
 72
     5
  7
STANDARD
  1
{\T1.60714;\W0.666667;378.4}
 73
     1
 44
1.0
  0
POINT
  5
48F
100
AcDbEntity
  8
DEFPOINTS
  6
BYBLOCK
 62
     0
100
AcDbPoint
 10
418.4
 20
34.6999999993741
  0
POINT
  5
490
100
AcDbEntity
  8
DEFPOINTS
  6
BYBLOCK
 62
     0
100
AcDbPoint
 10
40.0
 20
36.5
  0
POINT
  5
491
100
AcDbEntity
  8
DEFPOINTS
  6
BYBLOCK
 62
     0
100
AcDbPoint
 10
40.0
 20
56.0
  0
ENDBLK
  5
492
100
AcDbEntity
  8
4
100
AcDbBlockEnd
  0
BLOCK
  5
26
100
AcDbEntity
  8
0
100
AcDbBlockBegin
  2
SUB1
 70
    64
 10
0.0
 20
0.0
  0
LINE
  5
27
100
AcDbEntity
  8
2
  6
CONTINUOUS
 62
     0
100
AcDbLine
 10
141.0
 20
41.0
 11
143.0
 21
41.0
  0
LINE
  5
29
100
AcDbEntity
  8
6
  6
CENTER
 62
     0
100
AcDbLine
 10
-42.5
 20
0.0
 11
383.5
 21
0.0
  0
LINE
  5
2B
100
AcDbEntity
  8
2
  6
CONTINUOUS
 62
     0
100
AcDbLine
 10
149.0
 20
28.5
 11
149.0
 21
-36.5
  0
LINE
  5
2C
100
AcDbEntity
  8
2
  6
CONTINUOUS
 62
     0
100
AcDbLine
 10
310.0
 20
-28.0
 11
355.0
 21
-28.0
  0
LINE
  5
2D
100
AcDbEntity
  8
2
  6
CONTINUOUS
 62
     0
100
AcDbLine
 10
310.0
 20
39.999999999998
 11
355.0
 21
39.999999999998
  0
LINE
  5
2E
100
AcDbEntity
  8
2
  6
CONTINUOUS
 62
     0
100
AcDbLine
 10
355.0
 20
39.999999999998
 11
355.0
 21
-28.0
  0
LINE
  5
2F
100
AcDbEntity
  8
2
  6
CONTINUOUS
 62
     0
100
AcDbLine
 10
350.0
 20
-28.0
 11
350.0
 21
39.999999999998
  0
LINE
  5
30
100
AcDbEntity
  8
2
  6
CONTINUOUS
 62
     0
100
AcDbLine
 10
310.0
 20
-28.0
 11
310.0
 21
39.999999999998
  0
LWPOLYLINE
  5
31
100
AcDbEntity
  8
2
  6
CONTINUOUS
 62
     0
100
AcDbPolyline
 90
        6
 70
     1
 43
0.0
 10
309.7
 20
-28.0
 10
304.0
 20
-28.0
 10
304.0
 20
28.0
 10
309.7
 20
28.0
 10
310.0
 20
27.7
 10
310.0
 20
-27.7
  0
LINE
  5
32
100
AcDbEntity
  8
2
  6
CONTINUOUS
 62
     0
100
AcDbLine
 10
146.5
 20
39.0
 11
310.0
 21
39.0
  0
LINE
  5
33
100
AcDbEntity
  8
2
  6
CONTINUOUS
 62
     0
100
AcDbLine
 10
157.0
 20
23.751824435154
 11
304.0
 21
23.751824435154
  0
LINE
  5
34
100
AcDbEntity
  8
2
  6
CONTINUOUS
 62
     0
100
AcDbLine
 10
157.0
 20
22.569808304744
 11
304.0
 21
22.569808304744
  0
LINE
  5
35
100
AcDbEntity
  8
2
  6
CONTINUOUS
 62
     0
100
AcDbLine
 10
157.0
 20
21.387792174337
 11
304.0
 21
21.387792174337
  0
LINE
  5
36
100
AcDbEntity
  8
2
  6
CONTINUOUS
 62
     0
100
AcDbLine
 10
157.0
 20
20.205776043927
 11
304.0
 21
20.205776043927
  0
LINE
  5
37
100
AcDbEntity
  8
2
  6
CONTINUOUS
 62
     0
100
AcDbLine
 10
157.0
 20
17.841743783106
 11
304.0
 21
17.841743783106
  0
LINE
  5
38
100
AcDbEntity
  8
2
  6
CONTINUOUS
 62
     0
100
AcDbLine
 10
157.0
 20
16.659727652696
 11
304.0
 21
16.659727652696
  0
LINE
  5
39
100
AcDbEntity
  8
2
  6
CONTINUOUS
 62
     0
100
AcDbLine
 10
157.0
 20
-23.751824435154
 11
304.0
 21
-23.751824435154
  0
LINE
  5
3A
100
AcDbEntity
  8
2
  6
CONTINUOUS
 62
     0
100
AcDbLine
 10
157.0
 20
-22.569808304744
 11
304.0
 21
-22.569808304744
  0
LINE
  5
3B
100
AcDbEntity
  8
2
  6
CONTINUOUS
 62
     0
100
AcDbLine
 10
157.0
 20
-21.387792174337
 11
304.0
 21
-21.387792174337
  0
LINE
  5
3C
100
AcDbEntity
  8
2
  6
CONTINUOUS
 62
     0
100
AcDbLine
 10
157.0
 20
-20.205776043927
 11
304.0
 21
-20.205776043927
  0
LINE
  5
3D
100
AcDbEntity
  8
2
  6
CONTINUOUS
 62
     0
100
AcDbLine
 10
157.0
 20
-19.023759913517
 11
304.0
 21
-19.023759913517
  0
LINE
  5
3E
100
AcDbEntity
  8
2
  6
CONTINUOUS
 62
     0
100
AcDbLine
 10
157.0
 20
-17.841743783106
 11
304.0
 21
-17.841743783106
  0
LINE
  5
3F
100
AcDbEntity
  8
2
  6
CONTINUOUS
 62
     0
100
AcDbLine
 10
157.0
 20
-16.659727652696
 11
304.0
 21
-16.659727652696
  0
LINE
  5
40
100
AcDbEntity
  8
2
  6
CONTINUOUS
 62
     0
100
AcDbLine
 10
310.0
 20
-25.765539984375
 11
355.0
 21
-25.765539984375
  0
LINE
  5
41
100
AcDbEntity
  8
0
  6
CONTINUOUS
 62
     0
100
AcDbLine
 10
356.0
 20
4.729999999374
 11
359.2
 21
4.729999999374
  0
LINE
  5
42
100
AcDbEntity
  8
0
  6
CONTINUOUS
 62
     0
100
AcDbLine
 10
359.2
 20
4.729999999374
 11
359.2
 21
37.269999999374
  0
LINE
  5
43
100
AcDbEntity
  8
0
  6
CONTINUOUS
 62
     0
100
AcDbLine
 10
359.2
 20
37.269999999374
 11
356.0
 21
37.269999999374
  0
LINE
  5
44
100
AcDbEntity
  8
0
  6
CONTINUOUS
 62
     0
100
AcDbLine
 10
362.2
 20
34.699999999374
 11
364.4
 21
34.699999999374
  0
LINE
  5
45
100
AcDbEntity
  8
0
  6
CONTINUOUS
 62
     0
100
AcDbLine
 10
364.4
 20
7.29999999937399
 11
362.2
 21
7.29999999937399
  0
LINE
  5
46
100
AcDbEntity
  8
6
  6
CENTER
 62
     0
100
AcDbLine
 10
349.08074609232
 20
33.299998287311
 11
364.20664298926
 21
33.299998287311
  0
LWPOLYLINE
  5
47
100
AcDbEntity
  8
0
  6
CONTINUOUS
 62
     0
100
AcDbPolyline
 90
        6
 70
     1
 43
0.0
 10
359.2
 20
36.049998287311
 10
361.9
 20
36.049998287311
 10
362.2
 20
35.749998287311
 10
362.2
 20
30.849998287311
 10
361.9
 20
30.549998287311
 10
359.2
 20
30.549998287311
  0
LINE
  5
48
100
AcDbEntity
  8
6
  6
CENTER
 62
     0
100
AcDbLine
 10
349.08074609232
 20
8.70000171291304
 11
364.20664298926
 21
8.70000171291304
  0
LWPOLYLINE
  5
49
100
AcDbEntity
  8
0
  6
CONTINUOUS
 62
     0
100
AcDbPolyline
 90
        6
 70
     1
 43
0.0
 10
359.2
 20
5.950001712914
 10
361.9
 20
5.950001712914
 10
362.2
 20
6.25000171291401
 10
362.2
 20
11.150001712914
 10
361.9
 20
11.450001712914
 10
359.2
 20
11.450001712914
  0
LWPOLYLINE
  5
4A
100
AcDbEntity
  8
0
  6
CONTINUOUS
 62
     0
100
AcDbPolyline
 90
        4
 70
     1
 43
0.0
 10
356.0
 20
37.269999999374
 10
355.0
 20
37.269999999374
 10
355.0
 20
4.729999999374
 10
356.0
 20
4.729999999374
  0
LINE
  5
4B
100
AcDbEntity
  8
2
  6
CONTINUOUS
 62
     0
100
AcDbLine
 10
155.0
 20
28.0
 11
157.0
 21
28.0
  0
LINE
  5
4C
100
AcDbEntity
  8
2
  6
CONTINUOUS
 62
     0
100
AcDbLine
 10
157.0
 20
28.0
 11
157.0
 21
-28.0
  0
LINE
  5
4D
100
AcDbEntity
  8
2
  6
CONTINUOUS
 62
     0
100
AcDbLine
 10
157.0
 20
-28.0
 11
149.0
 21
-28.0
  0
LINE
  5
4E
100
AcDbEntity
  8
2
  6
CONTINUOUS
 62
     0
100
AcDbLine
 10
157.0
 20
28.0
 11
304.0
 21
28.0
  0
LINE
  5
4F
100
AcDbEntity
  8
2
  6
CONTINUOUS
 62
     0
100
AcDbLine
 10
304.0
 20
28.0
 11
304.0
 21
-28.0
  0
LINE
  5
50
100
AcDbEntity
  8
2
  6
CONTINUOUS
 62
     0
100
AcDbLine
 10
304.0
 20
-28.0
 11
157.0
 21
-28.0
  0
LINE
  5
51
100
AcDbEntity
  8
2
  6
CONTINUOUS
 62
     0
100
AcDbLine
 10
155.0
 20
24.933840565565
 11
304.0
 21
24.933840565565
  0
LINE
  5
52
100
AcDbEntity
  8
2
  6
CONTINUOUS
 62
     0
100
AcDbLine
 10
149.0
 20
-24.933840565565
 11
304.0
 21
-24.933840565565
  0
LINE
  5
53
100
AcDbEntity
  8
2
  6
CONTINUOUS
 62
     0
100
AcDbLine
 10
157.0
 20
-16.32583138048
 11
157.0
 21
28.0
  0
LINE
  5
54
100
AcDbEntity
  8
2
  6
CONTINUOUS
 62
     0
100
AcDbLine
 10
157.0
 20
19.023759913517
 11
304.0
 21
19.023759913517
  0
LINE
  5
55
100
AcDbEntity
  8
2
  6
CONTINUOUS
 62
     0
100
AcDbLine
 10
90.5
 20
39.0
 11
138.5
 21
39.0
  0
LINE
  5
56
100
AcDbEntity
  8
2
  6
CONTINUOUS
 62
     0
100
AcDbLine
 10
89.5
 20
28.5
 11
89.5
 21
38.0
  0
LINE
  5
57
100
AcDbEntity
  8
2
  6
CONTINUOUS
 62
     0
100
AcDbLine
 10
90.5
 20
39.0
 11
89.5
 21
38.0
  0
LINE
  5
58
100
AcDbEntity
  8
2
  6
CONTINUOUS
 62
     0
100
AcDbLine
 10
149.0
 20
28.5
 11
30.0
 21
28.5
  0
LINE
  5
59
100
AcDbEntity
  8
2
  6
CONTINUOUS
 62
     0
100
AcDbLine
 10
141.0
 20
41.0
 11
143.0
 21
41.0
  0
LINE
  5
5A
100
AcDbEntity
  8
2
  6
CONTINUOUS
 62
     0
100
AcDbLine
 10
144.5
 20
39.5
 11
144.5
 21
39.0
  0
LINE
  5
5B
100
AcDbEntity
  8
2
  6
CONTINUOUS
 62
     0
100
AcDbLine
 10
139.5
 20
39.5
 11
139.5
 21
39.0
  0
ARC
  5
5C
100
AcDbEntity
  8
2
  6
CONTINUOUS
 62
     0
100
AcDbCircle
 10
141.0
 20
39.5
 40
1.5
100
AcDbArc
 50
90.0
 51
180.0
  0
ARC
  5
5D
100
AcDbEntity
  8
2
  6
CONTINUOUS
 62
     0
100
AcDbCircle
 10
143.0
 20
39.5
 40
1.5
100
AcDbArc
 50
0.0
 51
90.0
  0
LINE
  5
5E
100
AcDbEntity
  8
2
  6
CONTINUOUS
 62
     0
100
AcDbLine
 10
138.5
 20
39.0
 11
247.5
 21
39.0
  0
LINE
  5
5F
100
AcDbEntity
  8
2
  6
CONTINUOUS
 62
     0
100
AcDbLine
 10
155.0
 20
-28.0
 11
155.0
 21
-34.0
  0
LINE
  5
60
100
AcDbEntity
  8
2
  6
CONTINUOUS
 62
     0
100
AcDbLine
 10
149.0
 20
-34.5
 11
154.5
 21
-34.5
  0
LINE
  5
61
100
AcDbEntity
  8
2
  6
CONTINUOUS
 62
     0
100
AcDbLine
 10
155.0
 20
-34.0
 11
154.5
 21
-34.5
  0
LINE
  5
62
100
AcDbEntity
  8
2
  6
CONTINUOUS
 62
     0
100
AcDbLine
 10
154.5
 20
-28.0
 11
154.5
 21
-34.5
  0
LINE
  5
63
100
AcDbEntity
  8
2
  6
CONTINUOUS
 62
     0
100
AcDbLine
 10
96.0
 20
-36.5
 11
96.0
 21
28.5
  0
LINE
  5
64
100
AcDbEntity
  8
2
  6
CONTINUOUS
 62
     0
100
AcDbLine
 10
138.5
 20
28.5
 11
138.5
 21
39.0
  0
LINE
  5
65
100
AcDbEntity
  8
2
  6
CONTINUOUS
 62
     0
100
AcDbLine
 10
-20.0
 20
-9.99997342294898
 11
-3.75
 21
-9.99997342294898
  0
LINE
  5
66
100
AcDbEntity
  8
2
  6
CONTINUOUS
 62
     0
100
AcDbLine
 10
-20.0
 20
-9.99997342294898
 11
-20.0
 21
10.000026577051
  0
LINE
  5
67
100
AcDbEntity
  8
2
  6
CONTINUOUS
 62
     0
100
AcDbLine
 10
-40.0
 20
7.94002657705101
 11
-21.5
 21
7.94002657705101
  0
LINE
  5
68
100
AcDbEntity
  8
2
  6
CONTINUOUS
 62
     0
100
AcDbLine
 10
-40.0
 20
-7.93997342294898
 11
-40.0
 21
7.94002657705101
  0
LINE
  5
69
100
AcDbEntity
  8
7
  6
CENTER2
 62
    40
100
AcDbLine
 10
-32.0
 20
-3.49997342294898
 11
-32.0
 21
3.50002657705102
  0
CIRCLE
  5
6B
100
AcDbEntity
  8
2
  6
CONTINUOUS
 62
     0
100
AcDbCircle
 10
-32.0
 20
2.65770510168295E-005
 40
2.25
  0
ARC
  5
6C
100
AcDbEntity
  8
2
  6
CONTINUOUS
 62
     0
100
AcDbCircle
 10
-21.5
 20
9.44002657705101
 40
1.5
100
AcDbArc
 50
270.0
 51
0.0
  0
LINE
  5
6D
100
AcDbEntity
  8
2
  6
CONTINUOUS
 62
     0
100
AcDbLine
 10
-39.0
 20
-7.93997342294898
 11
-39.0
 21
-6.07915099890397
  0
LINE
  5
6E
100
AcDbEntity
  8
2
  6
CONTINUOUS
 62
     0
100
AcDbLine
 10
-39.0
 20
6.07920415300703
 11
-39.0
 21
7.94002657705101
  0
LINE
  5
6F
100
AcDbEntity
  8
2
  6
CONTINUOUS
 62
     0
100
AcDbLine
 10
-39.0
 20
6.07920415300703
 11
-21.5
 21
6.07920415300703
  0
LINE
  5
70
100
AcDbEntity
  8
2
  6
CONTINUOUS
 62
     0
100
AcDbLine
 10
-39.0
 20
6.07920415300703
 11
-40.0
 21
4.02077277645202
  0
ARC
  5
71
100
AcDbEntity
  8
2
  6
CONTINUOUS
 62
     0
100
AcDbCircle
 10
-21.5
 20
4.57920415300703
 40
1.5
100
AcDbArc
 50
0.0
 51
90.0
  0
LINE
  5
72
100
AcDbEntity
  8
2
  6
CONTINUOUS
 62
     0
100
AcDbLine
 10
-40.0
 20
-7.93997342294898
 11
-21.5
 21
-7.93997342294898
  0
ARC
  5
73
100
AcDbEntity
  8
2
  6
CONTINUOUS
 62
     0
100
AcDbCircle
 10
-21.5
 20
-9.43997342294898
 40
1.5
100
AcDbArc
 50
0.0
 51
90.0
  0
LINE
  5
74
100
AcDbEntity
  8
2
  6
CONTINUOUS
 62
     0
100
AcDbLine
 10
-39.0
 20
-6.07915099890397
 11
-21.5
 21
-6.07915099890397
  0
LINE
  5
75
100
AcDbEntity
  8
2
  6
CONTINUOUS
 62
     0
100
AcDbLine
 10
-40.0
 20
-4.02071962234999
 11
-39.0
 21
-6.07915099890397
  0
ARC
  5
76
100
AcDbEntity
  8
2
  6
CONTINUOUS
 62
     0
100
AcDbCircle
 10
-21.5
 20
-4.57915099890397
 40
1.5
100
AcDbArc
 50
270.0
 51
0.0
  0
LINE
  5
77
100
AcDbEntity
  8
2
  6
CONTINUOUS
 62
     0
100
AcDbLine
 10
-3.75
 20
-21.5
 11
-3.75
 21
21.5
  0
LINE
  5
78
100
AcDbEntity
  8
2
  6
CONTINUOUS
 62
     0
100
AcDbLine
 10
0.0
 20
-36.5
 11
0.0
 21
36.5
  0
LINE
  5
79
100
AcDbEntity
  8
2
  6
CONTINUOUS
 62
     0
100
AcDbLine
 10
0.0
 20
-36.5
 11
149.0
 21
-36.5
  0
LINE
  5
7A
100
AcDbEntity
  8
2
  6
CONTINUOUS
 62
     0
100
AcDbLine
 10
0.0
 20
36.5
 11
30.0
 21
36.5
  0
LINE
  5
7B
100
AcDbEntity
  8
2
  6
CONTINUOUS
 62
     0
100
AcDbLine
 10
-3.25
 20
22.0
 11
0.0
 21
22.0
  0
LINE
  5
7C
100
AcDbEntity
  8
2
  6
CONTINUOUS
 62
     0
100
AcDbLine
 10
-3.25
 20
-22.0
 11
0.0
 21
-22.0
  0
LINE
  5
7D
100
AcDbEntity
  8
2
  6
CONTINUOUS
 62
     0
100
AcDbLine
 10
-3.25
 20
22.0
 11
-3.75
 21
21.5
  0
LINE
  5
7E
100
AcDbEntity
  8
2
  6
CONTINUOUS
 62
     0
100
AcDbLine
 10
-3.75
 20
-21.5
 11
-3.25
 21
-22.0
  0
LINE
  5
7F
100
AcDbEntity
  8
2
  6
CONTINUOUS
 62
     0
100
AcDbLine
 10
61.5
 20
0.0
 11
62.5
 21
0.0
  0
LINE
  5
80
100
AcDbEntity
  8
2
  6
CONTINUOUS
 62
     0
100
AcDbLine
 10
30.0
 20
28.5
 11
30.0
 21
36.5
  0
MTEXT
  5
81
100
AcDbEntity
  8
4
  6
CONTINUOUS
 62
     2
100
AcDbMText
 10
218.783955656958
 20
2.96094238379484
 40
3.5
 41
0.0
 11
1.0
 21
0.0
 71
     7
 72
     5
  7
STANDARD
  1
{\T1.60714;\W0.666667;UNR-G640-1300NT}
  0
LINE
  5
83
100
AcDbEntity
  8
2
  6
CONTINUOUS
 62
     0
100
AcDbLine
 10
-20.0
 20
9.99997342294898
 11
-3.75
 21
9.99997342294898
  0
LINE
  5
84
100
AcDbEntity
  8
2
  6
CONTINUOUS
 62
     0
100
AcDbLine
 10
-3.25
 20
-22.0
 11
-3.25
 21
22.0
  0
LINE
  5
85
100
AcDbEntity
  8
2
  6
CONTINUOUS
 62
     0
100
AcDbLine
 10
126.5
 20
28.5
 11
126.5
 21
-36.5
  0
LINE
  5
86
100
AcDbEntity
  8
2
  6
CONTINUOUS
 62
     0
100
AcDbLine
 10
82.0
 20
26.115129714401
 11
149.0
 21
26.115129714401
  0
LINE
  5
87
100
AcDbEntity
  8
2
  6
CONTINUOUS
 62
     0
100
AcDbLine
 10
0.0
 20
-36.278370667587
 11
149.0
 21
-36.278370667587
  0
LINE
  5
88
100
AcDbEntity
  8
2
  6
CONTINUOUS
 62
     0
100
AcDbLine
 10
82.0
 20
8.780354138886
 11
82.0
 21
28.5
  0
LINE
  5
89
100
AcDbEntity
  8
2
  6
CONTINUOUS
 62
     0
100
AcDbLine
 10
0.0
 20
-8.780354138886
 11
149.0
 21
-8.780354138886
  0
LINE
  5
8A
100
AcDbEntity
  8
2
  6
CONTINUOUS
 62
     0
100
AcDbLine
 10
0.0
 20
8.780354138886
 11
82.0
 21
8.780354138886
  0
LINE
  5
8B
100
AcDbEntity
  8
2
  6
CONTINUOUS
 62
     0
100
AcDbLine
 10
0.0
 20
36.278370667587
 11
30.0
 21
36.278370667587
  0
LINE
  5
8C
100
AcDbEntity
  8
2
  6
CONTINUOUS
 62
     0
100
AcDbLine
 10
155.0
 20
28.0
 11
155.0
 21
19.0
  0
LINE
  5
8D
100
AcDbEntity
  8
2
  6
CONTINUOUS
 62
     0
100
AcDbLine
 10
149.0
 20
18.5
 11
154.5
 21
18.5
  0
LINE
  5
8E
100
AcDbEntity
  8
2
  6
CONTINUOUS
 62
     0
100
AcDbLine
 10
155.0
 20
19.0
 11
154.5
 21
18.5
  0
LINE
  5
8F
100
AcDbEntity
  8
2
  6
CONTINUOUS
 62
     0
100
AcDbLine
 10
154.5
 20
28.5
 11
154.5
 21
18.5
  0
LINE
  5
90
100
AcDbEntity
  8
2
  6
CONTINUOUS
 62
     0
100
AcDbLine
 10
149.0
 20
28.5
 11
154.5
 21
28.5
  0
LINE
  5
91
100
AcDbEntity
  8
2
  6
CONTINUOUS
 62
     0
100
AcDbLine
 10
154.5
 20
28.5
 11
155.0
 21
28.0
  0
LINE
  5
92
100
AcDbEntity
  8
7
  6
CENTER2
 62
    40
100
AcDbLine
 10
-8.29127218566586
 20
29.5
 11
20.2115117384361
 21
29.5
  0
LINE
  5
93
100
AcDbEntity
  8
7
  6
CENTER2
 62
    40
100
AcDbLine
 10
-8.29127218566586
 20
-29.5
 11
20.2115117384361
 21
-29.5
  0
LINE
  5
94
100
AcDbEntity
  8
2
  6
CONTINUOUS
 62
     0
100
AcDbLine
 10
90.5
 20
28.5
 11
90.5
 21
38.0
  0
LINE
  5
95
100
AcDbEntity
  8
2
  6
CONTINUOUS
 62
     0
100
AcDbLine
 10
90.5
 20
38.0
 11
137.5
 21
38.0
  0
LINE
  5
96
100
AcDbEntity
  8
2
  6
CONTINUOUS
 62
     0
100
AcDbLine
 10
137.5
 20
28.5
 11
137.5
 21
38.0
  0
ELLIPSE
  5
97
100
AcDbEntity
  8
2
  6
CONTINUOUS
 62
     0
100
AcDbEllipse
 10
319.0
 20
-11.2500000000001
 30
0.0
 11
4.5
 21
0.0
 31
0.0
210
0.0
220
0.0
230
1.0
 40
0.86602540378447
 41
5.20182345920866
 42
4.22295450156045
  0
ELLIPSE
  5
98
100
AcDbEntity
  8
2
  6
CONTINUOUS
 62
     0
100
AcDbEllipse
 10
319.0
 20
-12.0541708852729
 30
0.0
 11
4.5
 21
0.0
 31
0.0
210
0.0
220
0.0
230
1.0
 40
0.86602540378447
 41
3.14159265358979
 42
6.28318530717959
  0
LINE
  5
99
100
AcDbEntity
  8
2
  6
CONTINUOUS
 62
     0
100
AcDbLine
 10
323.5
 20
-11.2500000000001
 11
323.5
 21
-12.0541708852729
  0
LINE
  5
9A
100
AcDbEntity
  8
2
  6
CONTINUOUS
 62
     0
100
AcDbLine
 10
314.5
 20
-11.2500000000001
 11
314.5
 21
-12.054170885273
  0
LINE
  5
9B
100
AcDbEntity
  8
2
  6
CONTINUOUS
 62
     0
100
AcDbLine
 10
323.5
 20
11.2500000000001
 11
323.5
 21
12.0541708852729
  0
LINE
  5
9C
100
AcDbEntity
  8
2
  6
CONTINUOUS
 62
     0
100
AcDbLine
 10
314.5
 20
11.2500000000001
 11
314.5
 21
12.054170885273
  0
ELLIPSE
  5
9D
100
AcDbEntity
  8
2
  6
CONTINUOUS
 62
     0
100
AcDbEllipse
 10
319.0
 20
11.2500000000001
 30
0.0
 11
4.5
 21
0.0
 31
0.0
210
0.0
220
0.0
230
1.0
 40
0.86602540378447
 41
2.06023080561908
 42
1.08136184797092
  0
ELLIPSE
  5
9E
100
AcDbEntity
  8
2
  6
CONTINUOUS
 62
     0
100
AcDbEllipse
 10
319.0
 20
12.0541708852729
 30
0.0
 11
4.5
 21
0.0
 31
0.0
210
0.0
220
0.0
230
1.0
 40
0.86602540378447
 41
0.0
 42
3.14159265358979
  0
LINE
  5
9F
100
AcDbEntity
  8
2
  6
CONTINUOUS
 62
     0
100
AcDbLine
 10
310.0
 20
38.999999999998
 11
355.0
 21
38.999999999998
  0
LINE
  5
A0
100
AcDbEntity
  8
2
  6
CONTINUOUS
 62
     0
100
AcDbLine
 10
311.4057773341
 20
22.999999999998
 11
353.961167446996
 21
22.999999999998
  0
ELLIPSE
  5
A1
100
AcDbEntity
  8
2
  6
CONTINUOUS
 62
     0
100
AcDbEllipse
 10
319.0
 20
-11.2500000000001
 30
0.0
 11
4.0
 21
0.0
 31
0.0
210
0.0
220
0.0
230
1.0
 40
0.866025403784441
 41
0.0
 42
3.14159265358979
  0
ELLIPSE
  5
A2
100
AcDbEntity
  8
2
  6
CONTINUOUS
 62
     0
100
AcDbEllipse
 10
319.0
 20
-11.7499999999998
 30
0.0
 11
4.0
 21
0.0
 31
0.0
210
0.0
220
0.0
230
1.0
 40
0.866025403784441
 41
0.0
 42
6.28318530717959
  0
LINE
  5
A3
100
AcDbEntity
  8
2
  6
CONTINUOUS
 62
     0
100
AcDbLine
 10
323.0
 20
-11.2500000000001
 11
323.0
 21
-11.7500000000013
  0
LINE
  5
A4
100
AcDbEntity
  8
2
  6
CONTINUOUS
 62
     0
100
AcDbLine
 10
315.0
 20
-11.2500000000001
 11
315.0
 21
-11.7500000000015
  0
ELLIPSE
  5
A5
100
AcDbEntity
  8
2
  6
CONTINUOUS
 62
     0
100
AcDbEllipse
 10
319.0
 20
-12.0000000000001
 30
0.0
 11
3.5
 21
0.0
 31
0.0
210
0.0
220
0.0
230
1.0
 40
0.86602540378429
 41
0.0
 42
6.28318530717959
  0
LINE
  5
A6
100
AcDbEntity
  8
2
  6
CONTINUOUS
 62
     0
100
AcDbLine
 10
318.42264973081
 20
-11.1339745962157
 11
319.57735026919
 21
-11.1339745962157
  0
LINE
  5
A7
100
AcDbEntity
  8
2
  6
CONTINUOUS
 62
     0
100
AcDbLine
 10
318.42264973081
 20
-12.8660254037845
 11
319.57735026919
 21
-12.8660254037845
  0
LINE
  5
A8
100
AcDbEntity
  8
2
  6
CONTINUOUS
 62
     0
100
AcDbLine
 10
320.154700538379
 20
-12.0000000000001
 11
319.57735026919
 21
-11.1339745962157
  0
LINE
  5
A9
100
AcDbEntity
  8
2
  6
CONTINUOUS
 62
     0
100
AcDbLine
 10
320.154700538379
 20
-12.0000000000001
 11
319.57735026919
 21
-12.8660254037845
  0
LINE
  5
AA
100
AcDbEntity
  8
2
  6
CONTINUOUS
 62
     0
100
AcDbLine
 10
318.42264973081
 20
-12.8660254037845
 11
317.845299461621
 21
-12.0000000000001
  0
LINE
  5
AB
100
AcDbEntity
  8
2
  6
CONTINUOUS
 62
     0
100
AcDbLine
 10
317.845299461621
 20
-12.0000000000001
 11
318.42264973081
 21
-11.1339745962157
  0
LINE
  5
AC
100
AcDbEntity
  8
2
  6
CONTINUOUS
 62
     0
100
AcDbLine
 10
320.021367205046
 20
-11.8000000000001
 11
319.57735026919
 21
-12.4660254037845
  0
LINE
  5
AD
100
AcDbEntity
  8
2
  6
CONTINUOUS
 62
     0
100
AcDbLine
 10
318.42264973081
 20
-12.4660254037845
 11
319.57735026919
 21
-12.4660254037845
  0
LINE
  5
AE
100
AcDbEntity
  8
2
  6
CONTINUOUS
 62
     0
100
AcDbLine
 10
318.42264973081
 20
-12.4660254037845
 11
317.978632794954
 21
-11.8000000000001
  0
ELLIPSE
  5
AF
100
AcDbEntity
  8
2
  6
CONTINUOUS
 62
     0
100
AcDbEllipse
 10
319.0
 20
11.7499999999998
 30
0.0
 11
4.0
 21
0.0
 31
0.0
210
0.0
220
0.0
230
1.0
 40
0.866025403784441
 41
0.0
 42
6.28318530717959
  0
ELLIPSE
  5
B0
100
AcDbEntity
  8
2
  6
CONTINUOUS
 62
     0
100
AcDbEllipse
 10
319.0
 20
11.2500000000001
 30
0.0
 11
4.0
 21
0.0
 31
0.0
210
0.0
220
0.0
230
1.0
 40
0.866025403784441
 41
3.14159265358979
 42
6.28318530717959
  0
ELLIPSE
  5
B1
100
AcDbEntity
  8
2
  6
CONTINUOUS
 62
     0
100
AcDbEllipse
 10
319.0
 20
12.0000000000001
 30
0.0
 11
3.5
 21
0.0
 31
0.0
210
0.0
220
0.0
230
1.0
 40
0.86602540378429
 41
0.0
 42
6.28318530717959
  0
LINE
  5
B2
100
AcDbEntity
  8
2
  6
CONTINUOUS
 62
     0
100
AcDbLine
 10
320.154700538379
 20
12.0000000000001
 11
319.57735026919
 21
11.1339745962157
  0
LINE
  5
B3
100
AcDbEntity
  8
2
  6
CONTINUOUS
 62
     0
100
AcDbLine
 10
320.154700538379
 20
12.0000000000001
 11
319.57735026919
 21
12.8660254037845
  0
LINE
  5
B4
100
AcDbEntity
  8
2
  6
CONTINUOUS
 62
     0
100
AcDbLine
 10
318.42264973081
 20
12.8660254037845
 11
317.845299461621
 21
12.0000000000001
  0
LINE
  5
B5
100
AcDbEntity
  8
2
  6
CONTINUOUS
 62
     0
100
AcDbLine
 10
317.845299461621
 20
12.0000000000001
 11
318.42264973081
 21
11.1339745962157
  0
LINE
  5
B6
100
AcDbEntity
  8
2
  6
CONTINUOUS
 62
     0
100
AcDbLine
 10
318.42264973081
 20
11.1339745962157
 11
319.57735026919
 21
11.1339745962157
  0
LINE
  5
B7
100
AcDbEntity
  8
2
  6
CONTINUOUS
 62
     0
100
AcDbLine
 10
318.42264973081
 20
12.8660254037845
 11
319.57735026919
 21
12.8660254037845
  0
LINE
  5
B8
100
AcDbEntity
  8
2
  6
CONTINUOUS
 62
     0
100
AcDbLine
 10
318.42264973081
 20
12.4660254037845
 11
319.57735026919
 21
12.4660254037845
  0
LINE
  5
B9
100
AcDbEntity
  8
2
  6
CONTINUOUS
 62
     0
100
AcDbLine
 10
320.021367205046
 20
11.8000000000001
 11
319.57735026919
 21
12.4660254037845
  0
LINE
  5
BA
100
AcDbEntity
  8
2
  6
CONTINUOUS
 62
     0
100
AcDbLine
 10
318.42264973081
 20
12.4660254037845
 11
317.978632794954
 21
11.8000000000001
  0
LINE
  5
BB
100
AcDbEntity
  8
2
  6
CONTINUOUS
 62
     0
100
AcDbLine
 10
323.0
 20
11.2500000000001
 11
323.0
 21
11.7500000000013
  0
LINE
  5
BC
100
AcDbEntity
  8
2
  6
CONTINUOUS
 62
     0
100
AcDbLine
 10
315.0
 20
11.2500000000001
 11
315.0
 21
11.7500000000015
  0
LINE
  5
BD
100
AcDbEntity
  8
0
  6
CONTINUOUS
 62
     0
100
AcDbLine
 10
386.74451466726
 20
36.7307387673121
 11
386.74451466726
 21
5.2692612332022
  0
LINE
  5
BE
100
AcDbEntity
  8
0
  6
CONTINUOUS
 62
     0
100
AcDbLine
 10
447.73072053414
 20
31.596421787152
 11
445.87382189686
 21
32.8817887732121
  0
LINE
  5
BF
100
AcDbEntity
  8
0
  6
CONTINUOUS
 62
     0
100
AcDbLine
 10
450.4
 20
31.596421787152
 11
447.73072053414
 21
31.596421787152
  0
LINE
  5
C0
100
AcDbEntity
  8
0
  6
CONTINUOUS
 62
     0
100
AcDbLine
 10
447.73072053414
 20
9.44782103856218
 11
444.14019992542
 21
7.62161750014209
  0
LINE
  5
C1
100
AcDbEntity
  8
0
  6
CONTINUOUS
 62
     0
100
AcDbLine
 10
450.4
 20
9.44782103856218
 11
450.4
 21
31.596421787152
  0
LINE
  5
C2
100
AcDbEntity
  8
0
  6
CONTINUOUS
 62
     0
100
AcDbLine
 10
450.4
 20
9.44782103856218
 11
447.73072053414
 21
9.44782103856218
  0
LINE
  5
C3
100
AcDbEntity
  8
0
  6
CONTINUOUS
 62
     0
100
AcDbLine
 10
438.65101881603
 20
8.649661619932
 11
438.65101881603
 21
7.23560357908198
  0
ELLIPSE
  5
C4
100
AcDbEntity
  8
0
  6
CONTINUOUS
 62
     0
100
AcDbEllipse
 10
435.409364362495
 20
9.30026304226209
 30
0.0
 11
-0.395478135704991
 21
0.0
 31
0.0
210
0.0
220
0.0
230
1.0
 40
0.994412670801243
 41
3.40949156654334
 42
4.71238898038469
  0
ELLIPSE
  5
C5
100
AcDbEntity
  8
0
  6
CONTINUOUS
 62
     0
100
AcDbEllipse
 10
438.65101881603
 20
10.1851170979022
 30
0.0
 11
-2.96608601778001
 21
0.0
 31
0.0
210
0.0
220
0.0
230
1.0
 40
0.99441267081923
 41
0.26789891239871
 42
1.5707963267949
  0
ELLIPSE
  5
C6
100
AcDbEntity
  8
0
  6
CONTINUOUS
 62
     0
100
AcDbEllipse
 10
398.11451106874
 20
21.0000000001521
 30
0.0
 11
0.0
 21
6.19865838898011
 31
0.0
210
0.0
220
0.0
230
1.0
 40
0.733400073764667
 41
3.14159265358979
 42
6.28318530717959
  0
ELLIPSE
  5
C7
100
AcDbEntity
  8
0
  6
CONTINUOUS
 62
     0
100
AcDbEllipse
 10
440.62840949409
 20
30.831711729672
 30
0.0
 11
-2.71891218296003
 21
0.0
 31
0.0
210
0.0
220
0.0
230
1.0
 40
0.994412670819195
 41
1.23152775008236E-016
 42
6.28318530717959
  0
ELLIPSE
  5
C8
100
AcDbEntity
  8
0
  6
CONTINUOUS
 62
     0
100
AcDbEllipse
 10
441.51823529942
 20
29.9468576740219
 30
0.0
 11
-0.494347669629974
 21
0.0
 31
0.0
210
0.0
220
0.0
230
1.0
 40
0.99441267081898
 41
4.71238898038469
 42
6.28318530717959
  0
LINE
  5
C9
100
AcDbEntity
  8
0
  6
CONTINUOUS
 62
     0
100
AcDbLine
 10
441.02388762979
 20
29.9468576740219
 11
441.02388762979
 21
29.207246351162
  0
LINE
  5
CA
100
AcDbEntity
  8
0
  6
CONTINUOUS
 62
     0
100
AcDbLine
 10
442.26200229331
 20
30.4384432610321
 11
441.51823529942
 21
30.4384432610321
  0
ELLIPSE
  5
CB
100
AcDbEntity
  8
0
  6
CONTINUOUS
 62
     0
100
AcDbEllipse
 10
440.62840949409
 20
30.831711729662
 30
0.0
 11
-1.68078207674
 21
0.0
 31
0.0
210
0.0
220
0.0
230
1.0
 40
0.994412670815541
 41
1.23152775008688E-016
 42
3.3791138248857
  0
LINE
  5
CC
100
AcDbEntity
  8
0
  6
CONTINUOUS
 62
     0
100
AcDbLine
 10
441.51823529942
 20
31.2249801988422
 11
442.26200229331
 21
31.2249801988422
  0
LINE
  5
CD
100
AcDbEntity
  8
0
  6
CONTINUOUS
 62
     0
100
AcDbLine
 10
370.82651970518
 20
36.7307387673121
 11
386.74451466726
 21
36.7307387673121
  0
LINE
  5
CE
100
AcDbEntity
  8
0
  6
CONTINUOUS
 62
     0
100
AcDbLine
 10
370.82651970518
 20
36.5341045327221
 11
386.74451466726
 21
36.5341045327221
  0
LINE
  5
CF
100
AcDbEntity
  8
0
  6
CONTINUOUS
 62
     0
100
AcDbLine
 10
370.82651970518
 20
36.2391531808422
 11
386.74451466726
 21
36.2391531808422
  0
LINE
  5
D0
100
AcDbEntity
  8
0
  6
CONTINUOUS
 62
     0
100
AcDbLine
 10
370.82651970518
 20
34.9610306560222
 11
386.74451466726
 21
34.9610306560222
  0
LINE
  5
D1
100
AcDbEntity
  8
0
  6
CONTINUOUS
 62
     0
100
AcDbLine
 10
370.82651970518
 20
35.747567594372
 11
386.74451466726
 21
35.747567594372
  0
LINE
  5
D2
100
AcDbEntity
  8
0
  6
CONTINUOUS
 62
     0
100
AcDbLine
 10
370.82651970518
 20
33.9778594830821
 11
386.74451466726
 21
33.9778594830821
  0
LINE
  5
D3
100
AcDbEntity
  8
0
  6
CONTINUOUS
 62
     0
100
AcDbLine
 10
370.82651970518
 20
32.7980540750921
 11
386.74451466726
 21
32.7980540750921
  0
SPLINE
  5
D4
100
AcDbEntity
  8
0
  6
CONTINUOUS
 62
     0
100
AcDbSpline
210
0.0
220
0.0
230
1.0
 70
     8
 71
     3
 72
     8
 73
     4
 74
     0
 42
1.00000000000000E-007
 43
1.00000000000000E-007
 40
0.0
 40
0.0
 40
0.0
 40
0.0
 40
1.39432567660157
 40
1.39432567660157
 40
1.39432567660157
 40
1.39432567660157
 10
387.73321000652
 20
35.7475675622028
 30
0.0
 10
387.73321000652
 20
36.2905580396621
 30
0.0
 10
387.29055602536
 20
36.7307387673121
 30
0.0
 10
386.74451466726
 20
36.7307387673121
 30
0.0
  0
LINE
  5
D5
100
AcDbEntity
  8
0
  6
CONTINUOUS
 62
     0
100
AcDbLine
 10
370.82651970518
 20
31.6182486680221
 11
386.74451466726
 21
31.6182486680221
  0
LINE
  5
D6
100
AcDbEntity
  8
0
  6
CONTINUOUS
 62
     0
100
AcDbLine
 10
364.69660860178
 20
36.2391531808422
 11
370.33217203556
 21
36.2391531808422
  0
LINE
  5
D7
100
AcDbEntity
  8
0
  6
CONTINUOUS
 62
     0
100
AcDbLine
 10
387.73321000652
 20
31.8148829026121
 11
390.20494835467
 21
31.8148829026121
  0
LINE
  5
D8
100
AcDbEntity
  8
0
  6
CONTINUOUS
 62
     0
100
AcDbLine
 10
364.69660860178
 20
5.76084681967208
 11
364.4
 21
6.0557981712621
  0
LINE
  5
D9
100
AcDbEntity
  8
0
  6
CONTINUOUS
 62
     0
100
AcDbLine
 10
370.82651970518
 20
5.2692612332022
 11
386.74451466726
 21
5.2692612332022
  0
LINE
  5
DA
100
AcDbEntity
  8
0
  6
CONTINUOUS
 62
     0
100
AcDbLine
 10
364.69660860178
 20
5.76084681967208
 11
370.33217203556
 21
5.76084681967208
  0
ELLIPSE
  5
DB
100
AcDbEntity
  8
0
  6
CONTINUOUS
 62
     0
100
AcDbEllipse
 10
386.74451466726
 20
6.25243240614199
 30
0.0
 11
-0.988695339260005
 21
0.0
 31
0.0
210
0.0
220
0.0
230
1.0
 40
0.994412670818952
 41
1.5707963267949
 42
3.14159265358979
  0
LINE
  5
DC
100
AcDbEntity
  8
0
  6
CONTINUOUS
 62
     0
100
AcDbLine
 10
370.33217203556
 20
5.76084681967208
 11
370.82651970518
 21
5.2692612332022
  0
LINE
  5
DD
100
AcDbEntity
  8
0
  6
CONTINUOUS
 62
     0
100
AcDbLine
 10
364.4
 20
6.0557981712621
 11
364.4
 21
35.944201828962
  0
LINE
  5
DE
100
AcDbEntity
  8
0
  6
CONTINUOUS
 62
     0
100
AcDbLine
 10
364.69660860178
 20
36.2391531808422
 11
364.4
 21
35.944201828962
  0
ELLIPSE
  5
DF
100
AcDbEntity
  8
0
  6
CONTINUOUS
 62
     0
100
AcDbEllipse
 10
441.51823529942
 20
31.7165657853121
 30
0.0
 11
-0.494347669629974
 21
0.0
 31
0.0
210
0.0
220
0.0
230
1.0
 40
0.99441267081898
 41
1.23152775008263E-016
 42
1.5707963267949
  0
LINE
  5
E0
100
AcDbEntity
  8
0
  6
CONTINUOUS
 62
     0
100
AcDbLine
 10
441.02388762979
 20
32.456177108172
 11
441.02388762979
 21
31.7165657853121
  0
ELLIPSE
  5
E1
100
AcDbEntity
  8
0
  6
CONTINUOUS
 62
     0
100
AcDbEllipse
 10
440.62840949409
 20
30.831711729672
 30
0.0
 11
-1.68078207674
 21
0.0
 31
0.0
210
0.0
220
0.0
230
1.0
 40
0.994412670821493
 41
4.47486781018572
 42
4.94991015181356
  0
LINE
  5
E2
100
AcDbEntity
  8
0
  6
CONTINUOUS
 62
     0
100
AcDbLine
 10
440.23293135839
 20
31.7165657853121
 11
440.23293135839
 21
32.456177108172
  0
ELLIPSE
  5
E3
100
AcDbEntity
  8
0
  6
CONTINUOUS
 62
     0
100
AcDbEllipse
 10
439.73858368876
 20
31.7165657853121
 30
0.0
 11
-0.494347669629974
 21
0.0
 31
0.0
210
0.0
220
0.0
230
1.0
 40
0.99441267081898
 41
1.5707963267949
 42
3.14159265358979
  0
ELLIPSE
  5
E4
100
AcDbEntity
  8
0
  6
CONTINUOUS
 62
     0
100
AcDbEllipse
 10
440.62840949409
 20
30.831711729672
 30
0.0
 11
-1.68078207674
 21
0.0
 31
0.0
210
0.0
220
0.0
230
1.0
 40
0.994412670821493
 41
6.0456641371283
 42
0.237521171393064
  0
LINE
  5
E5
100
AcDbEntity
  8
0
  6
CONTINUOUS
 62
     0
100
AcDbLine
 10
438.99481669487
 20
31.2249801988422
 11
439.73858368876
 21
31.2249801988422
  0
LINE
  5
E6
100
AcDbEntity
  8
0
  6
CONTINUOUS
 62
     0
100
AcDbLine
 10
439.73858368876
 20
30.4384432610321
 11
438.99481669487
 21
30.4384432610321
  0
ELLIPSE
  5
E7
100
AcDbEntity
  8
0
  6
CONTINUOUS
 62
     0
100
AcDbEllipse
 10
439.73858368876
 20
29.9468576740219
 30
0.0
 11
-0.494347669629974
 21
0.0
 31
0.0
210
0.0
220
0.0
230
1.0
 40
0.99441267081898
 41
1.23152775008263E-016
 42
4.71238898038469
  0
LINE
  5
E8
100
AcDbEntity
  8
0
  6
CONTINUOUS
 62
     0
100
AcDbLine
 10
440.23293135839
 20
29.207246351162
 11
440.23293135839
 21
29.9468576740219
  0
ELLIPSE
  5
E9
100
AcDbEntity
  8
0
  6
CONTINUOUS
 62
     0
100
AcDbEllipse
 10
440.62840949409
 20
30.831711729672
 30
0.0
 11
-3.21325985259
 21
0.0
 31
0.0
210
0.0
220
0.0
230
1.0
 40
0.994412670819153
 41
5.04042805740386
 42
4.38434990458853
  0
ELLIPSE
  5
EA
100
AcDbEntity
  8
0
  6
CONTINUOUS
 62
     0
100
AcDbEllipse
 10
440.62840949409
 20
11.168288270842
 30
0.0
 11
-3.21325985259
 21
0.0
 31
0.0
210
0.0
220
0.0
230
1.0
 40
0.994412670819153
 41
1.89883540340642
 42
1.24275725059102
  0
LINE
  5
EB
100
AcDbEntity
  8
0
  6
CONTINUOUS
 62
     0
100
AcDbLine
 10
439.59313801081
 20
33.856631361412
 11
441.66368097737
 21
33.856631361412
  0
LINE
  5
EC
100
AcDbEntity
  8
0
  6
CONTINUOUS
 62
     0
100
AcDbLine
 10
405.36307078573
 20
32.306468489082
 11
405.36307078573
 21
9.69353151143198
  0
LINE
  5
ED
100
AcDbEntity
  8
0
  6
CONTINUOUS
 62
     0
100
AcDbLine
 10
439.59313801081
 20
8.14336863910199
 11
441.66368097737
 21
8.14336863910199
  0
LINE
  5
EE
100
AcDbEntity
  8
0
  6
CONTINUOUS
 62
     0
100
AcDbLine
 10
398.11451106874
 20
14.801341611282
 11
390.20494835467
 21
14.801341611282
  0
LINE
  5
EF
100
AcDbEntity
  8
0
  6
CONTINUOUS
 62
     0
100
AcDbLine
 10
390.20494835467
 20
27.198658389232
 11
398.11451106874
 21
27.198658389232
  0
LINE
  5
F0
100
AcDbEntity
  8
0
  6
CONTINUOUS
 62
     0
100
AcDbLine
 10
390.20494835467
 20
27.198658389232
 11
401.11339018783
 21
16.341311827232
  0
LINE
  5
F1
100
AcDbEntity
  8
0
  6
CONTINUOUS
 62
     0
100
AcDbLine
 10
401.11339018783
 20
25.658688173282
 11
390.20494835467
 21
14.801341611282
  0
LINE
  5
F2
100
AcDbEntity
  8
0
  6
CONTINUOUS
 62
     0
100
AcDbLine
 10
442.60580017261
 20
7.23560357908198
 11
442.60580017261
 21
8.64966161994201
  0
ELLIPSE
  5
F3
100
AcDbEntity
  8
0
  6
CONTINUOUS
 62
     0
100
AcDbEllipse
 10
440.62840949409
 20
30.831711729662
 30
0.0
 11
-1.68078207674
 21
0.0
 31
0.0
210
0.0
220
0.0
230
1.0
 40
0.994412670815541
 41
1.33327515618728
 42
1.80831749781245
  0
LINE
  5
F4
100
AcDbEntity
  8
0
  6
CONTINUOUS
 62
     0
100
AcDbLine
 10
441.02388762979
 20
12.0531423264921
 11
441.02388762979
 21
12.7927536493522
  0
ELLIPSE
  5
F5
100
AcDbEntity
  8
0
  6
CONTINUOUS
 62
     0
100
AcDbEllipse
 10
440.62840949409
 20
11.168288270842
 30
0.0
 11
-2.71891218296003
 21
0.0
 31
0.0
210
0.0
220
0.0
230
1.0
 40
0.994412670819111
 41
1.23152775008246E-016
 42
6.28318530717959
  0
LINE
  5
F6
100
AcDbEntity
  8
0
  6
CONTINUOUS
 62
     0
100
AcDbLine
 10
387.73321000652
 20
35.747567594372
 11
387.73321000652
 21
6.25243240614199
  0
ELLIPSE
  5
F7
100
AcDbEntity
  8
0
  6
CONTINUOUS
 62
     0
100
AcDbEllipse
 10
441.51823529942
 20
12.0531423264921
 30
0.0
 11
-0.494347669629974
 21
0.0
 31
0.0
210
0.0
220
0.0
230
1.0
 40
0.99441267081898
 41
1.23152775008263E-016
 42
1.5707963267949
  0
LINE
  5
F8
100
AcDbEntity
  8
0
  6
CONTINUOUS
 62
     0
100
AcDbLine
 10
442.26200229331
 20
11.5615567400221
 11
441.51823529942
 21
11.5615567400221
  0
LINE
  5
F9
100
AcDbEntity
  8
0
  6
CONTINUOUS
 62
     0
100
AcDbLine
 10
370.33217203556
 20
36.2391531808422
 11
370.82651970518
 21
36.7307387673121
  0
LINE
  5
FA
100
AcDbEntity
  8
0
  6
CONTINUOUS
 62
     0
100
AcDbLine
 10
441.51823529942
 20
10.7750198016721
 11
442.26200229331
 21
10.7750198016721
  0
ELLIPSE
  5
FB
100
AcDbEntity
  8
0
  6
CONTINUOUS
 62
     0
100
AcDbEllipse
 10
440.62840949409
 20
11.168288270842
 30
0.0
 11
-1.68078207674
 21
0.0
 31
0.0
210
0.0
220
0.0
230
1.0
 40
0.994412670821459
 41
1.23152775007956E-016
 42
3.37911382488432
  0
ELLIPSE
  5
FC
100
AcDbEntity
  8
0
  6
CONTINUOUS
 62
     0
100
AcDbEllipse
 10
441.51823529942
 20
10.2834342152021
 30
0.0
 11
-0.494347669629974
 21
0.0
 31
0.0
210
0.0
220
0.0
230
1.0
 40
0.994412670819153
 41
4.71238898038469
 42
6.28318530717959
  0
ELLIPSE
  5
FD
100
AcDbEntity
  8
0
  6
CONTINUOUS
 62
     0
100
AcDbEllipse
 10
367.168346950565
 20
21.0000000001519
 30
0.0
 11
-1.28530394103495
 21
0.0
 31
0.0
210
0.0
220
0.0
230
1.0
 40
0.99441267081994
 41
1.23152775008144E-016
 42
6.28318530717959
  0
LINE
  5
FE
100
AcDbEntity
  8
0
  6
CONTINUOUS
 62
     0
100
AcDbLine
 10
370.82651970518
 20
36.7307387673121
 11
370.82651970518
 21
5.2692612332022
  0
LINE
  5
FF
100
AcDbEntity
  8
0
  6
CONTINUOUS
 62
     0
100
AcDbLine
 10
370.33217203556
 20
36.2391531808422
 11
370.33217203556
 21
5.76084681967208
  0
LINE
  5
100
100
AcDbEntity
  8
0
  6
CONTINUOUS
 62
     0
100
AcDbLine
 10
441.02388762979
 20
9.54382289234198
 11
441.02388762979
 21
10.2834342152021
  0
ELLIPSE
  5
101
100
AcDbEntity
  8
0
  6
CONTINUOUS
 62
     0
100
AcDbEllipse
 10
440.62840949409
 20
11.168288270842
 30
0.0
 11
-1.68078207674
 21
0.0
 31
0.0
210
0.0
220
0.0
230
1.0
 40
0.994412670821459
 41
1.33327515618592
 42
1.80831749781382
  0
LINE
  5
102
100
AcDbEntity
  8
0
  6
CONTINUOUS
 62
     0
100
AcDbLine
 10
445.57188619039
 20
31.8148829026121
 11
445.57188619039
 21
10.1851170979022
  0
LINE
  5
103
100
AcDbEntity
  8
0
  6
CONTINUOUS
 62
     0
100
AcDbLine
 10
435.68493279779
 20
32.417658358342
 11
435.68493279779
 21
9.5823416418921
  0
LINE
  5
104
100
AcDbEntity
  8
0
  6
CONTINUOUS
 62
     0
100
AcDbLine
 10
390.20494835467
 20
8.21877475202209
 11
390.20494835467
 21
33.7812252484922
  0
LINE
  5
105
100
AcDbEntity
  8
0
  6
CONTINUOUS
 62
     0
100
AcDbLine
 10
391.19364369456
 20
34.764396421432
 11
390.20494835467
 21
33.7812252484922
  0
LINE
  5
106
100
AcDbEntity
  8
0
  6
CONTINUOUS
 62
     0
100
AcDbLine
 10
442.60580017261
 20
13.6869149221921
 11
442.60580017261
 21
28.3130850787621
  0
ELLIPSE
  5
107
100
AcDbEntity
  8
0
  6
CONTINUOUS
 62
     0
100
AcDbEllipse
 10
438.65101881603
 20
31.8148829026121
 30
0.0
 11
-2.96608601778001
 21
0.0
 31
0.0
210
0.0
220
0.0
230
1.0
 40
0.994412670819134
 41
4.71238898038469
 42
6.01528639560397
  0
LINE
  5
108
100
AcDbEntity
  8
0
  6
CONTINUOUS
 62
     0
100
AcDbLine
 10
442.60580017261
 20
33.350338380572
 11
442.60580017261
 21
34.764396421432
  0
ELLIPSE
  5
109
100
AcDbEntity
  8
0
  6
CONTINUOUS
 62
     0
100
AcDbEllipse
 10
398.11451106874
 20
22.9663423461421
 30
0.0
 11
-11.86434407111
 21
0.0
 31
0.0
210
0.0
220
0.0
230
1.0
 40
0.994412670820839
 41
4.05512482766772
 42
4.71238898038469
  0
LINE
  5
10A
100
AcDbEntity
  8
0
  6
CONTINUOUS
 62
     0
100
AcDbLine
 10
398.11451106874
 20
34.764396421432
 11
398.11451106874
 21
27.198658389232
  0
ELLIPSE
  5
10B
100
AcDbEntity
  8
0
  6
CONTINUOUS
 62
     0
100
AcDbEllipse
 10
398.11451106874
 20
19.0336576543721
 30
0.0
 11
-11.86434407111
 21
0.0
 31
0.0
210
0.0
220
0.0
230
1.0
 40
0.994412670820861
 41
1.5707963267949
 42
2.22806048033104
  0
LINE
  5
10C
100
AcDbEntity
  8
0
  6
CONTINUOUS
 62
     0
100
AcDbLine
 10
398.11451106874
 20
14.801341611282
 11
398.11451106874
 21
7.23560357908198
  0
ELLIPSE
  5
10D
100
AcDbEntity
  8
0
  6
CONTINUOUS
 62
     0
100
AcDbEllipse
 10
435.409364362495
 20
32.6997369582521
 30
0.0
 11
-0.395478135704991
 21
0.0
 31
0.0
210
0.0
220
0.0
230
1.0
 40
0.994412670801746
 41
1.5707963267949
 42
2.8736937414566
  0
LINE
  5
10E
100
AcDbEntity
  8
0
  6
CONTINUOUS
 62
     0
100
AcDbLine
 10
438.65101881603
 20
34.764396421432
 11
438.65101881603
 21
33.350338380582
  0
LINE
  5
10F
100
AcDbEntity
  8
0
  6
CONTINUOUS
 62
     0
100
AcDbLine
 10
438.65101881603
 20
28.3130850787521
 11
438.65101881603
 21
13.6869149221921
  0
LINE
  5
110
100
AcDbEntity
  8
0
  6
CONTINUOUS
 62
     0
100
AcDbLine
 10
391.19364369456
 20
34.764396421432
 11
398.11451106874
 21
34.764396421432
  0
LINE
  5
111
100
AcDbEntity
  8
0
  6
CONTINUOUS
 62
     0
100
AcDbLine
 10
405.36307078573
 20
32.306468489082
 11
435.40936436249
 21
32.306468489082
  0
LINE
  5
112
100
AcDbEntity
  8
0
  6
CONTINUOUS
 62
     0
100
AcDbLine
 10
438.65101881603
 20
34.764396421432
 11
442.60580017261
 21
34.764396421432
  0
ELLIPSE
  5
113
100
AcDbEntity
  8
0
  6
CONTINUOUS
 62
     0
100
AcDbEllipse
 10
442.60580017261
 20
10.1851170979022
 30
0.0
 11
-2.96608601777996
 21
0.0
 31
0.0
210
0.0
220
0.0
230
1.0
 40
0.994412670819239
 41
1.5707963267949
 42
3.14159265358979
  0
LINE
  5
114
100
AcDbEntity
  8
0
  6
CONTINUOUS
 62
     0
100
AcDbLine
 10
391.19364369456
 20
7.23560357908198
 11
390.20494835467
 21
8.21877475202209
  0
LINE
  5
115
100
AcDbEntity
  8
0
  6
CONTINUOUS
 62
     0
100
AcDbLine
 10
438.65101881603
 20
7.23560357908198
 11
442.60580017261
 21
7.23560357908198
  0
LINE
  5
116
100
AcDbEntity
  8
0
  6
CONTINUOUS
 62
     0
100
AcDbLine
 10
391.19364369456
 20
7.23560357908198
 11
398.11451106874
 21
7.23560357908198
  0
LINE
  5
117
100
AcDbEntity
  8
0
  6
CONTINUOUS
 62
     0
100
AcDbLine
 10
405.36307078573
 20
9.69353151143198
 11
435.40936436249
 21
9.69353151143198
  0
LINE
  5
118
100
AcDbEntity
  8
0
  6
CONTINUOUS
 62
     0
100
AcDbLine
 10
440.23293135839
 20
10.2834342152021
 11
440.23293135839
 21
9.54382289234198
  0
LINE
  5
119
100
AcDbEntity
  8
0
  6
CONTINUOUS
 62
     0
100
AcDbLine
 10
391.19364369456
 20
34.764396421432
 11
391.19364369456
 21
27.198658389232
  0
LINE
  5
11A
100
AcDbEntity
  8
0
  6
CONTINUOUS
 62
     0
100
AcDbLine
 10
438.99481669487
 20
10.7750198016721
 11
439.73858368876
 21
10.7750198016721
  0
LINE
  5
11B
100
AcDbEntity
  8
0
  6
CONTINUOUS
 62
     0
100
AcDbLine
 10
391.19364369456
 20
14.801341611282
 11
391.19364369456
 21
7.23560357908198
  0
ELLIPSE
  5
11C
100
AcDbEntity
  8
0
  6
CONTINUOUS
 62
     0
100
AcDbEllipse
 10
439.73858368876
 20
10.2834342152021
 30
0.0
 11
-0.494347669629974
 21
0.0
 31
0.0
210
0.0
220
0.0
230
1.0
 40
0.994412670819153
 41
1.23152775008241E-016
 42
4.71238898038469
  0
ELLIPSE
  5
11D
100
AcDbEntity
  8
0
  6
CONTINUOUS
 62
     0
100
AcDbEllipse
 10
440.62840949409
 20
11.168288270842
 30
0.0
 11
-1.68078207674
 21
0.0
 31
0.0
210
0.0
220
0.0
230
1.0
 40
0.994412670821459
 41
6.04566413712248
 42
0.237521171700603
  0
LINE
  5
11E
100
AcDbEntity
  8
0
  6
CONTINUOUS
 62
     0
100
AcDbLine
 10
439.73858368876
 20
11.5615567400221
 11
438.99481669487
 21
11.5615567400221
  0
LINE
  5
11F
100
AcDbEntity
  8
0
  6
CONTINUOUS
 62
     0
100
AcDbLine
 10
440.23293135839
 20
12.7927536493522
 11
440.23293135839
 21
12.0531423264921
  0
ELLIPSE
  5
120
100
AcDbEntity
  8
0
  6
CONTINUOUS
 62
     0
100
AcDbEllipse
 10
439.73858368876
 20
12.0531423264921
 30
0.0
 11
-0.494347669629974
 21
0.0
 31
0.0
210
0.0
220
0.0
230
1.0
 40
0.99441267081898
 41
1.5707963267949
 42
3.14159265358979
  0
ELLIPSE
  5
121
100
AcDbEntity
  8
0
  6
CONTINUOUS
 62
     0
100
AcDbEllipse
 10
440.62840949409
 20
11.168288270842
 30
0.0
 11
-1.68078207674
 21
0.0
 31
0.0
210
0.0
220
0.0
230
1.0
 40
0.994412670815524
 41
4.4748678101885
 42
4.94991015181077
  0
LINE
  5
122
100
AcDbEntity
  8
0
  6
CONTINUOUS
 62
     0
100
AcDbLine
 10
387.73321000652
 20
10.1851170979022
 11
390.20494835467
 21
10.1851170979022
  0
LINE
  5
123
100
AcDbEntity
  8
0
  6
CONTINUOUS
 62
     0
100
AcDbLine
 10
450.80501061995
 20
26.1506419123221
 11
450.4
 21
26.1737288094221
  0
SPLINE
  5
124
100
AcDbEntity
  8
0
  6
CONTINUOUS
 62
     0
100
AcDbSpline
210
0.0
220
0.0
230
1.0
 70
     8
 71
     3
 72
    27
 73
    23
 74
     0
 42
1.00000000000000E-007
 43
1.00000000000000E-007
 40
0.0
 40
0.0
 40
0.0
 40
0.0
 40
1.38798215816358
 40
2.78316046272119
 40
4.2037779901912
 40
5.68854752495431
 40
7.27635816236507
 40
8.85118786305867
 40
10.2685612072611
 40
11.5432525534622
 40
12.9276965472299
 40
14.4703822511305
 40
16.021278561357
 40
17.4905672224835
 40
18.9306905089276
 40
20.3763410549157
 40
21.8340029661351
 40
23.2893399993303
 40
24.723882735155
 40
26.1425404085114
 40
27.5526664756353
 40
28.9591560497458
 40
28.9591560497458
 40
28.9591560497458
 40
28.9591560497458
 10
450.80501061819
 20
26.1506419133221
 30
0.0
 10
451.09371288517
 20
26.2015101130222
 30
0.0
 10
452.248521924179
 20
26.4049829323518
 30
0.0
 10
453.508383376897
 20
26.7003042418183
 30
0.0
 10
454.877790896055
 20
27.1626145283403
 30
0.0
 10
456.186068629956
 20
27.8321499211764
 30
0.0
 10
457.486372973201
 20
28.8037355624777
 30
0.0
 10
458.575119785851
 20
29.9948441243046
 30
0.0
 10
459.23215656536
 20
31.2900189851118
 30
0.0
 10
459.20166183608
 20
32.5819280947068
 30
0.0
 10
458.400774950954
 20
33.7626437262413
 30
0.0
 10
457.142996354054
 20
34.7353044865776
 30
0.0
 10
455.700066276819
 20
35.3867968840821
 30
0.0
 10
454.262050033678
 20
35.6670840426227
 30
0.0
 10
452.817942674989
 20
35.6503016845722
 30
0.0
 10
451.391782677364
 20
35.3890144450879
 30
0.0
 10
449.998899267237
 20
34.9419255437537
 30
0.0
 10
448.654420143977
 20
34.364750824758
 30
0.0
 10
447.382971189606
 20
33.7190029223363
 30
0.0
 10
446.130614888101
 20
32.9981848134295
 30
0.0
 10
445.018008247508
 20
32.3094252752275
 30
0.0
 10
444.019387643
 20
31.665122634822
 30
0.0
 10
443.76973249876
 20
31.5040469695521
 30
0.0
  0
SPLINE
  5
125
100
AcDbEntity
  8
0
  6
CONTINUOUS
 62
     0
100
AcDbSpline
210
0.0
220
0.0
230
1.0
 70
     8
 71
     3
 72
    35
 73
    31
 74
     0
 42
1.00000000000000E-007
 43
1.00000000000000E-007
 40
0.0
 40
0.0
 40
0.0
 40
0.0
 40
1.30659860743156
 40
2.60308815142771
 40
3.88276558863076
 40
5.14605696922568
 40
6.40473935105569
 40
7.67835783850933
 40
8.98347320892681
 40
10.3317377282635
 40
11.694043334342
 40
13.0001667075589
 40
14.239666198758
 40
15.5028968939448
 40
16.8375664068608
 40
18.1991118291535
 40
19.5199010556939
 40
20.811212289544
 40
22.1037105048331
 40
23.4009336099187
 40
24.6993076369482
 40
25.99835245406
 40
27.2961491370532
 40
28.5896543217045
 40
29.875311046574
 40
31.1552320729676
 40
32.4366914567563
 40
33.7231863580173
 40
35.0148674772102
 40
36.30968433834
 40
36.30968433834
 40
36.30968433834
 40
36.30968433834
 10
450.39999999908
 20
24.3315069572321
 30
0.0
 10
450.67197978923
 20
24.3812737039921
 30
0.0
 10
451.759898919752
 20
24.5803407258427
 30
0.0
 10
452.937032784864
 20
24.8342430496163
 30
0.0
 10
454.196328777032
 20
25.1802352042052
 30
0.0
 10
455.371843981327
 20
25.6263613916006
 30
0.0
 10
456.485504574443
 20
26.2155543231252
 30
0.0
 10
457.534112085367
 20
26.9380251957854
 30
0.0
 10
458.524820895531
 20
27.7857110028542
 30
0.0
 10
459.47389478972
 20
28.7510776097608
 30
0.0
 10
460.346215543222
 20
29.8223629584898
 30
0.0
 10
460.985270749219
 20
30.9774339734287
 30
0.0
 10
461.252889267922
 20
32.1962117433013
 30
0.0
 10
461.01113717756
 20
33.4567466034124
 30
0.0
 10
460.377755582585
 20
34.6571151206808
 30
0.0
 10
459.462375140335
 20
35.7019602287916
 30
0.0
 10
458.385461667644
 20
36.476932849238
 30
0.0
 10
457.201919661815
 20
36.9966597286956
 30
0.0
 10
455.944675749984
 20
37.3158262684086
 30
0.0
 10
454.655279137994
 20
37.4844119247688
 30
0.0
 10
453.355599611002
 20
37.5237132174752
 30
0.0
 10
452.057104203586
 20
37.4358443145154
 30
0.0
 10
450.773904371522
 20
37.2273835482873
 30
0.0
 10
449.518618255968
 20
36.9039372508515
 30
0.0
 10
448.30718517892
 20
36.4705452346182
 30
0.0
 10
447.142538859372
 20
35.9362295231555
 30
0.0
 10
446.021750812917
 20
35.3282450728029
 30
0.0
 10
444.903034880635
 20
34.6432993492379
 30
0.0
 10
443.900390981435
 20
33.9854477785593
 30
0.0
 10
442.99581882759
 20
33.3684165885521
 30
0.0
 10
442.76967579679
 20
33.2141587825821
 30
0.0
  0
ELLIPSE
  5
126
100
AcDbEntity
  8
0
  6
CONTINUOUS
 62
     0
100
AcDbEllipse
 10
442.60580017261
 20
31.8148829026121
 30
0.0
 11
-2.96608601777996
 21
0.0
 31
0.0
210
0.0
220
0.0
230
1.0
 40
0.994412670819143
 41
4.09613525646971
 42
4.71238898038469
  0
ELLIPSE
  5
127
100
AcDbEntity
  8
0
  6
CONTINUOUS
 62
     0
100
AcDbEllipse
 10
442.60580017261
 20
31.8148829026121
 30
0.0
 11
-2.96608601777996
 21
0.0
 31
0.0
210
0.0
220
0.0
230
1.0
 40
0.994412670819143
 41
1.23152775008242E-016
 42
3.43240422553222
  0
LINE
  5
128
100
AcDbEntity
  8
2
  6
CONTINUOUS
 62
     0
100
AcDbLine
 10
480.4000011628
 20
13.9925810229921
 11
450.4
 21
13.9925810229921
  0
LINE
  5
129
100
AcDbEntity
  8
2
  6
CONTINUOUS
 62
     0
100
AcDbLine
 10
480.4000011628
 20
27.9925810229921
 11
458.71471320652
 21
27.9925810229921
  0
LINE
  5
12A
100
AcDbEntity
  8
2
  6
CONTINUOUS
 62
     0
100
AcDbLine
 10
456.355510386
 20
27.9925810229921
 11
450.4
 21
27.9925810229921
  0
LINE
  5
12B
100
AcDbEntity
  8
7
  6
CENTER2
 62
    40
100
AcDbLine
 10
480.4000011628
 20
20.9925810229921
 11
350.0
 21
20.9925810229921
  0
ENDBLK
  5
12C
100
AcDbEntity
  8
7
100
AcDbBlockEnd
  0
BLOCK
  5
130
100
AcDbEntity
  8
8
100
AcDbBlockBegin
  2
SUB2
 70
    64
 10
0.0
 20
0.0
  0
LINE
  5
131
100
AcDbEntity
  8
6
  6
CENTER
 62
     0
100
AcDbLine
 10
-42.5
 20
0.0
 11
480.4000011628
 21
0.0
  0
LINE
  5
132
100
AcDbEntity
  8
2
  6
CONTINUOUS
 62
     0
100
AcDbLine
 10
138.5
 20
9.00000000000001
 11
310.0
 21
9.00000000000001
  0
LINE
  5
133
100
AcDbEntity
  8
2
  6
CONTINUOUS
 62
     0
100
AcDbLine
 10
138.5
 20
-9.0
 11
310.0
 21
-9.0
  0
LINE
  5
134
100
AcDbEntity
  8
2
  6
CONTINUOUS
 62
     0
100
AcDbLine
 10
137.5
 20
-11.5
 11
138.5
 21
-10.5
  0
LINE
  5
135
100
AcDbEntity
  8
2
  6
CONTINUOUS
 62
     0
100
AcDbLine
 10
137.5
 20
11.5
 11
138.5
 21
10.5
  0
LINE
  5
136
100
AcDbEntity
  8
2
  6
CONTINUOUS
 62
     0
100
AcDbLine
 10
89.5
 20
-10.5
 11
89.5
 21
10.5
  0
CIRCLE
  5
137
100
AcDbEntity
  8
2
  6
CONTINUOUS
 62
     0
100
AcDbCircle
 10
92.5
 20
0.0
 40
2.41
  0
LWPOLYLINE
  5
138
100
AcDbEntity
  8
2
  6
CONTINUOUS
 62
     0
100
AcDbPolyline
 90
        6
 70
     1
 43
0.0
 10
93.943375672974
 20
0.0
 10
93.221687836487
 20
1.25
 10
91.778312163513
 20
1.25
 10
91.056624327026
 20
0.0
 10
91.778312163513
 20
-1.25
 10
93.221687836487
 20
-1.25
  0
CIRCLE
  5
139
100
AcDbEntity
  8
2
  6
CONTINUOUS
 62
     0
100
AcDbCircle
 10
92.5
 20
0.0
 40
2.75
  0
ARC
  5
13A
100
AcDbEntity
  8
2
  6
CONTINUOUS
 62
     0
100
AcDbCircle
 10
92.5
 20
0.0
 40
3.0
100
AcDbArc
 50
270.0
 51
90.0
  0
LINE
  5
13B
100
AcDbEntity
  8
2
  6
CONTINUOUS
 62
     0
100
AcDbLine
 10
89.5
 20
3.00000000000001
 11
92.5
 21
3.00000000000001
  0
LINE
  5
13C
100
AcDbEntity
  8
2
  6
CONTINUOUS
 62
     0
100
AcDbLine
 10
89.5
 20
-3.0
 11
92.5
 21
-3.0
  0
LINE
  5
13D
100
AcDbEntity
  8
2
  6
CONTINUOUS
 62
     0
100
AcDbLine
 10
90.5
 20
-10.5
 11
90.5
 21
-3.0
  0
LINE
  5
13E
100
AcDbEntity
  8
2
  6
CONTINUOUS
 62
     0
100
AcDbLine
 10
90.5
 20
3.00000000000001
 11
90.5
 21
10.5
  0
LINE
  5
13F
100
AcDbEntity
  8
2
  6
CONTINUOUS
 62
     0
100
AcDbLine
 10
90.5
 20
10.5
 11
138.5
 21
10.5
  0
LINE
  5
140
100
AcDbEntity
  8
2
  6
CONTINUOUS
 62
     0
100
AcDbLine
 10
90.5
 20
-10.5
 11
138.5
 21
-10.5
  0
LINE
  5
141
100
AcDbEntity
  8
2
  6
CONTINUOUS
 62
     0
100
AcDbLine
 10
90.5
 20
-11.5
 11
137.5
 21
-11.5
  0
LINE
  5
142
100
AcDbEntity
  8
2
  6
CONTINUOUS
 62
     0
100
AcDbLine
 10
90.5
 20
11.5
 11
137.5
 21
11.5
  0
CIRCLE
  5
143
100
AcDbEntity
  8
2
  6
CONTINUOUS
 62
     0
100
AcDbCircle
 10
134.5
 20
-7.0
 40
3.0
  0
CIRCLE
  5
144
100
AcDbEntity
  8
2
  6
CONTINUOUS
 62
     0
100
AcDbCircle
 10
134.5
 20
-7.0
 40
2.75
  0
CIRCLE
  5
145
100
AcDbEntity
  8
2
  6
CONTINUOUS
 62
     0
100
AcDbCircle
 10
134.5
 20
-7.0
 40
2.41
  0
LWPOLYLINE
  5
146
100
AcDbEntity
  8
2
  6
CONTINUOUS
 62
     0
100
AcDbPolyline
 90
        6
 70
     1
 43
0.0
 10
135.943375672974
 20
-7.0
 10
135.221687836487
 20
-5.75
 10
133.778312163513
 20
-5.75
 10
133.056624327026
 20
-7.0
 10
133.778312163513
 20
-8.25
 10
135.221687836487
 20
-8.25
  0
CIRCLE
  5
147
100
AcDbEntity
  8
2
  6
CONTINUOUS
 62
     0
100
AcDbCircle
 10
134.5
 20
7.00000000000001
 40
3.0
  0
CIRCLE
  5
148
100
AcDbEntity
  8
2
  6
CONTINUOUS
 62
     0
100
AcDbCircle
 10
134.5
 20
7.00000000000001
 40
2.75
  0
CIRCLE
  5
149
100
AcDbEntity
  8
2
  6
CONTINUOUS
 62
     0
100
AcDbCircle
 10
134.5
 20
7.00000000000001
 40
2.41
  0
LWPOLYLINE
  5
14A
100
AcDbEntity
  8
2
  6
CONTINUOUS
 62
     0
100
AcDbPolyline
 90
        6
 70
     1
 43
0.0
 10
135.943375672974
 20
7.00000000000001
 10
135.221687836487
 20
5.75000000000001
 10
133.778312163513
 20
5.75000000000001
 10
133.056624327026
 20
7.00000000000001
 10
133.778312163513
 20
8.25000000000001
 10
135.221687836487
 20
8.25000000000001
  0
LINE
  5
14B
100
AcDbEntity
  8
2
  6
CONTINUOUS
 62
     0
100
AcDbLine
 10
90.5
 20
11.5
 11
89.5
 21
10.5
  0
LINE
  5
14C
100
AcDbEntity
  8
2
  6
CONTINUOUS
 62
     0
100
AcDbLine
 10
89.5
 20
-10.5
 11
90.5
 21
-11.5
  0
LINE
  5
14D
100
AcDbEntity
  8
2
  6
CONTINUOUS
 62
     0
100
AcDbLine
 10
155.0
 20
24.5
 11
355.0
 21
24.5
  0
LINE
  5
14E
100
AcDbEntity
  8
2
  6
CONTINUOUS
 62
     0
100
AcDbLine
 10
155.0
 20
-24.5
 11
355.0
 21
-24.5
  0
LINE
  5
14F
100
AcDbEntity
  8
2
  6
CONTINUOUS
 62
     0
100
AcDbLine
 10
310.0
 20
-24.5
 11
310.0
 21
24.5
  0
LINE
  5
150
100
AcDbEntity
  8
0
  6
CONTINUOUS
 62
     0
100
AcDbLine
 10
356.0
 20
-16.270000000738
 11
359.2
 21
-16.270000000738
  0
LINE
  5
151
100
AcDbEntity
  8
0
  6
CONTINUOUS
 62
     0
100
AcDbLine
 10
359.2
 20
-16.270000000738
 11
359.2
 21
16.269999999262
  0
LINE
  5
152
100
AcDbEntity
  8
0
  6
CONTINUOUS
 62
     0
100
AcDbLine
 10
359.2
 20
16.269999999262
 11
356.0
 21
16.269999999262
  0
LINE
  5
153
100
AcDbEntity
  8
0
  6
CONTINUOUS
 62
     0
100
AcDbLine
 10
362.2
 20
13.699999999261
 11
364.4
 21
13.6999999992612
  0
LINE
  5
154
100
AcDbEntity
  8
0
  6
CONTINUOUS
 62
     0
100
AcDbLine
 10
364.4
 20
-13.700000000738
 11
362.2
 21
-13.700000000738
  0
LINE
  5
155
100
AcDbEntity
  8
6
  6
CENTER
 62
     0
100
AcDbLine
 10
349.08074609232
 20
12.299998287199
 11
364.20664298926
 21
12.299998287199
  0
LWPOLYLINE
  5
156
100
AcDbEntity
  8
0
  6
CONTINUOUS
 62
     0
100
AcDbPolyline
 90
        6
 70
     1
 43
0.0
 10
359.2
 20
15.049998287198
 10
361.9
 20
15.049998287198
 10
362.2
 20
14.749998287198
 10
362.2
 20
9.84999828719801
 10
361.9
 20
9.54999828719799
 10
359.2
 20
9.54999828719799
  0
LINE
  5
157
100
AcDbEntity
  8
6
  6
CENTER
 62
     0
100
AcDbLine
 10
349.08074609232
 20
-12.299998287199
 11
364.20664298926
 21
-12.299998287199
  0
LWPOLYLINE
  5
158
100
AcDbEntity
  8
0
  6
CONTINUOUS
 62
     0
100
AcDbPolyline
 90
        6
 70
     1
 43
0.0
 10
359.2
 20
-15.049998287199
 10
361.9
 20
-15.049998287199
 10
362.2
 20
-14.749998287199
 10
362.2
 20
-9.84999828719901
 10
361.9
 20
-9.549998287199
 10
359.2
 20
-9.549998287199
  0
LWPOLYLINE
  5
159
100
AcDbEntity
  8
0
  6
CONTINUOUS
 62
     0
100
AcDbPolyline
 90
        4
 70
     1
 43
0.0
 10
356.0
 20
16.269999999262
 10
355.0
 20
16.269999999262
 10
355.0
 20
-16.270000000738
 10
356.0
 20
-16.270000000738
  0
LINE
  5
15A
100
AcDbEntity
  8
2
  6
CONTINUOUS
 62
     0
100
AcDbLine
 10
355.0
 20
-24.5
 11
355.0
 21
24.5
  0
LINE
  5
15B
100
AcDbEntity
  8
2
  6
CONTINUOUS
 62
     0
100
AcDbLine
 10
350.0
 20
-24.5
 11
350.0
 21
24.5
  0
LINE
  5
15C
100
AcDbEntity
  8
2
  6
CONTINUOUS
 62
     0
100
AcDbLine
 10
304.0
 20
-24.5
 11
304.0
 21
-9.0
  0
LINE
  5
15D
100
AcDbEntity
  8
2
  6
CONTINUOUS
 62
     0
100
AcDbLine
 10
304.0
 20
9.00000000000001
 11
304.0
 21
24.5
  0
LINE
  5
15E
100
AcDbEntity
  8
2
  6
CONTINUOUS
 62
     0
100
AcDbLine
 10
138.5
 20
10.5
 11
138.5
 21
-10.5
  0
LINE
  5
15F
100
AcDbEntity
  8
2
  6
CONTINUOUS
 62
     0
100
AcDbLine
 10
149.0
 20
-25.5
 11
149.0
 21
-9.0
  0
LINE
  5
160
100
AcDbEntity
  8
2
  6
CONTINUOUS
 62
     0
100
AcDbLine
 10
149.0
 20
9.00000000000001
 11
149.0
 21
25.5
  0
LINE
  5
161
100
AcDbEntity
  8
2
  6
CONTINUOUS
 62
     0
100
AcDbLine
 10
126.5
 20
-25.5
 11
126.5
 21
-11.5
  0
LINE
  5
162
100
AcDbEntity
  8
2
  6
CONTINUOUS
 62
     0
100
AcDbLine
 10
126.5
 20
11.5
 11
126.5
 21
25.5
  0
LINE
  5
163
100
AcDbEntity
  8
2
  6
CONTINUOUS
 62
     0
100
AcDbLine
 10
155.0
 20
15.5
 11
155.0
 21
24.5
  0
LINE
  5
164
100
AcDbEntity
  8
2
  6
CONTINUOUS
 62
     0
100
AcDbLine
 10
155.0
 20
-24.5
 11
155.0
 21
-15.5
  0
LINE
  5
165
100
AcDbEntity
  8
2
  6
CONTINUOUS
 62
     0
100
AcDbLine
 10
149.0
 20
15.0
 11
154.5
 21
15.0
  0
LINE
  5
166
100
AcDbEntity
  8
2
  6
CONTINUOUS
 62
     0
100
AcDbLine
 10
149.0
 20
25.0
 11
154.5
 21
25.0
  0
LINE
  5
167
100
AcDbEntity
  8
2
  6
CONTINUOUS
 62
     0
100
AcDbLine
 10
149.0
 20
-15.0
 11
154.5
 21
-15.0
  0
LINE
  5
168
100
AcDbEntity
  8
2
  6
CONTINUOUS
 62
     0
100
AcDbLine
 10
149.0
 20
-25.0
 11
154.5
 21
-25.0
  0
LINE
  5
169
100
AcDbEntity
  8
2
  6
CONTINUOUS
 62
     0
100
AcDbLine
 10
154.5
 20
-15.0
 11
155.0
 21
-15.5
  0
LINE
  5
16A
100
AcDbEntity
  8
2
  6
CONTINUOUS
 62
     0
100
AcDbLine
 10
154.5
 20
-25.0
 11
155.0
 21
-24.5
  0
LINE
  5
16B
100
AcDbEntity
  8
2
  6
CONTINUOUS
 62
     0
100
AcDbLine
 10
154.5
 20
15.0
 11
155.0
 21
15.5
  0
LINE
  5
16C
100
AcDbEntity
  8
2
  6
CONTINUOUS
 62
     0
100
AcDbLine
 10
155.0
 20
24.5
 11
154.5
 21
25.0
  0
LINE
  5
16D
100
AcDbEntity
  8
2
  6
CONTINUOUS
 62
     0
100
AcDbLine
 10
154.5
 20
25.0
 11
154.5
 21
15.0
  0
LINE
  5
16E
100
AcDbEntity
  8
2
  6
CONTINUOUS
 62
     0
100
AcDbLine
 10
154.5
 20
-15.0
 11
154.5
 21
-25.0
  0
LINE
  5
16F
100
AcDbEntity
  8
2
  6
CONTINUOUS
 62
     0
100
AcDbLine
 10
0.0
 20
-25.5
 11
0.0
 21
25.5
  0
LINE
  5
170
100
AcDbEntity
  8
2
  6
CONTINUOUS
 62
     0
100
AcDbLine
 10
-3.25
 20
22.0
 11
0.0
 21
22.0
  0
LINE
  5
171
100
AcDbEntity
  8
2
  6
CONTINUOUS
 62
     0
100
AcDbLine
 10
-3.25
 20
-22.0
 11
0.0
 21
-22.0
  0
LINE
  5
172
100
AcDbEntity
  8
2
  6
CONTINUOUS
 62
     0
100
AcDbLine
 10
-3.75
 20
-21.5
 11
-3.75
 21
21.5
  0
LINE
  5
173
100
AcDbEntity
  8
2
  6
CONTINUOUS
 62
     0
100
AcDbLine
 10
-3.25
 20
22.0
 11
-3.75
 21
21.5
  0
LINE
  5
174
100
AcDbEntity
  8
2
  6
CONTINUOUS
 62
     0
100
AcDbLine
 10
-3.75
 20
-21.5
 11
-3.25
 21
-22.0
  0
LINE
  5
175
100
AcDbEntity
  8
2
  6
CONTINUOUS
 62
     0
100
AcDbLine
 10
-3.25
 20
22.0
 11
-3.25
 21
-22.0
  0
LINE
  5
176
100
AcDbEntity
  8
2
  6
CONTINUOUS
 62
     0
100
AcDbLine
 10
-40.0
 20
-7.93997342294898
 11
-40.0
 21
7.94002657705103
  0
LINE
  5
177
100
AcDbEntity
  8
2
  6
CONTINUOUS
 62
     0
100
AcDbLine
 10
-39.0
 20
-7.93997342294898
 11
-39.0
 21
-6.07915099890403
  0
LINE
  5
178
100
AcDbEntity
  8
2
  6
CONTINUOUS
 62
     0
100
AcDbLine
 10
-39.0
 20
6.07920415300704
 11
-39.0
 21
7.94002657705103
  0
LINE
  5
179
100
AcDbEntity
  8
2
  6
CONTINUOUS
 62
     0
100
AcDbLine
 10
-39.0
 20
6.07920415300704
 11
-21.5
 21
6.07920415300704
  0
LINE
  5
17A
100
AcDbEntity
  8
2
  6
CONTINUOUS
 62
     0
100
AcDbLine
 10
-39.0
 20
6.07920415300704
 11
-40.0
 21
4.02077277645203
  0
LINE
  5
17B
100
AcDbEntity
  8
2
  6
CONTINUOUS
 62
     0
100
AcDbLine
 10
-39.0
 20
-6.07915099890403
 11
-21.5
 21
-6.07915099890403
  0
LINE
  5
17C
100
AcDbEntity
  8
2
  6
CONTINUOUS
 62
     0
100
AcDbLine
 10
-40.0
 20
-4.02071962234999
 11
-39.0
 21
-6.07915099890403
  0
LINE
  5
17D
100
AcDbEntity
  8
7
  6
CENTER2
 62
    40
100
AcDbLine
 10
-32.0
 20
-10.5
 11
-32.0
 21
10.5
  0
ARC
  5
17E
100
AcDbEntity
  8
2
  6
CONTINUOUS
 62
     0
100
AcDbCircle
 10
-21.5
 20
4.57920415300704
 40
1.5
100
AcDbArc
 50
0.0
 51
90.0
  0
ARC
  5
17F
100
AcDbEntity
  8
2
  6
CONTINUOUS
 62
     0
100
AcDbCircle
 10
-21.5
 20
9.44002657705103
 40
1.5
100
AcDbArc
 50
270.0
 51
0.0
  0
LINE
  5
180
100
AcDbEntity
  8
2
  6
CONTINUOUS
 62
     0
100
AcDbLine
 10
-40.0
 20
7.94002657705103
 11
-21.5
 21
7.94002657705103
  0
ARC
  5
181
100
AcDbEntity
  8
2
  6
CONTINUOUS
 62
     0
100
AcDbCircle
 10
-21.5
 20
-4.57915099890403
 40
1.5
100
AcDbArc
 50
270.0
 51
0.0
  0
LINE
  5
182
100
AcDbEntity
  8
2
  6
CONTINUOUS
 62
     0
100
AcDbLine
 10
-40.0
 20
-7.93997342294898
 11
-21.5
 21
-7.93997342294898
  0
ARC
  5
183
100
AcDbEntity
  8
2
  6
CONTINUOUS
 62
     0
100
AcDbCircle
 10
-21.5
 20
-9.43997342294898
 40
1.5
100
AcDbArc
 50
0.0
 51
90.0
  0
LINE
  5
184
100
AcDbEntity
  8
2
  6
CONTINUOUS
 62
     0
100
AcDbLine
 10
-20.0
 20
-9.99997342294898
 11
-20.0
 21
10.000026577051
  0
LINE
  5
185
100
AcDbEntity
  8
2
  6
CONTINUOUS
 62
     0
100
AcDbLine
 10
-20.0
 20
10.000026577051
 11
-3.75
 21
10.000026577051
  0
LINE
  5
186
100
AcDbEntity
  8
2
  6
CONTINUOUS
 62
     0
100
AcDbLine
 10
-20.0
 20
-9.99997342294898
 11
-3.75
 21
-9.99997342294898
  0
LINE
  5
187
100
AcDbEntity
  8
2
  6
CONTINUOUS
 62
     0
100
AcDbLine
 10
157.0
 20
11.61049502179
 11
304.0
 21
11.61049502179
  0
LINE
  5
188
100
AcDbEntity
  8
2
  6
CONTINUOUS
 62
     0
100
AcDbLine
 10
157.0
 20
18.07494051271
 11
304.0
 21
18.07494051271
  0
LINE
  5
189
100
AcDbEntity
  8
2
  6
CONTINUOUS
 62
     0
100
AcDbLine
 10
157.0
 20
12.53398723478
 11
304.0
 21
12.53398723478
  0
LINE
  5
18A
100
AcDbEntity
  8
2
  6
CONTINUOUS
 62
     0
100
AcDbLine
 10
157.0
 20
13.45747944777
 11
304.0
 21
13.45747944777
  0
LINE
  5
18B
100
AcDbEntity
  8
2
  6
CONTINUOUS
 62
     0
100
AcDbLine
 10
157.0
 20
14.38097166075
 11
304.0
 21
14.38097166075
  0
LINE
  5
18C
100
AcDbEntity
  8
2
  6
CONTINUOUS
 62
     0
100
AcDbLine
 10
157.0
 20
15.30446387375
 11
304.0
 21
15.30446387375
  0
LINE
  5
18D
100
AcDbEntity
  8
2
  6
CONTINUOUS
 62
     0
100
AcDbLine
 10
157.0
 20
16.22795608673
 11
304.0
 21
16.22795608673
  0
LINE
  5
18E
100
AcDbEntity
  8
2
  6
CONTINUOUS
 62
     0
100
AcDbLine
 10
157.0
 20
17.15144829972
 11
304.0
 21
17.15144829972
  0
LINE
  5
18F
100
AcDbEntity
  8
2
  6
CONTINUOUS
 62
     0
100
AcDbLine
 10
157.0
 20
-11.61049502179
 11
304.0
 21
-11.61049502179
  0
LINE
  5
190
100
AcDbEntity
  8
2
  6
CONTINUOUS
 62
     0
100
AcDbLine
 10
157.0
 20
-12.53398723478
 11
304.0
 21
-12.53398723478
  0
LINE
  5
191
100
AcDbEntity
  8
2
  6
CONTINUOUS
 62
     0
100
AcDbLine
 10
157.0
 20
-13.45747944777
 11
304.0
 21
-13.45747944777
  0
LINE
  5
192
100
AcDbEntity
  8
2
  6
CONTINUOUS
 62
     0
100
AcDbLine
 10
157.0
 20
-14.38097166075
 11
304.0
 21
-14.38097166075
  0
LINE
  5
193
100
AcDbEntity
  8
2
  6
CONTINUOUS
 62
     0
100
AcDbLine
 10
157.0
 20
-15.30446387375
 11
304.0
 21
-15.30446387375
  0
LINE
  5
194
100
AcDbEntity
  8
2
  6
CONTINUOUS
 62
     0
100
AcDbLine
 10
157.0
 20
-16.22795608673
 11
304.0
 21
-16.22795608673
  0
LINE
  5
195
100
AcDbEntity
  8
2
  6
CONTINUOUS
 62
     0
100
AcDbLine
 10
157.0
 20
-17.15144829972
 11
304.0
 21
-17.15144829972
  0
LINE
  5
196
100
AcDbEntity
  8
2
  6
CONTINUOUS
 62
     0
100
AcDbLine
 10
157.0
 20
-18.07494051271
 11
304.0
 21
-18.07494051271
  0
LINE
  5
197
100
AcDbEntity
  8
2
  6
CONTINUOUS
 62
     0
100
AcDbLine
 10
157.0
 20
-24.5
 11
157.0
 21
-9.0
  0
LINE
  5
198
100
AcDbEntity
  8
2
  6
CONTINUOUS
 62
     0
100
AcDbLine
 10
157.0
 20
9.00000000000001
 11
157.0
 21
24.5
  0
LINE
  5
199
100
AcDbEntity
  8
2
  6
CONTINUOUS
 62
     0
100
AcDbLine
 10
0.0
 20
25.5
 11
149.0
 21
25.5
  0
LINE
  5
19A
100
AcDbEntity
  8
2
  6
CONTINUOUS
 62
     0
100
AcDbLine
 10
0.0
 20
-25.5
 11
149.0
 21
-25.5
  0
LINE
  5
19B
100
AcDbEntity
  8
2
  6
CONTINUOUS
 62
     0
100
AcDbLine
 10
82.0
 20
22.803508501983
 11
149.0
 21
22.803508501983
  0
LINE
  5
19C
100
AcDbEntity
  8
2
  6
CONTINUOUS
 62
     0
100
AcDbLine
 10
82.0
 20
-22.803508501983
 11
149.0
 21
-22.803508501983
  0
LINE
  5
19D
100
AcDbEntity
  8
2
  6
CONTINUOUS
 62
     0
100
AcDbLine
 10
82.0
 20
-25.5
 11
82.0
 21
-10.0
  0
LINE
  5
19E
100
AcDbEntity
  8
2
  6
CONTINUOUS
 62
     0
100
AcDbLine
 10
82.0
 20
10.0
 11
82.0
 21
25.5
  0
LINE
  5
19F
100
AcDbEntity
  8
2
  6
CONTINUOUS
 62
     0
100
AcDbLine
 10
0.0
 20
4.00000000000001
 11
30.0
 21
4.00000000000001
  0
LINE
  5
1A0
100
AcDbEntity
  8
2
  6
CONTINUOUS
 62
     0
100
AcDbLine
 10
0.0
 20
-4.0
 11
30.0
 21
-4.0
  0
LINE
  5
1A1
100
AcDbEntity
  8
2
  6
CONTINUOUS
 62
     0
100
AcDbLine
 10
30.0
 20
-10.0
 11
30.0
 21
10.0
  0
LINE
  5
1A2
100
AcDbEntity
  8
2
  6
CONTINUOUS
 62
     0
100
AcDbLine
 10
30.0
 20
10.0
 11
82.0
 21
10.0
  0
LINE
  5
1A3
100
AcDbEntity
  8
2
  6
CONTINUOUS
 62
     0
100
AcDbLine
 10
30.0
 20
-10.0
 11
82.0
 21
-10.0
  0
LINE
  5
1A4
100
AcDbEntity
  8
2
  6
CONTINUOUS
 62
     0
100
AcDbLine
 10
96.0
 20
-25.5
 11
96.0
 21
-11.5
  0
LINE
  5
1A5
100
AcDbEntity
  8
2
  6
CONTINUOUS
 62
     0
100
AcDbLine
 10
96.0
 20
11.5
 11
96.0
 21
25.5
  0
CIRCLE
  5
1A6
100
AcDbEntity
  8
2
  6
CONTINUOUS
 62
     0
100
AcDbCircle
 10
142.0
 20
0.0
 40
2.5
  0
LWPOLYLINE
  5
1A7
100
AcDbEntity
  8
2
  6
CONTINUOUS
 62
     0
100
AcDbPolyline
 90
        6
 70
     1
 43
0.0
 10
143.154700538379
 20
0.0
 10
142.57735026919
 20
1.0
 10
141.42264973081
 20
1.0
 10
140.845299461621
 20
0.0
 10
141.42264973081
 20
-1.0
 10
142.57735026919
 20
-1.0
  0
LINE
  5
1A8
100
AcDbEntity
  8
2
  6
CONTINUOUS
 62
     0
100
AcDbLine
 10
310.0
 20
18.0
 11
355.0
 21
18.0
  0
LINE
  5
1A9
100
AcDbEntity
  8
2
  6
CONTINUOUS
 62
     0
100
AcDbLine
 10
310.0
 20
-18.0
 11
355.0
 21
-18.0
  0
LINE
  5
1AA
100
AcDbEntity
  8
2
  6
CONTINUOUS
 62
     0
100
AcDbLine
 10
310.0
 20
17.0
 11
355.0
 21
17.0
  0
LINE
  5
1AB
100
AcDbEntity
  8
2
  6
CONTINUOUS
 62
     0
100
AcDbLine
 10
310.0
 20
-17.0
 11
355.0
 21
-17.0
  0
ELLIPSE
  5
1AC
100
AcDbEntity
  8
2
  6
CONTINUOUS
 62
     0
100
AcDbEllipse
 10
319.0
 20
-19.4855715851499
 30
0.0
 11
4.5
 21
0.0
 31
0.0
210
0.0
220
0.0
230
1.0
 40
0.499999999999987
 41
3.43435593421058
 42
3.62566574761822
  0
ELLIPSE
  5
1AD
100
AcDbEntity
  8
2
  6
CONTINUOUS
 62
     0
100
AcDbEllipse
 10
319.0
 20
-19.4855715851499
 30
0.0
 11
4.5
 21
0.0
 31
0.0
210
0.0
220
0.0
230
1.0
 40
0.499999999999987
 41
5.79911221315114
 42
5.9904220265588
  0
ELLIPSE
  5
1AE
100
AcDbEntity
  8
2
  6
CONTINUOUS
 62
     0
100
AcDbEllipse
 10
319.0
 20
-20.7846096908265
 30
0.0
 11
4.5
 21
0.0
 31
0.0
210
0.0
220
0.0
230
1.0
 40
0.499999999999987
 41
0.0
 42
6.28318530717959
  0
ELLIPSE
  5
1AF
100
AcDbEntity
  8
2
  6
CONTINUOUS
 62
     0
100
AcDbEllipse
 10
319.0
 20
-20.3515969889339
 30
0.0
 11
4.0
 21
0.0
 31
0.0
210
0.0
220
0.0
230
1.0
 40
0.5
 41
2.61279471313184
 42
0.528797940457941
  0
LINE
  5
1B0
100
AcDbEntity
  8
2
  6
CONTINUOUS
 62
     0
100
AcDbLine
 10
323.0
 20
-19.752809176649
 11
323.0
 21
-20.3515969889339
  0
LINE
  5
1B1
100
AcDbEntity
  8
2
  6
CONTINUOUS
 62
     0
100
AcDbLine
 10
315.0
 20
-19.752809176649
 11
315.0
 21
-20.351596988934
  0
ELLIPSE
  5
1B2
100
AcDbEntity
  8
2
  6
CONTINUOUS
 62
     0
100
AcDbEllipse
 10
319.0
 20
-20.7846096908265
 30
0.0
 11
3.5
 21
0.0
 31
0.0
210
0.0
220
0.0
230
1.0
 40
0.447710656602136
 41
0.0
 42
6.28318530717959
  0
LINE
  5
1B3
100
AcDbEntity
  8
2
  6
CONTINUOUS
 62
     0
100
AcDbLine
 10
318.42264973081
 20
-21.2846096908264
 11
319.57735026919
 21
-21.2846096908264
  0
LINE
  5
1B4
100
AcDbEntity
  8
2
  6
CONTINUOUS
 62
     0
100
AcDbLine
 10
318.42264973081
 20
-20.2846096908266
 11
319.57735026919
 21
-20.2846096908266
  0
LINE
  5
1B5
100
AcDbEntity
  8
2
  6
CONTINUOUS
 62
     0
100
AcDbLine
 10
320.154700538379
 20
-20.7846096908265
 11
319.57735026919
 21
-21.2846096908264
  0
LINE
  5
1B6
100
AcDbEntity
  8
2
  6
CONTINUOUS
 62
     0
100
AcDbLine
 10
320.154700538379
 20
-20.7846096908265
 11
319.57735026919
 21
-20.2846096908266
  0
LINE
  5
1B7
100
AcDbEntity
  8
2
  6
CONTINUOUS
 62
     0
100
AcDbLine
 10
318.42264973081
 20
-20.2846096908266
 11
317.845299461621
 21
-20.7846096908265
  0
LINE
  5
1B8
100
AcDbEntity
  8
2
  6
CONTINUOUS
 62
     0
100
AcDbLine
 10
317.845299461621
 20
-20.7846096908265
 11
318.42264973081
 21
-21.2846096908264
  0
LINE
  5
1B9
100
AcDbEntity
  8
2
  6
CONTINUOUS
 62
     0
100
AcDbLine
 10
318.42264973081
 20
-20.591789367799
 11
319.57735026919
 21
-20.591789367799
  0
LINE
  5
1BA
100
AcDbEntity
  8
2
  6
CONTINUOUS
 62
     0
100
AcDbLine
 10
318.245299461621
 20
-20.4381995293128
 11
318.42264973081
 21
-20.591789367799
  0
LINE
  5
1BB
100
AcDbEntity
  8
2
  6
CONTINUOUS
 62
     0
100
AcDbLine
 10
319.754700538379
 20
-20.4381995293128
 11
319.57735026919
 21
-20.591789367799
  0
ELLIPSE
  5
1BC
100
AcDbEntity
  8
2
  6
CONTINUOUS
 62
     0
100
AcDbEllipse
 10
319.0
 20
20.7846096908265
 30
0.0
 11
4.5
 21
0.0
 31
0.0
210
0.0
220
0.0
230
1.0
 40
0.499999999999987
 41
0.0
 42
6.28318530717959
  0
ELLIPSE
  5
1BD
100
AcDbEntity
  8
2
  6
CONTINUOUS
 62
     0
100
AcDbEllipse
 10
319.0
 20
19.4855715851499
 30
0.0
 11
4.5
 21
0.0
 31
0.0
210
0.0
220
0.0
230
1.0
 40
0.499999999999987
 41
2.65751955956137
 42
2.84882937296902
  0
ELLIPSE
  5
1BE
100
AcDbEntity
  8
2
  6
CONTINUOUS
 62
     0
100
AcDbEllipse
 10
319.0
 20
19.4855715851499
 30
0.0
 11
4.5
 21
0.0
 31
0.0
210
0.0
220
0.0
230
1.0
 40
0.499999999999987
 41
0.292763280620774
 42
0.48407309402845
  0
LINE
  5
1BF
100
AcDbEntity
  8
2
  6
CONTINUOUS
 62
     0
100
AcDbLine
 10
315.0
 20
19.752809176649
 11
315.0
 21
20.351596988934
  0
LINE
  5
1C0
100
AcDbEntity
  8
2
  6
CONTINUOUS
 62
     0
100
AcDbLine
 10
323.0
 20
19.752809176649
 11
323.0
 21
20.3515969889339
  0
ELLIPSE
  5
1C1
100
AcDbEntity
  8
2
  6
CONTINUOUS
 62
     0
100
AcDbEllipse
 10
319.0
 20
20.3515969889339
 30
0.0
 11
4.0
 21
0.0
 31
0.0
210
0.0
220
0.0
230
1.0
 40
0.5
 41
5.75438736672164
 42
3.67039059404774
  0
ELLIPSE
  5
1C2
100
AcDbEntity
  8
2
  6
CONTINUOUS
 62
     0
100
AcDbEllipse
 10
319.0
 20
20.7846096908265
 30
0.0
 11
3.5
 21
0.0
 31
0.0
210
0.0
220
0.0
230
1.0
 40
0.447710656602128
 41
0.0
 42
6.28318530717959
  0
LINE
  5
1C3
100
AcDbEntity
  8
2
  6
CONTINUOUS
 62
     0
100
AcDbLine
 10
320.154700538379
 20
20.7846096908265
 11
319.57735026919
 21
21.2846096908264
  0
LINE
  5
1C4
100
AcDbEntity
  8
2
  6
CONTINUOUS
 62
     0
100
AcDbLine
 10
320.154700538379
 20
20.7846096908265
 11
319.57735026919
 21
20.2846096908265
  0
LINE
  5
1C5
100
AcDbEntity
  8
2
  6
CONTINUOUS
 62
     0
100
AcDbLine
 10
318.42264973081
 20
20.2846096908265
 11
317.845299461621
 21
20.7846096908265
  0
LINE
  5
1C6
100
AcDbEntity
  8
2
  6
CONTINUOUS
 62
     0
100
AcDbLine
 10
317.845299461621
 20
20.7846096908265
 11
318.42264973081
 21
21.2846096908264
  0
LINE
  5
1C7
100
AcDbEntity
  8
2
  6
CONTINUOUS
 62
     0
100
AcDbLine
 10
318.42264973081
 20
20.2846096908265
 11
319.57735026919
 21
20.2846096908265
  0
LINE
  5
1C8
100
AcDbEntity
  8
2
  6
CONTINUOUS
 62
     0
100
AcDbLine
 10
318.42264973081
 20
21.2846096908264
 11
319.57735026919
 21
21.2846096908264
  0
LINE
  5
1C9
100
AcDbEntity
  8
2
  6
CONTINUOUS
 62
     0
100
AcDbLine
 10
318.42264973081
 20
20.5917893677989
 11
319.57735026919
 21
20.5917893677989
  0
LINE
  5
1CA
100
AcDbEntity
  8
2
  6
CONTINUOUS
 62
     0
100
AcDbLine
 10
319.754700538379
 20
20.4381995293127
 11
319.57735026919
 21
20.5917893677989
  0
LINE
  5
1CB
100
AcDbEntity
  8
2
  6
CONTINUOUS
 62
     0
100
AcDbLine
 10
318.245299461621
 20
20.4381995293127
 11
318.42264973081
 21
20.5917893677989
  0
LINE
  5
1CC
100
AcDbEntity
  8
0
  6
CONTINUOUS
 62
     0
100
AcDbLine
 10
386.74451466726
 20
15.7307387670551
 11
386.74451466726
 21
-15.7307387670548
  0
LINE
  5
1CD
100
AcDbEntity
  8
0
  6
CONTINUOUS
 62
     0
100
AcDbLine
 10
447.73072053414
 20
10.596421786895
 11
445.87382189686
 21
11.8817887729551
  0
LINE
  5
1CE
100
AcDbEntity
  8
0
  6
CONTINUOUS
 62
     0
100
AcDbLine
 10
450.4
 20
10.596421786895
 11
447.73072053414
 21
10.596421786895
  0
LINE
  5
1CF
100
AcDbEntity
  8
0
  6
CONTINUOUS
 62
     0
100
AcDbLine
 10
447.73072053414
 20
-11.5521789616948
 11
444.14019992542
 21
-13.3783825001149
  0
LINE
  5
1D0
100
AcDbEntity
  8
0
  6
CONTINUOUS
 62
     0
100
AcDbLine
 10
450.4
 20
-11.5521789616948
 11
450.4
 21
10.596421786895
  0
LINE
  5
1D1
100
AcDbEntity
  8
0
  6
CONTINUOUS
 62
     0
100
AcDbLine
 10
450.4
 20
-11.5521789616948
 11
447.73072053414
 21
-11.5521789616948
  0
LINE
  5
1D2
100
AcDbEntity
  8
0
  6
CONTINUOUS
 62
     0
100
AcDbLine
 10
438.65101881603
 20
-12.350338380325
 11
438.65101881603
 21
-13.764396421175
  0
ELLIPSE
  5
1D3
100
AcDbEntity
  8
0
  6
CONTINUOUS
 62
     0
100
AcDbEllipse
 10
435.409364362495
 20
-11.6997369579949
 30
0.0
 11
-0.395478135704991
 21
0.0
 31
0.0
210
0.0
220
0.0
230
1.0
 40
0.994412670801243
 41
3.40949156654327
 42
4.71238898038469
  0
ELLIPSE
  5
1D4
100
AcDbEntity
  8
0
  6
CONTINUOUS
 62
     0
100
AcDbEllipse
 10
438.65101881603
 20
-10.8148829023548
 30
0.0
 11
-2.96608601778001
 21
0.0
 31
0.0
210
0.0
220
0.0
230
1.0
 40
0.99441267081923
 41
0.267898912398719
 42
1.5707963267949
  0
ELLIPSE
  5
1D5
100
AcDbEntity
  8
0
  6
CONTINUOUS
 62
     0
100
AcDbEllipse
 10
398.11451106874
 20
-1.04911634934979E-010
 30
0.0
 11
0.0
 21
6.1986583889801
 31
0.0
210
0.0
220
0.0
230
1.0
 40
0.733400073764668
 41
3.14159265358979
 42
6.28318530717959
  0
ELLIPSE
  5
1D6
100
AcDbEntity
  8
0
  6
CONTINUOUS
 62
     0
100
AcDbEllipse
 10
440.62840949409
 20
9.83171172941498
 30
0.0
 11
-2.71891218296003
 21
0.0
 31
0.0
210
0.0
220
0.0
230
1.0
 40
0.994412670819205
 41
1.23152775008235E-016
 42
6.28318530717959
  0
ELLIPSE
  5
1D7
100
AcDbEntity
  8
0
  6
CONTINUOUS
 62
     0
100
AcDbEllipse
 10
441.51823529942
 20
8.94685767376491
 30
0.0
 11
-0.494347669629974
 21
0.0
 31
0.0
210
0.0
220
0.0
230
1.0
 40
0.99441267081898
 41
4.71238898038469
 42
6.28318530717959
  0
LINE
  5
1D8
100
AcDbEntity
  8
0
  6
CONTINUOUS
 62
     0
100
AcDbLine
 10
441.02388762979
 20
8.94685767376491
 11
441.02388762979
 21
8.20724635090501
  0
LINE
  5
1D9
100
AcDbEntity
  8
0
  6
CONTINUOUS
 62
     0
100
AcDbLine
 10
442.26200229331
 20
9.43844326077512
 11
441.51823529942
 21
9.43844326077512
  0
ELLIPSE
  5
1DA
100
AcDbEntity
  8
0
  6
CONTINUOUS
 62
     0
100
AcDbEllipse
 10
440.62840949409
 20
9.83171172940497
 30
0.0
 11
-1.68078207674
 21
0.0
 31
0.0
210
0.0
220
0.0
230
1.0
 40
0.994412670815507
 41
1.23152775008693E-016
 42
3.37911382488572
  0
LINE
  5
1DB
100
AcDbEntity
  8
0
  6
CONTINUOUS
 62
     0
100
AcDbLine
 10
441.51823529942
 20
10.2249801985852
 11
442.26200229331
 21
10.2249801985852
  0
LINE
  5
1DC
100
AcDbEntity
  8
0
  6
CONTINUOUS
 62
     0
100
AcDbLine
 10
370.82651970518
 20
15.7307387670551
 11
386.74451466726
 21
15.7307387670551
  0
LINE
  5
1DD
100
AcDbEntity
  8
0
  6
CONTINUOUS
 62
     0
100
AcDbLine
 10
370.82651970518
 20
15.5341045324651
 11
386.74451466726
 21
15.5341045324651
  0
LINE
  5
1DE
100
AcDbEntity
  8
0
  6
CONTINUOUS
 62
     0
100
AcDbLine
 10
370.82651970518
 20
15.2391531805852
 11
386.74451466726
 21
15.2391531805852
  0
LINE
  5
1DF
100
AcDbEntity
  8
0
  6
CONTINUOUS
 62
     0
100
AcDbLine
 10
370.82651970518
 20
13.9610306557652
 11
386.74451466726
 21
13.9610306557652
  0
LINE
  5
1E0
100
AcDbEntity
  8
0
  6
CONTINUOUS
 62
     0
100
AcDbLine
 10
370.82651970518
 20
14.747567594115
 11
386.74451466726
 21
14.747567594115
  0
LINE
  5
1E1
100
AcDbEntity
  8
0
  6
CONTINUOUS
 62
     0
100
AcDbLine
 10
370.82651970518
 20
12.9778594828251
 11
386.74451466726
 21
12.9778594828251
  0
LINE
  5
1E2
100
AcDbEntity
  8
0
  6
CONTINUOUS
 62
     0
100
AcDbLine
 10
370.82651970518
 20
11.7980540748351
 11
386.74451466726
 21
11.7980540748351
  0
SPLINE
  5
1E3
100
AcDbEntity
  8
0
  6
CONTINUOUS
 62
     0
100
AcDbSpline
210
0.0
220
0.0
230
1.0
 70
     8
 71
     3
 72
     8
 73
     4
 74
     0
 42
1.00000000000000E-007
 43
1.00000000000000E-007
 40
0.0
 40
0.0
 40
0.0
 40
0.0
 40
1.39432567660155
 40
1.39432567660155
 40
1.39432567660155
 40
1.39432567660155
 10
387.73321000652
 20
14.7475675619459
 30
0.0
 10
387.73321000652
 20
15.2905580394051
 30
0.0
 10
387.29055602536
 20
15.7307387670551
 30
0.0
 10
386.74451466726
 20
15.7307387670551
 30
0.0
  0
LINE
  5
1E4
100
AcDbEntity
  8
0
  6
CONTINUOUS
 62
     0
100
AcDbLine
 10
370.82651970518
 20
10.6182486677651
 11
386.74451466726
 21
10.6182486677651
  0
LINE
  5
1E5
100
AcDbEntity
  8
0
  6
CONTINUOUS
 62
     0
100
AcDbLine
 10
364.69660860178
 20
15.2391531805852
 11
370.33217203556
 21
15.2391531805852
  0
LINE
  5
1E6
100
AcDbEntity
  8
0
  6
CONTINUOUS
 62
     0
100
AcDbLine
 10
387.73321000652
 20
10.8148829023551
 11
390.20494835467
 21
10.8148829023551
  0
LINE
  5
1E7
100
AcDbEntity
  8
0
  6
CONTINUOUS
 62
     0
100
AcDbLine
 10
364.69660860178
 20
-15.2391531805849
 11
364.4
 21
-14.9442018289949
  0
LINE
  5
1E8
100
AcDbEntity
  8
0
  6
CONTINUOUS
 62
     0
100
AcDbLine
 10
370.82651970518
 20
-15.7307387670548
 11
386.74451466726
 21
-15.7307387670548
  0
LINE
  5
1E9
100
AcDbEntity
  8
0
  6
CONTINUOUS
 62
     0
100
AcDbLine
 10
364.69660860178
 20
-15.2391531805849
 11
370.33217203556
 21
-15.2391531805849
  0
ELLIPSE
  5
1EA
100
AcDbEntity
  8
0
  6
CONTINUOUS
 62
     0
100
AcDbEllipse
 10
386.74451466726
 20
-14.747567594115
 30
0.0
 11
-0.988695339260005
 21
0.0
 31
0.0
210
0.0
220
0.0
230
1.0
 40
0.99441267081898
 41
1.5707963267949
 42
3.14159265358979
  0
LINE
  5
1EB
100
AcDbEntity
  8
0
  6
CONTINUOUS
 62
     0
100
AcDbLine
 10
370.33217203556
 20
-15.2391531805849
 11
370.82651970518
 21
-15.7307387670548
  0
LINE
  5
1EC
100
AcDbEntity
  8
0
  6
CONTINUOUS
 62
     0
100
AcDbLine
 10
364.4
 20
-14.9442018289949
 11
364.4
 21
14.944201828705
  0
LINE
  5
1ED
100
AcDbEntity
  8
0
  6
CONTINUOUS
 62
     0
100
AcDbLine
 10
364.69660860178
 20
15.2391531805852
 11
364.4
 21
14.944201828705
  0
ELLIPSE
  5
1EE
100
AcDbEntity
  8
0
  6
CONTINUOUS
 62
     0
100
AcDbEllipse
 10
441.51823529942
 20
10.7165657850551
 30
0.0
 11
-0.494347669629974
 21
0.0
 31
0.0
210
0.0
220
0.0
230
1.0
 40
0.99441267081898
 41
1.23152775008263E-016
 42
1.5707963267949
  0
LINE
  5
1EF
100
AcDbEntity
  8
0
  6
CONTINUOUS
 62
     0
100
AcDbLine
 10
441.02388762979
 20
11.456177107915
 11
441.02388762979
 21
10.7165657850551
  0
ELLIPSE
  5
1F0
100
AcDbEntity
  8
0
  6
CONTINUOUS
 62
     0
100
AcDbEllipse
 10
440.62840949409
 20
9.83171172941498
 30
0.0
 11
-1.68078207674
 21
0.0
 31
0.0
210
0.0
220
0.0
230
1.0
 40
0.994412670821459
 41
4.47486781018573
 42
4.94991015181354
  0
LINE
  5
1F1
100
AcDbEntity
  8
0
  6
CONTINUOUS
 62
     0
100
AcDbLine
 10
440.23293135839
 20
10.7165657850551
 11
440.23293135839
 21
11.456177107915
  0
ELLIPSE
  5
1F2
100
AcDbEntity
  8
0
  6
CONTINUOUS
 62
     0
100
AcDbEllipse
 10
439.73858368876
 20
10.7165657850551
 30
0.0
 11
-0.494347669629974
 21
0.0
 31
0.0
210
0.0
220
0.0
230
1.0
 40
0.994412670819038
 41
1.5707963267949
 42
3.14159265358979
  0
ELLIPSE
  5
1F3
100
AcDbEntity
  8
0
  6
CONTINUOUS
 62
     0
100
AcDbEllipse
 10
440.62840949409
 20
9.83171172941498
 30
0.0
 11
-1.68078207674
 21
0.0
 31
0.0
210
0.0
220
0.0
230
1.0
 40
0.994412670821459
 41
6.04566413712826
 42
0.237521171393038
  0
LINE
  5
1F4
100
AcDbEntity
  8
0
  6
CONTINUOUS
 62
     0
100
AcDbLine
 10
438.99481669487
 20
10.2249801985852
 11
439.73858368876
 21
10.2249801985852
  0
LINE
  5
1F5
100
AcDbEntity
  8
0
  6
CONTINUOUS
 62
     0
100
AcDbLine
 10
439.73858368876
 20
9.43844326077512
 11
438.99481669487
 21
9.43844326077512
  0
ELLIPSE
  5
1F6
100
AcDbEntity
  8
0
  6
CONTINUOUS
 62
     0
100
AcDbEllipse
 10
439.73858368876
 20
8.94685767376491
 30
0.0
 11
-0.494347669629974
 21
0.0
 31
0.0
210
0.0
220
0.0
230
1.0
 40
0.994412670819038
 41
1.23152775008255E-016
 42
4.71238898038469
  0
LINE
  5
1F7
100
AcDbEntity
  8
0
  6
CONTINUOUS
 62
     0
100
AcDbLine
 10
440.23293135839
 20
8.20724635090501
 11
440.23293135839
 21
8.94685767376491
  0
ELLIPSE
  5
1F8
100
AcDbEntity
  8
0
  6
CONTINUOUS
 62
     0
100
AcDbEllipse
 10
440.62840949409
 20
9.83171172941498
 30
0.0
 11
-3.21325985259
 21
0.0
 31
0.0
210
0.0
220
0.0
230
1.0
 40
0.994412670819171
 41
5.04042805740387
 42
4.38434990458853
  0
ELLIPSE
  5
1F9
100
AcDbEntity
  8
0
  6
CONTINUOUS
 62
     0
100
AcDbEllipse
 10
440.62840949409
 20
-9.83171172941499
 30
0.0
 11
-3.21325985259
 21
0.0
 31
0.0
210
0.0
220
0.0
230
1.0
 40
0.994412670819162
 41
1.89883540340641
 42
1.24275725059104
  0
LINE
  5
1FA
100
AcDbEntity
  8
0
  6
CONTINUOUS
 62
     0
100
AcDbLine
 10
439.59313801081
 20
12.856631361155
 11
441.66368097737
 21
12.856631361155
  0
LINE
  5
1FB
100
AcDbEntity
  8
0
  6
CONTINUOUS
 62
     0
100
AcDbLine
 10
405.36307078573
 20
11.306468488825
 11
405.36307078573
 21
-11.306468488825
  0
LINE
  5
1FC
100
AcDbEntity
  8
0
  6
CONTINUOUS
 62
     0
100
AcDbLine
 10
439.59313801081
 20
-12.856631361155
 11
441.66368097737
 21
-12.856631361155
  0
LINE
  5
1FD
100
AcDbEntity
  8
0
  6
CONTINUOUS
 62
     0
100
AcDbLine
 10
398.11451106874
 20
-6.19865838897502
 11
390.20494835467
 21
-6.19865838897502
  0
LINE
  5
1FE
100
AcDbEntity
  8
0
  6
CONTINUOUS
 62
     0
100
AcDbLine
 10
390.20494835467
 20
6.19865838897501
 11
398.11451106874
 21
6.19865838897501
  0
LINE
  5
1FF
100
AcDbEntity
  8
0
  6
CONTINUOUS
 62
     0
100
AcDbLine
 10
390.20494835467
 20
6.19865838897501
 11
401.11339018783
 21
-4.65868817302501
  0
LINE
  5
200
100
AcDbEntity
  8
0
  6
CONTINUOUS
 62
     0
100
AcDbLine
 10
401.11339018783
 20
4.658688173025
 11
390.20494835467
 21
-6.19865838897502
  0
LINE
  5
201
100
AcDbEntity
  8
0
  6
CONTINUOUS
 62
     0
100
AcDbLine
 10
442.60580017261
 20
-13.764396421175
 11
442.60580017261
 21
-12.350338380315
  0
ELLIPSE
  5
202
100
AcDbEntity
  8
0
  6
CONTINUOUS
 62
     0
100
AcDbEllipse
 10
440.62840949409
 20
9.83171172940497
 30
0.0
 11
-1.68078207674
 21
0.0
 31
0.0
210
0.0
220
0.0
230
1.0
 40
0.994412670815507
 41
1.33327515618729
 42
1.80831749781245
  0
LINE
  5
203
100
AcDbEntity
  8
0
  6
CONTINUOUS
 62
     0
100
AcDbLine
 10
441.02388762979
 20
-8.9468576737649
 11
441.02388762979
 21
-8.2072463509048
  0
ELLIPSE
  5
204
100
AcDbEntity
  8
0
  6
CONTINUOUS
 62
     0
100
AcDbEllipse
 10
440.62840949409
 20
-9.83171172941499
 30
0.0
 11
-2.71891218296003
 21
0.0
 31
0.0
210
0.0
220
0.0
230
1.0
 40
0.994412670819122
 41
1.23152775008245E-016
 42
6.28318530717959
  0
LINE
  5
205
100
AcDbEntity
  8
0
  6
CONTINUOUS
 62
     0
100
AcDbLine
 10
387.73321000652
 20
14.747567594115
 11
387.73321000652
 21
-14.747567594115
  0
ELLIPSE
  5
206
100
AcDbEntity
  8
0
  6
CONTINUOUS
 62
     0
100
AcDbEllipse
 10
441.51823529942
 20
-8.9468576737649
 30
0.0
 11
-0.494347669629974
 21
0.0
 31
0.0
210
0.0
220
0.0
230
1.0
 40
0.994412670818923
 41
1.23152775008270E-016
 42
1.5707963267949
  0
LINE
  5
207
100
AcDbEntity
  8
0
  6
CONTINUOUS
 62
     0
100
AcDbLine
 10
442.26200229331
 20
-9.43844326023489
 11
441.51823529942
 21
-9.43844326023489
  0
LINE
  5
208
100
AcDbEntity
  8
0
  6
CONTINUOUS
 62
     0
100
AcDbLine
 10
370.33217203556
 20
15.2391531805852
 11
370.82651970518
 21
15.7307387670551
  0
LINE
  5
209
100
AcDbEntity
  8
0
  6
CONTINUOUS
 62
     0
100
AcDbLine
 10
441.51823529942
 20
-10.2249801985849
 11
442.26200229331
 21
-10.2249801985849
  0
ELLIPSE
  5
20A
100
AcDbEntity
  8
0
  6
CONTINUOUS
 62
     0
100
AcDbEllipse
 10
440.62840949409
 20
-9.83171172941499
 30
0.0
 11
-1.68078207674
 21
0.0
 31
0.0
210
0.0
220
0.0
230
1.0
 40
0.994412670821493
 41
1.23152775007951E-016
 42
3.37911382488426
  0
ELLIPSE
  5
20B
100
AcDbEntity
  8
0
  6
CONTINUOUS
 62
     0
100
AcDbEllipse
 10
441.51823529942
 20
-10.7165657850549
 30
0.0
 11
-0.494347669629974
 21
0.0
 31
0.0
210
0.0
220
0.0
230
1.0
 40
0.994412670819153
 41
4.71238898038469
 42
6.28318530717959
  0
ELLIPSE
  5
20C
100
AcDbEntity
  8
0
  6
CONTINUOUS
 62
     0
100
AcDbEllipse
 10
367.168346950565
 20
-1.05018216345343E-010
 30
0.0
 11
-1.28530394103495
 21
1.57404335725731E-016
 31
0.0
210
0.0
220
0.0
230
1.0
 40
0.99441267081994
 41
1.23152775008144E-016
 42
6.28318530717959
  0
LINE
  5
20D
100
AcDbEntity
  8
0
  6
CONTINUOUS
 62
     0
100
AcDbLine
 10
370.82651970518
 20
15.7307387670551
 11
370.82651970518
 21
-15.7307387670548
  0
LINE
  5
20E
100
AcDbEntity
  8
0
  6
CONTINUOUS
 62
     0
100
AcDbLine
 10
370.33217203556
 20
15.2391531805852
 11
370.33217203556
 21
-15.2391531805849
  0
LINE
  5
20F
100
AcDbEntity
  8
0
  6
CONTINUOUS
 62
     0
100
AcDbLine
 10
441.02388762979
 20
-11.456177107915
 11
441.02388762979
 21
-10.7165657850549
  0
ELLIPSE
  5
210
100
AcDbEntity
  8
0
  6
CONTINUOUS
 62
     0
100
AcDbEllipse
 10
440.62840949409
 20
-9.83171172941499
 30
0.0
 11
-1.68078207674
 21
0.0
 31
0.0
210
0.0
220
0.0
230
1.0
 40
0.994412670821493
 41
1.33327515618592
 42
1.80831749781382
  0
LINE
  5
211
100
AcDbEntity
  8
0
  6
CONTINUOUS
 62
     0
100
AcDbLine
 10
445.57188619039
 20
10.8148829023551
 11
445.57188619039
 21
-10.8148829023548
  0
LINE
  5
212
100
AcDbEntity
  8
0
  6
CONTINUOUS
 62
     0
100
AcDbLine
 10
435.68493279779
 20
11.417658358085
 11
435.68493279779
 21
-11.4176583583649
  0
LINE
  5
213
100
AcDbEntity
  8
0
  6
CONTINUOUS
 62
     0
100
AcDbLine
 10
390.20494835467
 20
-12.7812252482349
 11
390.20494835467
 21
12.7812252482352
  0
LINE
  5
214
100
AcDbEntity
  8
0
  6
CONTINUOUS
 62
     0
100
AcDbLine
 10
391.19364369456
 20
13.764396421175
 11
390.20494835467
 21
12.7812252482352
  0
LINE
  5
215
100
AcDbEntity
  8
0
  6
CONTINUOUS
 62
     0
100
AcDbLine
 10
442.60580017261
 20
-7.31308507806492
 11
442.60580017261
 21
7.3130850785051
  0
ELLIPSE
  5
216
100
AcDbEntity
  8
0
  6
CONTINUOUS
 62
     0
100
AcDbEllipse
 10
438.65101881603
 20
10.8148829023551
 30
0.0
 11
-2.96608601778001
 21
0.0
 31
0.0
210
0.0
220
0.0
230
1.0
 40
0.994412670819134
 41
4.71238898038469
 42
6.01528639560397
  0
LINE
  5
217
100
AcDbEntity
  8
0
  6
CONTINUOUS
 62
     0
100
AcDbLine
 10
442.60580017261
 20
12.350338380315
 11
442.60580017261
 21
13.764396421175
  0
ELLIPSE
  5
218
100
AcDbEntity
  8
0
  6
CONTINUOUS
 62
     0
100
AcDbEllipse
 10
398.11451106874
 20
1.9663423458851
 30
0.0
 11
-11.86434407111
 21
1.55431223447522E-015
 31
0.0
210
0.0
220
0.0
230
1.0
 40
0.994412670820841
 41
4.05512482766772
 42
4.71238898038469
  0
LINE
  5
219
100
AcDbEntity
  8
0
  6
CONTINUOUS
 62
     0
100
AcDbLine
 10
398.11451106874
 20
13.764396421175
 11
398.11451106874
 21
6.19865838897501
  0
ELLIPSE
  5
21A
100
AcDbEntity
  8
0
  6
CONTINUOUS
 62
     0
100
AcDbEllipse
 10
398.11451106874
 20
-1.9663423458849
 30
0.0
 11
-11.86434407111
 21
1.55431223447522E-015
 31
0.0
210
0.0
220
0.0
230
1.0
 40
0.994412670820859
 41
1.5707963267949
 42
2.22806048033104
  0
LINE
  5
21B
100
AcDbEntity
  8
0
  6
CONTINUOUS
 62
     0
100
AcDbLine
 10
398.11451106874
 20
-6.19865838897502
 11
398.11451106874
 21
-13.764396421175
  0
ELLIPSE
  5
21C
100
AcDbEntity
  8
0
  6
CONTINUOUS
 62
     0
100
AcDbEllipse
 10
435.409364362495
 20
11.6997369579951
 30
0.0
 11
-0.395478135704991
 21
0.0
 31
0.0
210
0.0
220
0.0
230
1.0
 40
0.994412670801746
 41
1.5707963267949
 42
2.8736937414566
  0
LINE
  5
21D
100
AcDbEntity
  8
0
  6
CONTINUOUS
 62
     0
100
AcDbLine
 10
438.65101881603
 20
13.764396421175
 11
438.65101881603
 21
12.350338380325
  0
LINE
  5
21E
100
AcDbEntity
  8
0
  6
CONTINUOUS
 62
     0
100
AcDbLine
 10
438.65101881603
 20
7.31308507849509
 11
438.65101881603
 21
-7.31308507806492
  0
LINE
  5
21F
100
AcDbEntity
  8
0
  6
CONTINUOUS
 62
     0
100
AcDbLine
 10
391.19364369456
 20
13.764396421175
 11
398.11451106874
 21
13.764396421175
  0
LINE
  5
220
100
AcDbEntity
  8
0
  6
CONTINUOUS
 62
     0
100
AcDbLine
 10
405.36307078573
 20
11.306468488825
 11
435.40936436249
 21
11.306468488825
  0
LINE
  5
221
100
AcDbEntity
  8
0
  6
CONTINUOUS
 62
     0
100
AcDbLine
 10
438.65101881603
 20
13.764396421175
 11
442.60580017261
 21
13.764396421175
  0
ELLIPSE
  5
222
100
AcDbEntity
  8
0
  6
CONTINUOUS
 62
     0
100
AcDbEllipse
 10
442.60580017261
 20
-10.8148829023548
 30
0.0
 11
-2.96608601777996
 21
0.0
 31
0.0
210
0.0
220
0.0
230
1.0
 40
0.994412670819239
 41
1.5707963267949
 42
3.14159265358979
  0
LINE
  5
223
100
AcDbEntity
  8
0
  6
CONTINUOUS
 62
     0
100
AcDbLine
 10
391.19364369456
 20
-13.764396421175
 11
390.20494835467
 21
-12.7812252482349
  0
LINE
  5
224
100
AcDbEntity
  8
0
  6
CONTINUOUS
 62
     0
100
AcDbLine
 10
438.65101881603
 20
-13.764396421175
 11
442.60580017261
 21
-13.764396421175
  0
LINE
  5
225
100
AcDbEntity
  8
0
  6
CONTINUOUS
 62
     0
100
AcDbLine
 10
391.19364369456
 20
-13.764396421175
 11
398.11451106874
 21
-13.764396421175
  0
LINE
  5
226
100
AcDbEntity
  8
0
  6
CONTINUOUS
 62
     0
100
AcDbLine
 10
405.36307078573
 20
-11.306468488825
 11
435.40936436249
 21
-11.306468488825
  0
LINE
  5
227
100
AcDbEntity
  8
0
  6
CONTINUOUS
 62
     0
100
AcDbLine
 10
440.23293135839
 20
-10.7165657850549
 11
440.23293135839
 21
-11.456177107915
  0
LINE
  5
228
100
AcDbEntity
  8
0
  6
CONTINUOUS
 62
     0
100
AcDbLine
 10
391.19364369456
 20
13.764396421175
 11
391.19364369456
 21
6.19865838897501
  0
LINE
  5
229
100
AcDbEntity
  8
0
  6
CONTINUOUS
 62
     0
100
AcDbLine
 10
438.99481669487
 20
-10.2249801985849
 11
439.73858368876
 21
-10.2249801985849
  0
LINE
  5
22A
100
AcDbEntity
  8
0
  6
CONTINUOUS
 62
     0
100
AcDbLine
 10
391.19364369456
 20
-6.19865838897502
 11
391.19364369456
 21
-13.764396421175
  0
ELLIPSE
  5
22B
100
AcDbEntity
  8
0
  6
CONTINUOUS
 62
     0
100
AcDbEllipse
 10
439.73858368876
 20
-10.7165657850549
 30
0.0
 11
-0.494347669629974
 21
0.0
 31
0.0
210
0.0
220
0.0
230
1.0
 40
0.99441267081921
 41
1.23152775008234E-016
 42
4.71238898038469
  0
ELLIPSE
  5
22C
100
AcDbEntity
  8
0
  6
CONTINUOUS
 62
     0
100
AcDbEllipse
 10
440.62840949409
 20
-9.83171172941499
 30
0.0
 11
-1.68078207674
 21
0.0
 31
0.0
210
0.0
220
0.0
230
1.0
 40
0.994412670821493
 41
6.04566413712249
 42
0.237521171700612
  0
LINE
  5
22D
100
AcDbEntity
  8
0
  6
CONTINUOUS
 62
     0
100
AcDbLine
 10
439.73858368876
 20
-9.43844326023489
 11
438.99481669487
 21
-9.43844326023489
  0
LINE
  5
22E
100
AcDbEntity
  8
0
  6
CONTINUOUS
 62
     0
100
AcDbLine
 10
440.23293135839
 20
-8.2072463509048
 11
440.23293135839
 21
-8.9468576737649
  0
ELLIPSE
  5
22F
100
AcDbEntity
  8
0
  6
CONTINUOUS
 62
     0
100
AcDbEllipse
 10
439.73858368876
 20
-8.9468576737649
 30
0.0
 11
-0.494347669629974
 21
0.0
 31
0.0
210
0.0
220
0.0
230
1.0
 40
0.99441267081898
 41
1.5707963267949
 42
3.14159265358979
  0
ELLIPSE
  5
230
100
AcDbEntity
  8
0
  6
CONTINUOUS
 62
     0
100
AcDbEllipse
 10
440.62840949409
 20
-9.83171172941499
 30
0.0
 11
-1.68078207674
 21
0.0
 31
0.0
210
0.0
220
0.0
230
1.0
 40
0.994412670815541
 41
4.47486781018848
 42
4.94991015181078
  0
LINE
  5
231
100
AcDbEntity
  8
0
  6
CONTINUOUS
 62
     0
100
AcDbLine
 10
387.73321000652
 20
-10.8148829023548
 11
390.20494835467
 21
-10.8148829023548
  0
LINE
  5
232
100
AcDbEntity
  8
0
  6
CONTINUOUS
 62
     0
100
AcDbLine
 10
450.80501061995
 20
5.15064191206507
 11
450.4
 21
5.1737288091651
  0
SPLINE
  5
233
100
AcDbEntity
  8
0
  6
CONTINUOUS
 62
     0
100
AcDbSpline
210
0.0
220
0.0
230
1.0
 70
     8
 71
     3
 72
    27
 73
    23
 74
     0
 42
1.00000000000000E-007
 43
1.00000000000000E-007
 40
0.0
 40
0.0
 40
0.0
 40
0.0
 40
1.38798215816357
 40
2.78316046272119
 40
4.20377799019119
 40
5.68854752495431
 40
7.27635816236512
 40
8.85118786305867
 40
10.2685612072611
 40
11.5432525534622
 40
12.9276965472299
 40
14.4703822511305
 40
16.021278561357
 40
17.4905672224834
 40
18.9306905089276
 40
20.3763410549157
 40
21.8340029661351
 40
23.2893399993303
 40
24.723882735155
 40
26.1425404085114
 40
27.5526664756353
 40
28.9591560497458
 40
28.9591560497458
 40
28.9591560497458
 40
28.9591560497458
 10
450.80501061819
 20
5.15064191306512
 30
0.0
 10
451.09371288517
 20
5.20151011276518
 30
0.0
 10
452.248521924177
 20
5.4049829320944
 30
0.0
 10
453.508383376896
 20
5.70030424156092
 30
0.0
 10
454.877790896056
 20
6.16261452808355
 30
0.0
 10
456.186068629957
 20
6.83214992091983
 30
0.0
 10
457.486372973201
 20
7.80373556222116
 30
0.0
 10
458.575119785852
 20
8.99484412404782
 30
0.0
 10
459.23215656536
 20
10.2900189848546
 30
0.0
 10
459.20166183608
 20
11.5819280944496
 30
0.0
 10
458.400774950954
 20
12.7626437259843
 30
0.0
 10
457.142996354054
 20
13.7353044863206
 30
0.0
 10
455.700066276819
 20
14.3867968838251
 30
0.0
 10
454.262050033678
 20
14.6670840423657
 30
0.0
 10
452.817942674989
 20
14.6503016843152
 30
0.0
 10
451.391782677364
 20
14.3890144448309
 30
0.0
 10
449.998899267236
 20
13.9419255434965
 30
0.0
 10
448.654420143975
 20
13.3647508245002
 30
0.0
 10
447.382971189607
 20
12.7190029220795
 30
0.0
 10
446.130614888102
 20
11.9981848131729
 30
0.0
 10
445.018008247508
 20
11.3094252749705
 30
0.0
 10
444.019387643
 20
10.665122634565
 30
0.0
 10
443.76973249876
 20
10.5040469692951
 30
0.0
  0
SPLINE
  5
234
100
AcDbEntity
  8
0
  6
CONTINUOUS
 62
     0
100
AcDbSpline
210
0.0
220
0.0
230
1.0
 70
     8
 71
     3
 72
    35
 73
    31
 74
     0
 42
1.00000000000000E-007
 43
1.00000000000000E-007
 40
0.0
 40
0.0
 40
0.0
 40
0.0
 40
1.30659860743156
 40
2.60308815142769
 40
3.88276558863075
 40
5.14605696922572
 40
6.40473935105569
 40
7.67835783850935
 40
8.98347320892681
 40
10.3317377282635
 40
11.694043334342
 40
13.0001667075589
 40
14.2396661987581
 40
15.5028968939449
 40
16.8375664068608
 40
18.1991118291536
 40
19.5199010556939
 40
20.811212289544
 40
22.1037105048331
 40
23.4009336099188
 40
24.6993076369482
 40
25.99835245406
 40
27.2961491370533
 40
28.5896543217045
 40
29.875311046574
 40
31.1552320729676
 40
32.4366914567563
 40
33.7231863580174
 40
35.0148674772102
 40
36.30968433834
 40
36.30968433834
 40
36.30968433834
 40
36.30968433834
 10
450.39999999908
 20
3.3315069569751
 30
0.0
 10
450.67197978923
 20
3.38127370373509
 30
0.0
 10
451.759898919755
 20
3.58034072558636
 30
0.0
 10
452.937032784864
 20
3.83424304935922
 30
0.0
 10
454.196328777032
 20
4.18023520394823
 30
0.0
 10
455.371843981326
 20
4.62636139134328
 30
0.0
 10
456.485504574444
 20
5.21555432286858
 30
0.0
 10
457.534112085368
 20
5.93802519552888
 30
0.0
 10
458.52482089553
 20
6.78571100259638
 30
0.0
 10
459.473894789719
 20
7.75107760950281
 30
0.0
 10
460.346215543222
 20
8.8223629582326
 30
0.0
 10
460.985270749219
 20
9.97743397317186
 30
0.0
 10
461.252889267922
 20
11.1962117430446
 30
0.0
 10
461.01113717756
 20
12.4567466031555
 30
0.0
 10
460.377755582585
 20
13.6571151204241
 30
0.0
 10
459.462375140335
 20
14.7019602285347
 30
0.0
 10
458.385461667644
 20
15.476932848981
 30
0.0
 10
457.201919661815
 20
15.9966597284385
 30
0.0
 10
455.944675749984
 20
16.3158262681516
 30
0.0
 10
454.655279137995
 20
16.4844119245117
 30
0.0
 10
453.355599611002
 20
16.5237132172182
 30
0.0
 10
452.057104203586
 20
16.4358443142583
 30
0.0
 10
450.773904371522
 20
16.2273835480304
 30
0.0
 10
449.518618255968
 20
15.9039372505946
 30
0.0
 10
448.30718517892
 20
15.4705452343612
 30
0.0
 10
447.142538859372
 20
14.9362295228986
 30
0.0
 10
446.021750812918
 20
14.3282450725464
 30
0.0
 10
444.903034880634
 20
13.6432993489804
 30
0.0
 10
443.900390981436
 20
12.9854477783027
 30
0.0
 10
442.99581882759
 20
12.3684165882951
 30
0.0
 10
442.76967579679
 20
12.2141587823251
 30
0.0
  0
ELLIPSE
  5
235
100
AcDbEntity
  8
0
  6
CONTINUOUS
 62
     0
100
AcDbEllipse
 10
442.60580017261
 20
10.8148829023551
 30
0.0
 11
-2.96608601777996
 21
0.0
 31
0.0
210
0.0
220
0.0
230
1.0
 40
0.994412670819143
 41
4.09613525646971
 42
4.71238898038469
  0
ELLIPSE
  5
236
100
AcDbEntity
  8
0
  6
CONTINUOUS
 62
     0
100
AcDbEllipse
 10
442.60580017261
 20
10.8148829023551
 30
0.0
 11
-2.96608601777996
 21
0.0
 31
0.0
210
0.0
220
0.0
230
1.0
 40
0.994412670819143
 41
1.23152775008242E-016
 42
3.43240422553222
  0
LINE
  5
237
100
AcDbEntity
  8
2
  6
CONTINUOUS
 62
     0
100
AcDbLine
 10
480.4000011628
 20
-7.0074189772649
 11
450.4
 21
-7.0074189772649
  0
LINE
  5
238
100
AcDbEntity
  8
2
  6
CONTINUOUS
 62
     0
100
AcDbLine
 10
480.4000011628
 20
6.99258102273508
 11
458.71471320652
 21
6.99258102273508
  0
LINE
  5
239
100
AcDbEntity
  8
2
  6
CONTINUOUS
 62
     0
100
AcDbLine
 10
456.355510386
 20
6.99258102273508
 11
450.4
 21
6.99258102273508
  0
ENDBLK
  5
23A
100
AcDbEntity
  8
2
100
AcDbBlockEnd
  0
BLOCK
  5
2EA
100
AcDbEntity
  8
7
100
AcDbBlockBegin
  2
SUB3
 70
    64
 10
0.0
 20
0.0
  0
CIRCLE
  5
2EB
100
AcDbEntity
  8
2
  6
CONTINUOUS
 62
     0
100
AcDbCircle
 10
0.0
 20
0.0
 40
2.75
  0
CIRCLE
  5
2EC
100
AcDbEntity
  8
2
  6
CONTINUOUS
 62
     0
100
AcDbCircle
 10
0.0
 20
0.0
 40
2.41
  0
LWPOLYLINE
  5
2ED
100
AcDbEntity
  8
2
  6
CONTINUOUS
 62
     0
100
AcDbPolyline
 90
        6
 70
     1
 43
0.0
 10
1.44337567297396
 20
0.0
 10
0.721687836487035
 20
1.25
 10
-0.721687836487035
 20
1.25
 10
-1.44337567297396
 20
0.0
 10
-0.721687836487035
 20
-1.25
 10
0.721687836487035
 20
-1.25
  0
ENDBLK
  5
2EE
100
AcDbEntity
  8
2
100
AcDbBlockEnd
  0
BLOCK
  5
2F1
100
AcDbEntity
  8
7
100
AcDbBlockBegin
  2
SUB4
 70
    64
 10
0.0
 20
0.0
  0
CIRCLE
  5
2F2
100
AcDbEntity
  8
2
  6
CONTINUOUS
 62
     0
100
AcDbCircle
 10
0.0
 20
0.0
 40
2.75
  0
CIRCLE
  5
2F3
100
AcDbEntity
  8
2
  6
CONTINUOUS
 62
     0
100
AcDbCircle
 10
0.0
 20
0.0
 40
2.41
  0
LWPOLYLINE
  5
2F4
100
AcDbEntity
  8
2
  6
CONTINUOUS
 62
     0
100
AcDbPolyline
 90
        6
 70
     1
 43
0.0
 10
1.44337567297396
 20
0.0
 10
0.721687836487035
 20
1.25
 10
-0.721687836487035
 20
1.25
 10
-1.44337567297396
 20
0.0
 10
-0.721687836487035
 20
-1.25
 10
0.721687836487035
 20
-1.25
  0
ENDBLK
  5
2F5
100
AcDbEntity
  8
2
100
AcDbBlockEnd
  0
BLOCK
  5
2F9
100
AcDbEntity
  8
7
100
AcDbBlockBegin
  2
SUB5
 70
    64
 10
0.0
 20
0.0
  0
CIRCLE
  5
2FA
100
AcDbEntity
  8
2
  6
CONTINUOUS
 62
     0
100
AcDbCircle
 10
0.0
 20
0.0
 40
2.75
  0
CIRCLE
  5
2FB
100
AcDbEntity
  8
2
  6
CONTINUOUS
 62
     0
100
AcDbCircle
 10
0.0
 20
0.0
 40
2.41
  0
LWPOLYLINE
  5
2FC
100
AcDbEntity
  8
2
  6
CONTINUOUS
 62
     0
100
AcDbPolyline
 90
        6
 70
     1
 43
0.0
 10
1.44337567297396
 20
0.0
 10
0.721687836486922
 20
1.25
 10
-0.721687836487035
 20
1.25
 10
-1.44337567297407
 20
0.0
 10
-0.721687836487035
 20
-1.25
 10
0.721687836486922
 20
-1.25
  0
ENDBLK
  5
2FD
100
AcDbEntity
  8
2
100
AcDbBlockEnd
  0
BLOCK
  5
306
100
AcDbEntity
  8
7
100
AcDbBlockBegin
  2
SUB6
 70
    64
 10
0.0
 20
0.0
  0
CIRCLE
  5
307
100
AcDbEntity
  8
2
  6
CONTINUOUS
 62
     0
100
AcDbCircle
 10
0.0
 20
0.0
 40
2.75
  0
CIRCLE
  5
308
100
AcDbEntity
  8
2
  6
CONTINUOUS
 62
     0
100
AcDbCircle
 10
0.0
 20
0.0
 40
2.41
  0
LWPOLYLINE
  5
309
100
AcDbEntity
  8
2
  6
CONTINUOUS
 62
     0
100
AcDbPolyline
 90
        6
 70
     1
 43
0.0
 10
1.44337567297396
 20
0.0
 10
0.721687836486922
 20
1.25
 10
-0.721687836487035
 20
1.25
 10
-1.44337567297407
 20
0.0
 10
-0.721687836487035
 20
-1.25
 10
0.721687836486922
 20
-1.25
  0
ENDBLK
  5
30A
100
AcDbEntity
  8
2
100
AcDbBlockEnd
  0
BLOCK
  5
311
100
AcDbEntity
  8
7
100
AcDbBlockBegin
  2
SUB7
 70
    64
 10
0.0
 20
0.0
  0
CIRCLE
  5
312
100
AcDbEntity
  8
2
  6
CONTINUOUS
 62
     0
100
AcDbCircle
 10
0.0
 20
0.0
 40
2.75
  0
CIRCLE
  5
313
100
AcDbEntity
  8
2
  6
CONTINUOUS
 62
     0
100
AcDbCircle
 10
0.0
 20
0.0
 40
2.41
  0
LWPOLYLINE
  5
314
100
AcDbEntity
  8
2
  6
CONTINUOUS
 62
     0
100
AcDbPolyline
 90
        6
 70
     1
 43
0.0
 10
1.44337567297396
 20
0.0
 10
0.721687836486922
 20
1.25
 10
-0.721687836487035
 20
1.25
 10
-1.44337567297407
 20
0.0
 10
-0.721687836487035
 20
-1.25
 10
0.721687836486922
 20
-1.25
  0
ENDBLK
  5
315
100
AcDbEntity
  8
2
100
AcDbBlockEnd
  0
BLOCK
  5
31A
100
AcDbEntity
  8
7
100
AcDbBlockBegin
  2
SUB8
 70
    64
 10
0.0
 20
0.0
  0
CIRCLE
  5
31B
100
AcDbEntity
  8
2
  6
CONTINUOUS
 62
     0
100
AcDbCircle
 10
0.0
 20
0.0
 40
2.75
  0
CIRCLE
  5
31C
100
AcDbEntity
  8
2
  6
CONTINUOUS
 62
     0
100
AcDbCircle
 10
0.0
 20
0.0
 40
2.41
  0
LWPOLYLINE
  5
31D
100
AcDbEntity
  8
2
  6
CONTINUOUS
 62
     0
100
AcDbPolyline
 90
        6
 70
     1
 43
0.0
 10
1.44337567297396
 20
0.0
 10
0.721687836486922
 20
1.25
 10
-0.721687836487035
 20
1.25
 10
-1.44337567297407
 20
0.0
 10
-0.721687836487035
 20
-1.25
 10
0.721687836486922
 20
-1.25
  0
ENDBLK
  5
31E
100
AcDbEntity
  8
2
100
AcDbBlockEnd
  0
BLOCK
  5
43A
100
AcDbEntity
  8
8
100
AcDbBlockBegin
  2
COMP1
 70
    64
 10
0.0
 20
0.0
  0
LINE
  5
43B
100
AcDbEntity
  8
8
  6
HIDDEN
 62
     7
100
AcDbLine
 10
402.2
 20
34.6999999993741
 11
417.4
 21
34.6999999993741
  0
LINE
  5
43C
100
AcDbEntity
  8
8
  6
HIDDEN
 62
     7
100
AcDbLine
 10
418.4
 20
33.6999999993741
 11
418.4
 21
8.299999999374
  0
ARC
  5
43D
100
AcDbEntity
  8
8
  6
HIDDEN
 62
     7
100
AcDbCircle
 10
417.4
 20
33.6999999993741
 40
1.0
100
AcDbArc
 50
0.0
 51
90.0
  0
LINE
  5
43E
100
AcDbEntity
  8
8
  6
HIDDEN
 62
     7
100
AcDbLine
 10
417.4
 20
7.299999999374
 11
408.5
 21
7.299999999374
  0
ARC
  5
43F
100
AcDbEntity
  8
8
  6
HIDDEN
 62
     7
100
AcDbCircle
 10
417.4
 20
8.299999999374
 40
1.0
100
AcDbArc
 50
270.0
 51
0.0
  0
LINE
  5
440
100
AcDbEntity
  8
8
  6
HIDDEN
 62
     7
100
AcDbLine
 10
403.7
 20
7.299999999374
 11
403.7
 21
9.099999999374
  0
LINE
  5
441
100
AcDbEntity
  8
8
  6
HIDDEN
 62
     7
100
AcDbLine
 10
408.5
 20
7.299999999374
 11
408.5
 21
9.099999999374
  0
LINE
  5
442
100
AcDbEntity
  8
8
  6
HIDDEN
 62
     7
100
AcDbLine
 10
403.7
 20
9.099999999374
 11
408.5
 21
9.099999999374
  0
LINE
  5
443
100
AcDbEntity
  8
8
  6
HIDDEN
 62
     7
100
AcDbLine
 10
403.7
 20
7.299999999374
 11
402.2
 21
7.299999999374
  0
LINE
  5
444
100
AcDbEntity
  8
8
  6
HIDDEN
 62
     7
100
AcDbLine
 10
417.4
 20
34.6999999993741
 11
417.4
 21
11.279167423528
  0
LINE
  5
445
100
AcDbEntity
  8
8
  6
HIDDEN
 62
     7
100
AcDbLine
 10
417.4
 20
7.30000000085
 11
417.4
 21
8.019173999236
  0
LINE
  5
446
100
AcDbEntity
  8
8
  6
HIDDEN
 62
     7
100
AcDbLine
 10
417.4
 20
11.279167423528
 11
418.4
 21
11.279167423528
  0
LINE
  5
447
100
AcDbEntity
  8
8
  6
HIDDEN
 62
     7
100
AcDbLine
 10
417.4
 20
8.019173999236
 11
418.3597586974
 21
8.019173999236
  0
ELLIPSE
  5
448
100
AcDbEntity
  8
8
  6
HIDDEN
 62
     7
100
AcDbEllipse
 10
406.2
 20
32.483788880502
 30
0.0
 11
2.5
 21
0.0
 31
0.0
210
0.0
220
0.0
230
1.0
 40
0.6948174784776
 41
0.0
 42
3.14159265358979
  0
ELLIPSE
  5
449
100
AcDbEntity
  8
8
  6
HIDDEN
 62
     7
100
AcDbEllipse
 10
417.4
 20
32.483788880502
 30
0.0
 11
0.0
 21
-21.204621456972
 31
0.0
210
0.0
220
0.0
230
1.0
 40
0.410287918492382
 41
4.71238898038469
 42
6.28318530717959
  0
ELLIPSE
  5
44A
100
AcDbEntity
  8
8
  6
HIDDEN
 62
     7
100
AcDbEllipse
 10
417.4
 20
32.483788880502
 30
0.0
 11
0.0
 21
-24.4646148812661
 31
0.0
210
0.0
220
0.0
230
1.0
 40
0.559992465301009
 41
4.71238898038469
 42
6.28318530717959
  0
ELLIPSE
  5
44B
100
AcDbEntity
  8
8
  6
HIDDEN
 62
     7
100
AcDbEllipse
 10
417.4
 20
33.8647417857495
 30
0.0
 11
0.0
 21
-24.4646148812665
 31
0.0
210
0.0
220
0.0
230
1.0
 40
0.559992465300999
 41
4.83381966578044
 42
6.28318530717959
  0
LINE
  5
44C
100
AcDbEntity
  8
8
  6
HIDDEN
 62
     7
100
AcDbLine
 10
417.4
 20
9.400126904483
 11
418.3597586974
 21
9.400126904483
  0
ELLIPSE
  5
44D
100
AcDbEntity
  8
8
  6
HIDDEN
 62
     7
100
AcDbEllipse
 10
406.2
 20
30.746745184308
 30
0.0
 11
2.5
 21
0.0
 31
0.0
210
0.0
220
0.0
230
1.0
 40
0.694817478477199
 41
0.0
 42
2.62867962644526
  0
ARC
  5
44E
100
AcDbEntity
  8
8
  6
HIDDEN
 62
     7
100
AcDbCircle
 10
404.79855522287
 20
30.9694597639201
 40
0.999999999999952
100
AcDbArc
 50
140.973249390752
 51
183.9093142693
  0
ENDBLK
  5
44F
100
AcDbEntity
  8
8
100
AcDbBlockEnd
  0
BLOCK
  5
452
100
AcDbEntity
  8
8
100
AcDbBlockBegin
  2
COMP2
 70
    64
 10
0.0
 20
0.0
  0
LINE
  5
453
100
AcDbEntity
  8
8
  6
HIDDEN
 62
     7
100
AcDbLine
 10
402.2
 20
139.699999999261
 11
417.4
 21
139.699999999262
  0
ARC
  5
454
100
AcDbEntity
  8
8
  6
HIDDEN
 62
     7
100
AcDbCircle
 10
417.4
 20
138.699999999262
 40
1.0
100
AcDbArc
 50
0.0
 51
90.0
  0
LINE
  5
455
100
AcDbEntity
  8
8
  6
HIDDEN
 62
     7
100
AcDbLine
 10
417.4
 20
112.299999999262
 11
408.5
 21
112.299999999262
  0
ARC
  5
456
100
AcDbEntity
  8
8
  6
HIDDEN
 62
     7
100
AcDbCircle
 10
417.4
 20
113.299999999262
 40
1.0
100
AcDbArc
 50
270.0
 51
0.0
  0
LINE
  5
457
100
AcDbEntity
  8
8
  6
HIDDEN
 62
     7
100
AcDbLine
 10
403.7
 20
112.299999999262
 11
403.7
 21
114.099999999262
  0
LINE
  5
458
100
AcDbEntity
  8
8
  6
HIDDEN
 62
     7
100
AcDbLine
 10
408.5
 20
112.299999999262
 11
408.5
 21
114.099999999262
  0
LINE
  5
459
100
AcDbEntity
  8
8
  6
HIDDEN
 62
     7
100
AcDbLine
 10
403.7
 20
114.099999999262
 11
408.5
 21
114.099999999262
  0
LINE
  5
45A
100
AcDbEntity
  8
8
  6
HIDDEN
 62
     7
100
AcDbLine
 10
403.7
 20
112.299999999262
 11
402.2
 21
112.299999999262
  0
LINE
  5
45B
100
AcDbEntity
  8
8
  6
HIDDEN
 62
     7
100
AcDbLine
 10
417.4
 20
139.699999999262
 11
417.4
 21
116.279167423416
  0
LINE
  5
45C
100
AcDbEntity
  8
8
  6
HIDDEN
 62
     7
100
AcDbLine
 10
417.4
 20
112.300000000738
 11
417.4
 21
113.019173999123
  0
LINE
  5
45D
100
AcDbEntity
  8
8
  6
HIDDEN
 62
     7
100
AcDbLine
 10
417.4
 20
116.279167423416
 11
418.4
 21
116.279167423416
  0
LINE
  5
45E
100
AcDbEntity
  8
8
  6
HIDDEN
 62
     7
100
AcDbLine
 10
417.4
 20
113.019173999123
 11
418.35975869739
 21
113.019173999123
  0
ELLIPSE
  5
45F
100
AcDbEntity
  8
8
  6
HIDDEN
 62
     7
100
AcDbEllipse
 10
406.2
 20
137.48378888039
 30
0.0
 11
2.5
 21
0.0
 31
0.0
210
0.0
220
0.0
230
1.0
 40
0.694817478477216
 41
0.0
 42
3.14159265358979
  0
ELLIPSE
  5
460
100
AcDbEntity
  8
8
  6
HIDDEN
 62
     7
100
AcDbEllipse
 10
417.4
 20
137.483788880389
 30
0.0
 11
0.0
 21
-21.2046214569725
 31
0.0
210
0.0
220
0.0
230
1.0
 40
0.410287918492372
 41
4.71238898038469
 42
6.28318530717959
  0
ELLIPSE
  5
461
100
AcDbEntity
  8
8
  6
HIDDEN
 62
     7
100
AcDbEllipse
 10
417.4
 20
137.483788880389
 30
0.0
 11
0.0
 21
-24.4646148812665
 31
0.0
210
0.0
220
0.0
230
1.0
 40
0.559992465300999
 41
4.71238898038469
 42
6.28318530717959
  0
ELLIPSE
  5
462
100
AcDbEntity
  8
8
  6
HIDDEN
 62
     7
100
AcDbEllipse
 10
417.4
 20
138.864741785637
 30
0.0
 11
0.0
 21
-24.464614881266
 31
0.0
210
0.0
220
0.0
230
1.0
 40
0.55999246530101
 41
4.83381966578046
 42
6.28318530717959
  0
LINE
  5
463
100
AcDbEntity
  8
8
  6
HIDDEN
 62
     7
100
AcDbLine
 10
417.4
 20
114.400126904371
 11
418.35975869739
 21
114.400126904371
  0
ELLIPSE
  5
464
100
AcDbEntity
  8
8
  6
HIDDEN
 62
     7
100
AcDbEllipse
 10
406.2
 20
135.746745184196
 30
0.0
 11
2.5
 21
0.0
 31
0.0
210
0.0
220
0.0
230
1.0
 40
0.69481747847758
 41
0.0
 42
2.62867962644599
  0
ARC
  5
465
100
AcDbEntity
  8
8
  6
HIDDEN
 62
     7
100
AcDbCircle
 10
404.79855522287
 20
135.969459763808
 40
0.99999999999997
100
AcDbArc
 50
140.973249390793
 51
183.909314269353
  0
LINE
  5
466
100
AcDbEntity
  8
8
  6
HIDDEN
 62
     7
100
AcDbLine
 10
418.4
 20
138.699999999262
 11
418.4
 21
113.299999999262
  0
ENDBLK
  5
467
100
AcDbEntity
  8
8
100
AcDbBlockEnd
  0
BLOCK
  5
46A
100
AcDbEntity
  8
8
100
AcDbBlockBegin
  2
COMP3
 70
    64
 10
0.0
 20
0.0
  0
LINE
  5
46B
100
AcDbEntity
  8
8
  6
HIDDEN
 62
     7
100
AcDbLine
 10
5.750000000157
 20
118.560026577051
 11
5.750000000157
 21
133.440026577051
  0
LINE
  5
46C
100
AcDbEntity
  8
8
  6
HIDDEN
 62
     7
100
AcDbLine
 10
5.750000000157
 20
118.560026577051
 11
10.249999999843
 21
118.560026577051
  0
LINE
  5
46D
100
AcDbEntity
  8
8
  6
HIDDEN
 62
     7
100
AcDbLine
 10
5.750000000157
 20
133.440026577051
 11
10.249999999843
 21
133.440026577051
  0
LINE
  5
46E
100
AcDbEntity
  8
8
  6
HIDDEN
 62
     7
100
AcDbLine
 10
5.750000000157
 20
133.440026577051
 11
5.250000000157
 21
133.940026577051
  0
LINE
  5
46F
100
AcDbEntity
  8
8
  6
HIDDEN
 62
     7
100
AcDbLine
 10
5.750000000157
 20
118.560026577051
 11
5.250000000157
 21
118.060026577051
  0
LINE
  5
470
100
AcDbEntity
  8
8
  6
HIDDEN
 62
     7
100
AcDbLine
 10
10.249999999843
 20
118.560026577051
 11
10.249999999843
 21
133.440026577051
  0
LINE
  5
471
100
AcDbEntity
  8
8
  6
HIDDEN
 62
     7
100
AcDbLine
 10
10.249999999843
 20
133.440026577051
 11
10.749999999843
 21
133.940026577051
  0
LINE
  5
472
100
AcDbEntity
  8
8
  6
HIDDEN
 62
     7
100
AcDbLine
 10
10.249999999843
 20
118.560026577051
 11
10.749999999843
 21
118.060026577051
  0
ENDBLK
  5
473
100
AcDbEntity
  8
8
100
AcDbBlockEnd
  0
ENDSEC
  0
SECTION
  2
ENTITIES
  0
INSERT
  5
25
100
AcDbEntity
  8
0
  6
HIDDEN
100
AcDbBlockReference
  2
SUB1
 10
40.0
 20
0.0
 41
1.0
 42
1.0
 50
0.0
  0
INSERT
  5
12E
100
AcDbEntity
  8
8
  6
HIDDEN
 62
     7
100
AcDbBlockReference
  2
SUB2
 10
40.0
 20
126.0
 41
1.0
 42
1.0
 50
0.0
  0
LINE
  5
23B
100
AcDbEntity
  8
6
  6
CENTER
100
AcDbLine
 10
64.25
 20
-118.745562118085
 11
8.25
 21
-118.745562118085
  0
LINE
  5
23C
100
AcDbEntity
  8
6
  6
CENTER
100
AcDbLine
 10
36.25
 20
-80.2455621180844
 11
36.25
 21
-157.245562118085
  0
LINE
  5
23D
100
AcDbEntity
  8
2
  6
CONTINUOUS
100
AcDbLine
 10
30.170900854945
 20
-110.805535541034
 11
42.329099145055
 21
-110.805535541034
  0
LINE
  5
23E
100
AcDbEntity
  8
2
  6
CONTINUOUS
100
AcDbLine
 10
30.170831429994
 20
-126.685535541034
 11
42.329168570006
 21
-126.685535541034
  0
CIRCLE
  5
23F
100
AcDbEntity
  8
2
  6
CONTINUOUS
100
AcDbCircle
 10
36.25
 20
-118.745562118085
 40
9.99997342294898
  0
ARC
  5
240
100
AcDbEntity
  8
2
  6
CONTINUOUS
100
AcDbCircle
 10
36.25
 20
-118.745562118085
 40
8.99997342294899
100
AcDbArc
 50
28.0884406116142
 51
61.9122781014993
  0
ARC
  5
241
100
AcDbEntity
  8
2
  6
CONTINUOUS
100
AcDbCircle
 10
36.25
 20
-118.745562118085
 40
8.99997342294899
100
AcDbArc
 50
118.087721898501
 51
151.912278101499
  0
ARC
  5
242
100
AcDbEntity
  8
2
  6
CONTINUOUS
100
AcDbCircle
 10
36.25
 20
-118.745562118085
 40
8.99997342294899
100
AcDbArc
 50
208.0877218985
 51
241.911559388386
  0
ARC
  5
243
100
AcDbEntity
  8
2
  6
CONTINUOUS
100
AcDbCircle
 10
36.25
 20
-118.745562118085
 40
8.99997342294899
100
AcDbArc
 50
298.088440611614
 51
331.911559388387
  0
LINE
  5
244
100
AcDbEntity
  8
2
  6
CONTINUOUS
100
AcDbLine
 10
44.189973422949
 20
-124.824730688091
 11
44.189973422949
 21
-112.666393548079
  0
LINE
  5
245
100
AcDbEntity
  8
2
  6
CONTINUOUS
100
AcDbLine
 10
28.309973422949
 20
-124.82466126314
 11
28.309973422949
 21
-112.66646297303
  0
CIRCLE
  5
246
100
AcDbEntity
  8
8
  6
CONTINUOUS
 62
     7
100
AcDbCircle
 10
36.2500839233398
 20
-148.245468139648
 40
4.0
  0
CIRCLE
  5
247
100
AcDbEntity
  8
2
  6
CONTINUOUS
100
AcDbCircle
 10
36.2500839233398
 20
-148.245468139648
 40
3.40000009536743
  0
CIRCLE
  5
248
100
AcDbEntity
  8
8
  6
CONTINUOUS
 62
     7
100
AcDbCircle
 10
36.2500839233398
 20
-89.24560546875
 40
4.0
  0
CIRCLE
  5
249
100
AcDbEntity
  8
2
  6
CONTINUOUS
100
AcDbCircle
 10
36.2500839233398
 20
-89.24560546875
 40
3.40000009536743
  0
CIRCLE
  5
24A
100
AcDbEntity
  8
2
  6
CONTINUOUS
100
AcDbCircle
 10
36.25
 20
-118.745562118085
 40
22.0
  0
CIRCLE
  5
24B
100
AcDbEntity
  8
8
  6
CONTINUOUS
 62
     7
100
AcDbCircle
 10
36.25
 20
-118.745562118085
 40
23.0
  0
CIRCLE
  5
24C
100
AcDbEntity
  8
2
  6
CONTINUOUS
100
AcDbCircle
 10
36.25
 20
-118.745562118085
 40
21.5
  0
LINE
  5
24D
100
AcDbEntity
  8
6
  6
CENTER
100
AcDbLine
 10
29.25
 20
-89.2455621180843
 11
43.25
 21
-89.2455621180843
  0
LINE
  5
24E
100
AcDbEntity
  8
6
  6
CENTER
100
AcDbLine
 10
29.25
 20
-148.245562118085
 11
43.25
 21
-148.245562118085
  0
LINE
  5
24F
100
AcDbEntity
  8
7
  6
HIDDEN
 62
    40
100
AcDbLine
 10
28.809973422949
 20
-116.495535541034
 11
43.689973422949
 21
-116.495535541034
  0
LINE
  5
250
100
AcDbEntity
  8
7
  6
HIDDEN
 62
    40
100
AcDbLine
 10
28.809973422949
 20
-120.995535541034
 11
43.689973422949
 21
-120.995535541034
  0
LINE
  5
251
100
AcDbEntity
  8
7
  6
HIDDEN
 62
    40
100
AcDbLine
 10
43.689973422949
 20
-120.995535541034
 11
43.689973422949
 21
-116.495535541034
  0
LINE
  5
252
100
AcDbEntity
  8
7
  6
HIDDEN
 62
    40
100
AcDbLine
 10
28.809973422949
 20
-120.995535541034
 11
28.809973422949
 21
-116.495535541034
  0
LINE
  5
253
100
AcDbEntity
  8
7
  6
HIDDEN
 62
    40
100
AcDbLine
 10
43.689973422949
 20
-116.495535541034
 11
44.189973422949
 21
-115.995535541034
  0
LINE
  5
254
100
AcDbEntity
  8
7
  6
HIDDEN
 62
    40
100
AcDbLine
 10
43.689973422949
 20
-120.995535541034
 11
44.189973422949
 21
-121.495535541034
  0
LINE
  5
255
100
AcDbEntity
  8
7
  6
HIDDEN
 62
    40
100
AcDbLine
 10
28.809973422949
 20
-120.995535541034
 11
28.309973422949
 21
-121.495535541034
  0
LINE
  5
256
100
AcDbEntity
  8
7
  6
HIDDEN
 62
    40
100
AcDbLine
 10
28.809973422949
 20
-116.495535541034
 11
28.309973422949
 21
-115.995535541034
  0
LINE
  5
257
100
AcDbEntity
  8
2
  6
CONTINUOUS
100
AcDbLine
 10
10.75
 20
-92.6304324036833
 11
10.75
 21
-127.525916256971
  0
LINE
  5
258
100
AcDbEntity
  8
2
  6
CONTINUOUS
100
AcDbLine
 10
61.75
 20
-92.6304324036833
 11
61.75
 21
-127.525916256971
  0
LINE
  5
259
100
AcDbEntity
  8
2
  6
CONTINUOUS
100
AcDbLine
 10
40.266194928682
 20
-155.023932785672
 11
61.75
 21
-127.525916256971
  0
LINE
  5
25A
100
AcDbEntity
  8
2
  6
CONTINUOUS
100
AcDbLine
 10
32.233805071318
 20
-155.023932785672
 11
10.75
 21
-127.525916256971
  0
ARC
  5
25B
100
AcDbEntity
  8
2
  6
CONTINUOUS
100
AcDbCircle
 10
36.25
 20
-118.745562118085
 40
36.5
100
AcDbArc
 50
45.6827972387924
 51
51.3358911407609
  0
ARC
  5
25C
100
AcDbEntity
  8
2
  6
CONTINUOUS
100
AcDbCircle
 10
36.25
 20
-118.745562118085
 40
36.5
100
AcDbArc
 50
83.6827972387919
 51
96.3172027612081
  0
ARC
  5
25D
100
AcDbEntity
  8
2
  6
CONTINUOUS
100
AcDbCircle
 10
36.25
 20
-118.745562118085
 40
36.5
100
AcDbArc
 50
128.664108859239
 51
134.317202761208
  0
ARC
  5
25E
100
AcDbEntity
  8
2
  6
CONTINUOUS
100
AcDbCircle
 10
36.25
 20
-118.745562118085
 40
36.5
100
AcDbArc
 50
263.682797238792
 51
276.317202761208
  0
LINE
  5
25F
100
AcDbEntity
  8
6
  6
CENTER
100
AcDbLine
 10
60.35896051858
 20
-95.2455621180843
 11
51.910409767134
 21
-95.2455621180843
  0
LINE
  5
260
100
AcDbEntity
  8
6
  6
CENTER
100
AcDbLine
 10
20.167997658134
 20
-95.2455621180843
 11
11.840140488852
 21
-95.2455621180843
  0
LINE
  5
261
100
AcDbEntity
  8
6
  6
CENTER
100
AcDbLine
 10
56.25
 20
-91.1309319248553
 11
56.25
 21
-99.5191358852204
  0
LINE
  5
262
100
AcDbEntity
  8
6
  6
CENTER
100
AcDbLine
 10
16.25
 20
-91.1309319248553
 11
16.25
 21
-99.5191358852204
  0
CIRCLE
  5
263
100
AcDbEntity
  8
7
  6
CENTER2
 62
    40
100
AcDbCircle
 10
36.25
 20
-118.745562118085
 40
16.5
  0
CIRCLE
  5
264
100
AcDbEntity
  8
2
  6
CONTINUOUS
100
AcDbCircle
 10
36.25
 20
-102.245562118085
 40
1.75
  0
CIRCLE
  5
265
100
AcDbEntity
  8
2
  6
CONTINUOUS
100
AcDbCircle
 10
52.75
 20
-118.745562118085
 40
1.75
  0
CIRCLE
  5
266
100
AcDbEntity
  8
2
  6
CONTINUOUS
100
AcDbCircle
 10
36.25
 20
-135.245562118085
 40
1.75
  0
CIRCLE
  5
267
100
AcDbEntity
  8
2
  6
CONTINUOUS
100
AcDbCircle
 10
19.75
 20
-118.745562118085
 40
1.75
  0
ARC
  5
268
100
AcDbEntity
  8
4
  6
CONTINUOUS
 62
     2
100
AcDbCircle
 10
36.25
 20
-118.745562118085
 40
36.5000000000001
100
AcDbArc
 50
63.29671164898
 51
83.7769160364044
  0
ARC
  5
269
100
AcDbEntity
  8
4
  6
CONTINUOUS
 62
     2
100
AcDbCircle
 10
36.25
 20
-118.745562118085
 40
36.4999999999998
100
AcDbArc
 50
243.452995891806
 51
265.292674205701
  0
DIMENSION
  5
279
100
AcDbEntity
  8
4
  6
CONTINUOUS
 62
     2
100
AcDbDimension
  2
*D1
 10
61.75
 20
-58.8628334887954
 11
36.25
 21
-58.8628334887954
 70
    32
  3
ISO-25
100
AcDbAlignedDimension
 13
10.75
 23
-92.6304324036833
 14
61.75
 24
-92.6304324036833
 50
0.0
100
AcDbRotatedDimension
  0
DIMENSION
  5
289
100
AcDbEntity
  8
4
  6
CONTINUOUS
 62
     2
100
AcDbDimension
  2
*D2
 10
71.779407767035
 20
-148.245562118085
 11
71.779407767035
 21
-118.745562118085
 70
    32
  3
ISO-25
100
AcDbAlignedDimension
 13
43.25
 23
-89.2455621180843
 14
43.25
 24
-148.245562118085
 50
270.0
100
AcDbRotatedDimension
  0
DIMENSION
  5
294
100
AcDbEntity
  8
4
  6
CONTINUOUS
 62
     2
100
AcDbDimension
  2
*D3
 10
36.25
 20
-89.2455621180843
 11
16.820574664258
 21
-70.6267025830975
 70
    36
  3
ISO-25
100
AcDbRadialDimension
 15
33.494061655819
 25
-86.3464581456344
  0
LINE
  5
295
100
AcDbEntity
  8
2
  6
CONTINUOUS
100
AcDbLine
 10
40.266194928682
 20
-82.4671914504974
 11
61.75
 21
-109.965207979199
  0
LINE
  5
296
100
AcDbEntity
  8
2
  6
CONTINUOUS
100
AcDbLine
 10
32.233805071318
 20
-82.4671914504974
 11
10.75
 21
-109.965207979199
  0
LINE
  5
297
100
AcDbEntity
  8
2
  6
CONTINUOUS
100
AcDbLine
 10
13.446491498017
 20
-90.2455621180843
 11
26.156675871091
 21
-90.2455621180843
  0
LINE
  5
298
100
AcDbEntity
  8
2
  6
CONTINUOUS
100
AcDbLine
 10
46.343324128909
 20
-90.2455621180843
 11
59.053508501983
 21
-90.2455621180843
  0
CIRCLE
  5
299
100
AcDbEntity
  8
8
  6
CONTINUOUS
 62
     7
100
AcDbCircle
 10
56.2500839233398
 20
-95.2456130981445
 40
3.0
  0
CIRCLE
  5
29A
100
AcDbEntity
  8
2
  6
CONTINUOUS
100
AcDbCircle
 10
56.2500839233398
 20
-95.2456130981445
 40
2.5
  0
CIRCLE
  5
29B
100
AcDbEntity
  8
8
  6
CONTINUOUS
 62
     7
100
AcDbCircle
 10
16.2500858306885
 20
-95.2456130981445
 40
3.0
  0
CIRCLE
  5
29C
100
AcDbEntity
  8
2
  6
CONTINUOUS
100
AcDbCircle
 10
16.2500858306885
 20
-95.2456130981445
 40
2.5
  0
DIMENSION
  5
2AD
100
AcDbEntity
  8
4
  6
CONTINUOUS
 62
     2
100
AcDbDimension
  2
*D4
 10
28.309973422949
 20
-162.834319512864
 11
57.31214861134
 21
-162.834319512864
 70
    32
  3
ISO-25
100
AcDbAlignedDimension
 13
44.189973422949
 23
-124.824730688091
 14
28.309973422949
 24
-124.82466126314
 50
180.0
100
AcDbRotatedDimension
1001
ACAD
1000
DSTYLE
1002
{
1070
   280
1070
     1
1002
}
  0
DIMENSION
  5
2BD
100
AcDbEntity
  8
4
  6
CONTINUOUS
 62
     2
100
AcDbDimension
  2
*D5
 10
36.25
 20
-170.894676177063
 11
36.25
 21
-170.894676177062
 70
    37
  3
ISO-25
100
AcDb3PointAngularDimension
 13
36.25
 23
-160.164427877895
 14
36.25
 24
-160.164427877895
 15
36.25
 25
-160.164427877895
  0
LINE
  5
2BE
100
AcDbEntity
  8
4
  6
CONTINUOUS
 62
     2
100
AcDbLine
 10
32.233805071318
 20
-155.023932785672
 11
36.865661475326
 21
-160.952438631502
  0
LINE
  5
2BF
100
AcDbEntity
  8
4
  6
CONTINUOUS
 62
     2
100
AcDbLine
 10
40.266194928682
 20
-155.023932785672
 11
35.634338524674
 21
-160.952438631502
  0
DIMENSION
  5
2CE
100
AcDbEntity
  8
4
  6
CONTINUOUS
 62
     2
100
AcDbDimension
  2
*D6
 10
23.973721509567
 20
-153.119141891296
 11
14.749999999999
 21
-167.745562118084
 70
    35
  3
ISO-25
100
AcDbDiametricDimension
 15
48.526278490432
 25
-84.3719823448734
1001
ACAD
1000
DSTYLE
1002
{
1070
   280
1070
     1
1002
}
  0
CIRCLE
  5
2CF
100
AcDbEntity
  8
2
  6
CONTINUOUS
100
AcDbCircle
 10
36.25
 20
-118.745562118085
 40
24.0
  0
LINE
  5
2D0
100
AcDbEntity
  8
6
  6
CENTER
100
AcDbLine
 10
446.4
 20
-118.745562118085
 11
390.4
 21
-118.745562118085
  0
LINE
  5
2D1
100
AcDbEntity
  8
6
  6
CENTER
100
AcDbLine
 10
418.4
 20
-75.2455621180854
 11
418.4
 21
-159.958109307611
  0
LINE
  5
2D2
100
AcDbEntity
  8
6
  6
CENTER
100
AcDbLine
 10
411.4
 20
-148.245562118085
 11
425.4
 21
-148.245562118085
  0
LINE
  5
2D3
100
AcDbEntity
  8
2
  6
CONTINUOUS
100
AcDbLine
 10
392.9
 20
-92.6304324036844
 11
392.9
 21
-127.525916256971
  0
LINE
  5
2D4
100
AcDbEntity
  8
2
  6
CONTINUOUS
100
AcDbLine
 10
443.9
 20
-92.6304324036844
 11
443.9
 21
-127.525916256971
  0
ARC
  5
2D5
100
AcDbEntity
  8
2
  6
CONTINUOUS
100
AcDbCircle
 10
418.4
 20
-118.745562118085
 40
36.5
100
AcDbArc
 50
45.6827972387912
 51
51.3358911407597
  0
ARC
  5
2D6
100
AcDbEntity
  8
2
  6
CONTINUOUS
100
AcDbCircle
 10
418.4
 20
-118.745562118085
 40
36.5
100
AcDbArc
 50
128.66410885924
 51
134.317202761209
  0
ARC
  5
2D7
100
AcDbEntity
  8
2
  6
CONTINUOUS
100
AcDbCircle
 10
418.4
 20
-118.745562118085
 40
36.5
100
AcDbArc
 50
263.682797238792
 51
276.317202761208
  0
LINE
  5
2D8
100
AcDbEntity
  8
6
  6
CENTER
100
AcDbLine
 10
442.50896051858
 20
-95.2455621180854
 11
434.060409767134
 21
-95.2455621180854
  0
LINE
  5
2D9
100
AcDbEntity
  8
6
  6
CENTER
100
AcDbLine
 10
402.317997658134
 20
-95.2455621180854
 11
393.990140488852
 21
-95.2455621180854
  0
LINE
  5
2DA
100
AcDbEntity
  8
6
  6
CENTER
100
AcDbLine
 10
438.4
 20
-91.1309319248564
 11
438.4
 21
-99.5191358852204
  0
LINE
  5
2DB
100
AcDbEntity
  8
6
  6
CENTER
100
AcDbLine
 10
398.4
 20
-91.1309319248564
 11
398.4
 21
-99.5191358852204
  0
LINE
  5
2DC
100
AcDbEntity
  8
2
  6
CONTINUOUS
100
AcDbLine
 10
395.596491498017
 20
-90.2455621180854
 11
400.4
 21
-90.2455621180854
  0
LINE
  5
2DD
100
AcDbEntity
  8
2
  6
CONTINUOUS
100
AcDbLine
 10
436.4
 20
-90.2455621180854
 11
441.203508501983
 21
-90.2455621180854
  0
ARC
  5
2DE
100
AcDbEntity
  8
2
  6
CONTINUOUS
100
AcDbCircle
 10
418.4
 20
-118.745562118085
 40
24.5
100
AcDbArc
 50
0.0
 51
34.7227629268101
  0
ARC
  5
2DF
100
AcDbEntity
  8
2
  6
CONTINUOUS
100
AcDbCircle
 10
418.4
 20
-118.745562118085
 40
24.5
100
AcDbArc
 50
145.27723707319
 51
218.000000000002
  0
ARC
  5
2E0
100
AcDbEntity
  8
2
  6
CONTINUOUS
100
AcDbCircle
 10
418.4
 20
-118.745562118085
 40
24.5
100
AcDbArc
 50
322.0
 51
0.0
  0
ARC
  5
2E1
100
AcDbEntity
  8
2
  6
CONTINUOUS
100
AcDbCircle
 10
418.4
 20
-118.745562118085
 40
28.0000000000005
100
AcDbArc
 50
246.955024371862
 51
293.044975628138
  0
LINE
  5
2E2
100
AcDbEntity
  8
2
  6
CONTINUOUS
100
AcDbLine
 10
435.4
 20
-78.7455621180854
 11
401.4
 21
-78.7455621180854
  0
LINE
  5
2E3
100
AcDbEntity
  8
2
  6
CONTINUOUS
100
AcDbLine
 10
429.360700220432
 20
-144.511102102294
 11
437.706263463365
 21
-133.829268263564
  0
LINE
  5
2E4
100
AcDbEntity
  8
2
  6
CONTINUOUS
100
AcDbLine
 10
407.439299779568
 20
-144.511102102294
 11
399.093736536636
 21
-133.829268263564
  0
LINE
  5
2E5
100
AcDbEntity
  8
7
  6
CENTER2
 62
    40
100
AcDbLine
 10
432.589666801417
 20
-141.245562118085
 11
403.517930753562
 21
-141.245562118085
  0
LINE
  5
2E6
100
AcDbEntity
  8
7
  6
CENTER2
 62
    40
100
AcDbLine
 10
426.4
 20
-135.269284522891
 11
426.4
 21
-147.199666768945
  0
LINE
  5
2E7
100
AcDbEntity
  8
7
  6
CENTER2
 62
    40
100
AcDbLine
 10
410.4
 20
-135.269284522891
 11
410.4
 21
-147.199666768945
  0
INSERT
  5
2E9
100
AcDbEntity
  8
7
  6
CENTER2
 62
    40
100
AcDbBlockReference
  2
SUB3
 10
426.4
 20
-141.245562118085
 41
1.0
 42
1.0
 50
0.0
  0
INSERT
  5
2F0
100
AcDbEntity
  8
7
  6
CENTER2
 62
    40
100
AcDbBlockReference
  2
SUB4
 10
410.4
 20
-141.245562118085
 41
1.0
 42
1.0
 50
0.0
  0
LINE
  5
2F6
100
AcDbEntity
  8
7
  6
CENTER2
 62
    40
100
AcDbLine
 10
446.4
 20
-97.7455621180854
 11
390.4
 21
-97.7455621180854
  0
INSERT
  5
2F8
100
AcDbEntity
  8
7
  6
CENTER2
 62
    40
100
AcDbBlockReference
  2
SUB5
 10
430.699998287199
 20
-110.045560405284
 41
1.0
 42
1.0
 50
0.0
  0
ARC
  5
2FE
100
AcDbEntity
  8
2
  6
CONTINUOUS
100
AcDbCircle
 10
432.670000000738
 20
-112.015562118823
 40
2.0
100
AcDbArc
 50
270.0
 51
0.0
  0
LINE
  5
2FF
100
AcDbEntity
  8
7
  6
CENTER2
 62
    40
100
AcDbLine
 10
430.699998287199
 20
-78.0481030668804
 11
430.699998287199
 21
-117.279611934653
  0
LINE
  5
300
100
AcDbEntity
  8
7
  6
CENTER2
 62
    40
100
AcDbLine
 10
438.4
 20
-110.045560405284
 11
398.4
 21
-110.045560405284
  0
LINE
  5
301
100
AcDbEntity
  8
2
  6
CONTINUOUS
100
AcDbLine
 10
434.670000000738
 20
-83.4755621188234
 11
434.670000000738
 21
-112.015562118823
  0
LINE
  5
302
100
AcDbEntity
  8
2
  6
CONTINUOUS
100
AcDbLine
 10
404.129999999262
 20
-114.015562118823
 11
432.670000000738
 21
-114.015562118823
  0
CIRCLE
  5
303
100
AcDbEntity
  8
2
  6
CONTINUOUS
100
AcDbCircle
 10
418.4
 20
-97.7455621180854
 40
13.7
  0
INSERT
  5
305
100
AcDbEntity
  8
7
  6
CENTER2
 62
    40
100
AcDbBlockReference
  2
SUB6
 10
406.100001712801
 20
-110.045560405284
 41
1.0
 42
1.0
 50
0.0
  0
LINE
  5
30B
100
AcDbEntity
  8
7
  6
CENTER2
 62
    40
100
AcDbLine
 10
406.100001712801
 20
-78.0481030668804
 11
406.100001712801
 21
-117.279611934653
  0
ARC
  5
30C
100
AcDbEntity
  8
2
  6
CONTINUOUS
100
AcDbCircle
 10
404.129999999262
 20
-112.015562118823
 40
2.0
100
AcDbArc
 50
180.0
 51
270.0
  0
LINE
  5
30D
100
AcDbEntity
  8
2
  6
CONTINUOUS
100
AcDbLine
 10
402.129999999262
 20
-83.4755621188234
 11
402.129999999262
 21
-112.015562118823
  0
ARC
  5
30E
100
AcDbEntity
  8
2
  6
CONTINUOUS
100
AcDbCircle
 10
404.129999999262
 20
-83.4755621188234
 40
2.0
100
AcDbArc
 50
90.0
 51
180.0
  0
INSERT
  5
310
100
AcDbEntity
  8
7
  6
CENTER2
 62
    40
100
AcDbBlockReference
  2
SUB7
 10
406.100001712801
 20
-85.4455638308864
 41
1.0
 42
1.0
 50
0.0
  0
LINE
  5
316
100
AcDbEntity
  8
7
  6
CENTER2
 62
    40
100
AcDbLine
 10
438.4
 20
-85.4455638308864
 11
398.4
 21
-85.4455638308864
  0
LINE
  5
317
100
AcDbEntity
  8
2
  6
CONTINUOUS
100
AcDbLine
 10
404.129999999262
 20
-81.4755621188234
 11
432.670000000738
 21
-81.4755621188234
  0
INSERT
  5
319
100
AcDbEntity
  8
7
  6
CENTER2
 62
    40
100
AcDbBlockReference
  2
SUB8
 10
430.699998287199
 20
-85.4455638308864
 41
1.0
 42
1.0
 50
0.0
  0
ARC
  5
31F
100
AcDbEntity
  8
2
  6
CONTINUOUS
100
AcDbCircle
 10
432.670000000738
 20
-83.4755621188234
 40
2.0
100
AcDbArc
 50
0.0
 51
90.0
  0
LINE
  5
320
100
AcDbEntity
  8
2
  6
CONTINUOUS
100
AcDbLine
 10
436.4
 20
-79.7455621180854
 11
436.4
 21
-97.9549392317934
  0
LINE
  5
321
100
AcDbEntity
  8
2
  6
CONTINUOUS
100
AcDbLine
 10
400.4
 20
-79.7455621180854
 11
400.4
 21
-97.9549392317934
  0
ARC
  5
322
100
AcDbEntity
  8
2
  6
CONTINUOUS
100
AcDbCircle
 10
388.4
 20
-97.9549392317934
 40
12.0
100
AcDbArc
 50
325.27723707319
 51
0.0
  0
ARC
  5
323
100
AcDbEntity
  8
2
  6
CONTINUOUS
100
AcDbCircle
 10
448.4
 20
-97.9549392317934
 40
12.0
100
AcDbArc
 50
180.0
 51
214.722762926811
  0
LINE
  5
324
100
AcDbEntity
  8
2
  6
CONTINUOUS
100
AcDbLine
 10
436.4
 20
-79.7455621180854
 11
435.4
 21
-78.7455621180854
  0
LINE
  5
325
100
AcDbEntity
  8
2
  6
CONTINUOUS
100
AcDbLine
 10
401.4
 20
-78.7455621180854
 11
400.4
 21
-79.7455621180854
  0
LINE
  5
326
100
AcDbEntity
  8
2
  6
CONTINUOUS
100
AcDbLine
 10
25.75
 20
-79.7455621180854
 11
46.75
 21
-79.7455621180854
  0
LINE
  5
327
100
AcDbEntity
  8
2
  6
CONTINUOUS
100
AcDbLine
 10
47.75
 20
-80.7455621180854
 11
47.75
 21
-90.2455621180854
  0
LINE
  5
328
100
AcDbEntity
  8
2
  6
CONTINUOUS
100
AcDbLine
 10
47.75
 20
-80.7455621180854
 11
46.75
 21
-79.7455621180854
  0
LINE
  5
329
100
AcDbEntity
  8
2
  6
CONTINUOUS
100
AcDbLine
 10
39.25
 20
-79.7455621180854
 11
39.25
 21
-82.3690587127278
  0
LINE
  5
32A
100
AcDbEntity
  8
2
  6
CONTINUOUS
100
AcDbLine
 10
47.75
 20
-80.7455621180854
 11
39.25
 21
-80.7455621180854
  0
LINE
  5
32B
100
AcDbEntity
  8
2
  6
CONTINUOUS
100
AcDbLine
 10
33.25
 20
-80.7455621180854
 11
24.75
 21
-80.7455621180854
  0
LINE
  5
32C
100
AcDbEntity
  8
2
  6
CONTINUOUS
100
AcDbLine
 10
38.75
 20
-79.2455621180854
 11
38.75
 21
-79.7455621180854
  0
ARC
  5
32D
100
AcDbEntity
  8
2
  6
CONTINUOUS
100
AcDbCircle
 10
37.25
 20
-79.2455621180854
 40
1.5
100
AcDbArc
 50
0.0
 51
90.0
  0
LINE
  5
32E
100
AcDbEntity
  8
2
  6
CONTINUOUS
100
AcDbLine
 10
35.25
 20
-77.7455621180854
 11
37.25
 21
-77.7455621180854
  0
LINE
  5
32F
100
AcDbEntity
  8
2
  6
CONTINUOUS
100
AcDbLine
 10
24.75
 20
-80.7455621180854
 11
24.75
 21
-90.2455621180854
  0
LINE
  5
330
100
AcDbEntity
  8
2
  6
CONTINUOUS
100
AcDbLine
 10
25.75
 20
-79.7455621180854
 11
24.75
 21
-80.7455621180854
  0
LINE
  5
331
100
AcDbEntity
  8
2
  6
CONTINUOUS
100
AcDbLine
 10
33.25
 20
-79.7455621180854
 11
33.25
 21
-82.3690587127278
  0
ARC
  5
332
100
AcDbEntity
  8
2
  6
CONTINUOUS
100
AcDbCircle
 10
35.25
 20
-79.2455621180854
 40
1.5
100
AcDbArc
 50
90.0
 51
180.0
  0
LINE
  5
333
100
AcDbEntity
  8
2
  6
CONTINUOUS
100
AcDbLine
 10
33.75
 20
-79.2455621180854
 11
33.75
 21
-79.7455621180854
  0
DIMENSION
  5
343
100
AcDbEntity
  8
4
  6
CONTINUOUS
 62
     2
100
AcDbDimension
  2
*D7
 10
47.75
 20
-66.5064663493214
 11
36.25
 21
-66.5064663493214
 70
    32
  3
ISO-25
100
AcDbAlignedDimension
 13
24.75
 23
-80.7455621180854
 14
47.75
 24
-80.7455621180854
 50
0.0
100
AcDbRotatedDimension
  0
LINE
  5
344
100
AcDbEntity
  8
2
  6
CONTINUOUS
100
AcDbLine
 10
39.0
 20
-80.7455621180854
 11
39.0
 21
-82.3493054424327
  0
LINE
  5
345
100
AcDbEntity
  8
2
  6
CONTINUOUS
100
AcDbLine
 10
33.5
 20
-80.7455621180854
 11
33.5
 21
-82.3493054424327
  0
LINE
  5
346
100
AcDbEntity
  8
2
  6
CONTINUOUS
100
AcDbLine
 10
33.846410161513
 20
-80.5455621180854
 11
38.653589838486
 21
-80.5455621180854
  0
LINE
  5
347
100
AcDbEntity
  8
2
  6
CONTINUOUS
100
AcDbLine
 10
33.5
 20
-80.7455621180854
 11
39.0
 21
-80.7455621180854
  0
LINE
  5
348
100
AcDbEntity
  8
2
  6
CONTINUOUS
100
AcDbLine
 10
39.0
 20
-80.7455621180854
 11
38.653589838486
 21
-80.5455621180854
  0
LINE
  5
349
100
AcDbEntity
  8
2
  6
CONTINUOUS
100
AcDbLine
 10
33.5
 20
-80.7455621180854
 11
33.846410161513
 21
-80.5455621180854
  0
DIMENSION
  5
359
100
AcDbEntity
  8
4
  6
CONTINUOUS
 62
     2
100
AcDbDimension
  2
*D8
 10
-3.59467973613897
 20
-79.7455621180854
 11
-3.59467973613897
 21
-99.2455621180854
 70
    32
  3
ISO-25
100
AcDbAlignedDimension
 13
8.25
 23
-118.745562118085
 14
25.75
 24
-79.7455621180854
 50
90.0
100
AcDbRotatedDimension
  0
LINE
  5
35A
100
AcDbEntity
  8
2
  6
CONTINUOUS
100
AcDbLine
 10
18.25
 20
-79.7455621180854
 11
18.25
 21
-90.2455621180843
  0
LINE
  5
35B
100
AcDbEntity
  8
2
  6
CONTINUOUS
100
AcDbLine
 10
53.25
 20
-78.7455621180854
 11
38.664213562373
 21
-78.7455621180854
  0
LINE
  5
35C
100
AcDbEntity
  8
2
  6
CONTINUOUS
100
AcDbLine
 10
33.835786437627
 20
-78.7455621180854
 11
19.25
 21
-78.7455621180854
  0
LINE
  5
35D
100
AcDbEntity
  8
2
  6
CONTINUOUS
100
AcDbLine
 10
19.25
 20
-78.7455621180854
 11
18.25
 21
-79.7455621180854
  0
LINE
  5
35E
100
AcDbEntity
  8
2
  6
CONTINUOUS
100
AcDbLine
 10
54.25
 20
-79.7455621180854
 11
54.25
 21
-90.2455621180843
  0
LINE
  5
35F
100
AcDbEntity
  8
2
  6
CONTINUOUS
100
AcDbLine
 10
54.25
 20
-79.7455621180854
 11
53.25
 21
-78.7455621180854
  0
CIRCLE
  5
360
100
AcDbEntity
  8
2
  6
CONTINUOUS
100
AcDbCircle
 10
418.4
 20
-97.7455621180854
 40
11.7
  0
ARC
  5
361
100
AcDbEntity
  8
2
  6
CONTINUOUS
100
AcDbCircle
 10
438.4
 20
-95.2455621180854
 40
5.0
100
AcDbArc
 50
0.0
 51
113.578178478201
  0
ARC
  5
362
100
AcDbEntity
  8
2
  6
CONTINUOUS
100
AcDbCircle
 10
438.4
 20
-95.2455621180854
 40
5.00000000000001
100
AcDbArc
 50
248.378867106374
 51
0.0
  0
ARC
  5
363
100
AcDbEntity
  8
2
  6
CONTINUOUS
100
AcDbCircle
 10
438.4
 20
-95.2455621180854
 40
4.41999999999999
100
AcDbArc
 50
0.0
 51
116.903468036141
  0
ARC
  5
364
100
AcDbEntity
  8
2
  6
CONTINUOUS
100
AcDbCircle
 10
438.4
 20
-95.2455621180854
 40
4.41999999999999
100
AcDbArc
 50
244.065097957965
 51
0.0
  0
LWPOLYLINE
  5
365
100
AcDbEntity
  8
2
  6
CONTINUOUS
100
AcDbPolyline
 90
        4
 70
     0
 43
0.0
 10
441.286751345948
 20
-95.2455621180854
 10
439.843375672974
 20
-92.7455621180854
 10
436.956624327026
 20
-92.7455621180854
 10
436.4
 20
-93.7096637332234
  0
LWPOLYLINE
  5
366
100
AcDbEntity
  8
2
  6
CONTINUOUS
100
AcDbPolyline
 90
        4
 70
     0
 43
0.0
 10
436.44941446772
 20
-96.8670488716673
 10
436.956624327026
 20
-97.7455621180854
 10
439.843375672974
 20
-97.7455621180854
 10
441.286751345948
 20
-95.2455621180854
  0
ARC
  5
367
100
AcDbEntity
  8
2
  6
CONTINUOUS
100
AcDbCircle
 10
398.4
 20
-95.2455621180854
 40
5.0
100
AcDbArc
 50
66.4218215217989
 51
291.621132893617
  0
ARC
  5
368
100
AcDbEntity
  8
2
  6
CONTINUOUS
100
AcDbCircle
 10
398.4
 20
-95.2455621180854
 40
4.41999999999999
100
AcDbArc
 50
63.0965319638587
 51
295.934902042035
  0
LWPOLYLINE
  5
369
100
AcDbEntity
  8
2
  6
CONTINUOUS
100
AcDbPolyline
 90
        7
 70
     0
 43
0.0
 10
400.4
 20
-93.7096637332234
 10
399.843375672974
 20
-92.7455621180854
 10
396.956624327026
 20
-92.7455621180854
 10
395.513248654052
 20
-95.2455621180854
 10
396.956624327026
 20
-97.7455621180854
 10
399.843375672974
 20
-97.7455621180854
 10
400.4
 20
-96.7814605029473
  0
ARC
  5
36A
100
AcDbEntity
  8
2
  6
CONTINUOUS
100
AcDbCircle
 10
418.4
 20
-148.245562118085
 40
6.5
100
AcDbArc
 50
0.0
 51
19.5768985256271
  0
ARC
  5
36B
100
AcDbEntity
  8
2
  6
CONTINUOUS
100
AcDbCircle
 10
418.4
 20
-148.245562118085
 40
6.49999999999999
100
AcDbArc
 50
160.423101474373
 51
0.0
  0
ARC
  5
36C
100
AcDbEntity
  8
2
  6
CONTINUOUS
100
AcDbCircle
 10
418.4
 20
-148.245562118085
 40
5.65000000000001
100
AcDbArc
 50
0.0
 51
20.7627898678483
  0
ARC
  5
36D
100
AcDbEntity
  8
2
  6
CONTINUOUS
100
AcDbCircle
 10
418.4
 20
-148.245562118085
 40
5.64999999999998
100
AcDbArc
 50
159.237210132152
 51
0.0
  0
LWPOLYLINE
  5
36E
100
AcDbEntity
  8
2
  6
CONTINUOUS
100
AcDbPolyline
 90
        2
 70
     0
 43
0.0
 10
421.864101615138
 20
-148.245562118085
 10
420.931851760399
 20
-146.630858004329
  0
LWPOLYLINE
  5
36F
100
AcDbEntity
  8
2
  6
CONTINUOUS
100
AcDbPolyline
 90
        5
 70
     0
 43
0.0
 10
415.868148239601
 20
-146.630858004329
 10
414.935898384862
 20
-148.245562118085
 10
416.667949192431
 20
-151.245562118085
 10
420.132050807569
 20
-151.245562118085
 10
421.864101615138
 20
-148.245562118085
  0
DIMENSION
  5
37F
100
AcDbEntity
  8
4
  6
CONTINUOUS
 62
     2
100
AcDbDimension
  2
*D9
 10
400.4
 20
-68.1983344485035
 11
418.4
 21
-68.1983344485035
 70
    32
  3
ISO-25
100
AcDbAlignedDimension
 13
436.4
 23
-79.7455621180854
 14
400.4
 24
-79.7455621180854
 50
180.0
100
AcDbRotatedDimension
  0
DIMENSION
  5
38F
100
AcDbEntity
  8
4
  6
CONTINUOUS
 62
     2
100
AcDbDimension
  2
*D10
 10
377.897872031865
 20
-118.745562118085
 11
377.897872031865
 21
-98.7455621180854
 70
    32
  3
ISO-25
100
AcDbAlignedDimension
 13
401.4
 23
-78.7455621180854
 14
390.4
 24
-118.745562118085
 50
270.0
100
AcDbRotatedDimension
  0
DIMENSION
  5
39F
100
AcDbEntity
  8
4
  6
CONTINUOUS
 62
     2
100
AcDbDimension
  2
*D11
 10
385.858589427107
 20
-118.745562118085
 11
385.858589427107
 21
-108.245562118085
 70
    32
  3
ISO-25
100
AcDbAlignedDimension
 13
390.4
 23
-97.7455621180854
 14
390.4
 24
-118.745562118085
 50
270.0
100
AcDbRotatedDimension
  0
DIMENSION
  5
3AF
100
AcDbEntity
  8
4
  6
CONTINUOUS
 62
     2
100
AcDbDimension
  2
*D12
 10
3.429495123989
 20
-118.745562118085
 11
3.429495123989
 21
-104.495562118085
 70
    32
  3
ISO-25
100
AcDbAlignedDimension
 13
13.446491498017
 23
-90.2455621180843
 14
8.25
 24
-118.745562118085
 50
270.0
100
AcDbRotatedDimension
  0
MTEXT
  5
3B0
100
AcDbEntity
  8
4
  6
CONTINUOUS
 62
     2
100
AcDbMText
 10
44.765614999217
 20
-127.935429243749
 40
3.5
 41
0.0
 11
-0.766044443118978
 21
-0.642787609686539
 71
     7
 72
     5
  7
STANDARD
  1
{\T1.60714;\W0.666667;F}
  0
MTEXT
  5
3B1
100
AcDbEntity
  8
4
  6
CONTINUOUS
 62
     2
100
AcDbMText
 10
46.051611687924
 20
-126.410948100167
 40
3.5
 41
0.0
 11
-0.642787609686539
 21
-0.766044443118978
 71
     7
 72
     5
  7
STANDARD
  1
{\T1.60714;\W0.666667;F}
  0
MTEXT
  5
3B2
100
AcDbEntity
  8
4
  6
CONTINUOUS
 62
     2
100
AcDbMText
 10
47.12902652077
 20
-124.244935709262
 40
3.5
 41
0.0
 11
-0.5
 21
-0.866025403784438
 71
     7
 72
     5
  7
STANDARD
  1
{\T1.60714;\W0.666667;O}
  0
MTEXT
  5
3B3
100
AcDbEntity
  8
4
  6
CONTINUOUS
 62
     2
100
AcDbMText
 10
43.378136204965
 20
-128.844217803458
 40
3.5
 41
0.0
 11
-0.866025403784439
 21
-0.5
 71
     7
 72
     5
  7
BIGFONT
  1
{\T1.25;\W1.05263;→}
  0
LINE
  5
3B4
100
AcDbEntity
  8
2
  6
CONTINUOUS
100
AcDbLine
 10
414.383805071318
 20
-155.023932785672
 11
392.899999999999
 21
-127.525916256971
  0
LINE
  5
3B5
100
AcDbEntity
  8
2
  6
CONTINUOUS
100
AcDbLine
 10
422.416194928682
 20
-155.023932785672
 11
443.9
 21
-127.525916256971
  0
DIMENSION
  5
3C4
100
AcDbEntity
  8
4
  6
CONTINUOUS
 62
     2
100
AcDbDimension
  2
*D13
 10
20.0
 20
42.0
 11
10.0
 21
42.0
 70
    32
  3
ISO-25
100
AcDbAlignedDimension
 13
0.0
 23
8.900026577051
 14
20.0
 24
10.000026577051
 50
0.0
100
AcDbRotatedDimension
1001
ACAD
1000
DSTYLE
1002
{
1070
    75
1070
     1
1002
}
  0
DIMENSION
  5
3D2
100
AcDbEntity
  8
4
  6
CONTINUOUS
 62
     2
100
AcDbDimension
  2
*D14
 10
0.0
 20
56.0
 11
18.125
 21
56.0
 70
    32
  3
ISO-25
100
AcDbAlignedDimension
 13
36.25
 23
21.5
 14
0.0
 24
8.900026577051
 50
180.0
100
AcDbRotatedDimension
1001
ACAD
1000
DSTYLE
1002
{
1070
    75
1070
     1
1070
    76
1070
     1
1002
}
  0
DIMENSION
  5
3E3
100
AcDbEntity
  8
4
  6
CONTINUOUS
 62
     2
100
AcDbDimension
  2
*D15
 10
0.0
 20
28.0
 11
4.0
 21
28.0
 70
    32
  3
ISO-25
100
AcDbAlignedDimension
 13
8.0
 23
3.500026577051
 14
0.0
 24
7.940026577051
 50
180.0
100
AcDbRotatedDimension
1001
ACAD
1000
DSTYLE
1002
{
1070
    76
1070
     1
1002
}
  0
DIMENSION
  5
3F5
100
AcDbEntity
  8
4
  6
CONTINUOUS
 62
     2
100
AcDbDimension
  2
*D16
 10
40.0
 20
56.0
 11
39.4213693839146
 21
61.1074998761927
 70
    32
  3
ISO-25
100
AcDbAlignedDimension
 13
36.25
 23
21.5
 14
40.0
 24
36.5
 50
0.0
100
AcDbRotatedDimension
  0
DIMENSION
  5
405
100
AcDbEntity
  8
4
  6
CONTINUOUS
 62
     2
100
AcDbDimension
  2
*D17
 10
0.0
 20
70.0
 11
209.2
 21
70.0
 70
    32
  1
418.4
  3
ISO-25
100
AcDbAlignedDimension
 13
418.4
 23
33.6999999993741
 14
0.0
 24
8.940026577051
 50
180.0
100
AcDbRotatedDimension
  0
DIMENSION
  5
414
100
AcDbEntity
  8
4
  6
CONTINUOUS
 62
     2
100
AcDbDimension
  2
*D18
 10
29.0
 20
10.000026577051
 11
29.0
 21
-42.0
 70
    32
  3
ISO-25
100
AcDbAlignedDimension
 13
31.0
 23
-9.999973422949
 14
31.0
 24
10.000026577051
 50
90.0
100
AcDbRotatedDimension
1001
ACAD
1000
DSTYLE
1002
{
1070
    75
1070
     1
1070
    76
1070
     1
1070
   280
1070
     1
1002
}
  0
DIMENSION
  5
426
100
AcDbEntity
  8
4
  6
CONTINUOUS
 62
     2
100
AcDbDimension
  2
*D19
 10
-5.17703485647598
 20
-22.0
 11
-6.17703485647598
 21
-4.875
 70
    32
  3
ISO-25
100
AcDbAlignedDimension
 13
36.75
 23
22.0
 14
36.75
 24
-22.0
 50
270.0
100
AcDbRotatedDimension
1001
ACAD
1000
DSTYLE
1002
{
1070
    47
1040
-0.05
1070
    48
1040
0.1
1070
    71
1070
     1
1070
   146
1040
0.714285714285714
1070
   272
1070
     2
1002
}
  0
LINE
  5
427
100
AcDbEntity
  8
2
  6
CONTINUOUS
100
AcDbLine
 10
36.25
 20
-21.5
 11
36.75
 21
-22.0
  0
DIMENSION
  5
437
100
AcDbEntity
  8
4
  6
CONTINUOUS
 62
     2
100
AcDbDimension
  2
*D20
 10
8.81613327475799
 20
-2.096739141343
 11
20.561140990464
 21
-18.622792028478
 70
    35
  3
ISO-25
100
AcDbDiametricDimension
 15
7.18386672524201
 25
2.096792295446
1001
ACAD
1000
DSTYLE
1002
{
1070
   280
1070
     1
1002
}
  0
INSERT
  5
439
100
AcDbEntity
  8
8
  6
HIDDEN
 62
     7
100
AcDbBlockReference
  2
COMP1
 10
0.0
 20
0.0
 41
1.0
 42
1.0
 50
0.0
  0
INSERT
  5
451
100
AcDbEntity
  8
8
  6
HIDDEN
 62
     7
100
AcDbBlockReference
  2
COMP2
 10
0.0
 20
0.0
 41
1.0
 42
1.0
 50
0.0
  0
INSERT
  5
469
100
AcDbEntity
  8
8
  6
HIDDEN
 62
     7
100
AcDbBlockReference
  2
COMP3
 10
0.0
 20
0.0
 41
1.0
 42
1.0
 50
0.0
  0
DIMENSION
  5
483
100
AcDbEntity
  8
4
  6
CONTINUOUS
 62
     2
100
AcDbDimension
  2
*D21
 10
418.4
 20
69.6735333555189
 11
454.4
 21
69.6735333555189
 70
    32
  3
ISO-25
100
AcDbAlignedDimension
 13
490.4
 23
31.596421787152
 14
418.4
 24
34.1999999993741
 50
180.0
100
AcDbRotatedDimension
1001
ACAD
1000
DSTYLE
1002
{
1070
     3
1000
(<>)
1002
}
  0
DIMENSION
  5
493
100
AcDbEntity
  8
4
  6
CONTINUOUS
 62
     2
100
AcDbDimension
  2
*D22
 10
40.0
 20
56.0
 11
229.2
 21
56.0
 70
    32
  3
ISO-25
100
AcDbAlignedDimension
 13
418.4
 23
34.6999999993741
 14
40.0
 24
36.5
 50
180.0
100
AcDbRotatedDimension
  0
LINE
  5
494
100
AcDbEntity
  8
4
  6
CONTINUOUS
 62
     2
100
AcDbLine
 10
38.125
 20
56.0
 11
39.6254655483767
 21
60.2679684905395
  0
LINE
  5
495
100
AcDbEntity
  8
2
  6
CONTINUOUS
100
AcDbLine
 10
112.632068404322
 20
-108.517575668144
 11
312.632068404322
 21
-108.517575668144
  0
LINE
  5
496
100
AcDbEntity
  8
2
  6
CONTINUOUS
100
AcDbLine
 10
312.632068404322
 20
-118.517575668144
 11
312.632068404322
 21
-96.0175756681441
  0
LINE
  5
497
100
AcDbEntity
  8
2
  6
CONTINUOUS
100
AcDbLine
 10
112.632068404322
 20
-96.0175756681441
 11
312.632068404322
 21
-96.0175756681441
  0
LINE
  5
498
100
AcDbEntity
  8
2
  6
CONTINUOUS
100
AcDbLine
 10
112.632068404322
 20
-118.517575668144
 11
312.632068404322
 21
-118.517575668144
  0
MTEXT
  5
499
100
AcDbEntity
  8
4
  6
CONTINUOUS
 62
     2
100
AcDbMText
 10
292.632068404322
 20
-102.267575668144
 40
3.5
 41
0.0
 11
1.0
 21
0.0
 71
     5
 72
     5
  7
BIGFONT
  1
{\T1.38889;\W0.676692;備　　　　　考}
  0
LINE
  5
49A
100
AcDbEntity
  8
2
  6
CONTINUOUS
100
AcDbLine
 10
242.632068404322
 20
-118.517575668144
 11
242.632068404322
 21
-96.0175756681441
  0
LINE
  5
49B
100
AcDbEntity
  8
2
  6
CONTINUOUS
100
AcDbLine
 10
212.632068404322
 20
-118.517575668144
 11
212.632068404322
 21
-96.0175756681441
  0
LINE
  5
49C
100
AcDbEntity
  8
2
  6
CONTINUOUS
100
AcDbLine
 10
182.632068404322
 20
-118.517575668144
 11
182.632068404322
 21
-96.0175756681441
  0
LINE
  5
49D
100
AcDbEntity
  8
2
  6
CONTINUOUS
100
AcDbLine
 10
152.632068404322
 20
-118.517575668144
 11
152.632068404322
 21
-96.0175756681441
  0
LINE
  5
49E
100
AcDbEntity
  8
2
  6
CONTINUOUS
100
AcDbLine
 10
152.632068404322
 20
-103.517575668144
 11
272.632068404322
 21
-103.517575668144
  0
MTEXT
  5
49F
100
AcDbEntity
  8
4
  6
CONTINUOUS
 62
     2
100
AcDbMText
 10
132.632068404322
 20
-102.267575668144
 40
3.5
 41
0.0
 11
1.0
 21
0.0
 71
     5
 72
     5
  7
BIGFONT
  1
{\T1.375;\W0.701754;型　　　　式}
  0
MTEXT
  5
4A0
100
AcDbEntity
  8
4
  6
CONTINUOUS
 62
     2
100
AcDbMText
 10
167.632068404322
 20
-99.7675756681441
 40
2.5
 41
0.0
 11
1.0
 21
0.0
 71
     5
 72
     5
  7
BIGFONT
  1
{\T1.25;\W1.05263;フルスケールトルク}
  0
MTEXT
  5
4A1
100
AcDbEntity
  8
4
  6
CONTINUOUS
 62
     2
100
AcDbMText
 10
167.632068404322
 20
-106.017575668144
 40
2.5
 41
0.0
 11
1.0
 21
0.0
 71
     5
 72
     5
  7
BIGFONT
  1
{\T1.35714;\W0.736842;約　Ｎ・ｍ}
  0
MTEXT
  5
4A2
100
AcDbEntity
  8
4
  6
CONTINUOUS
 62
     2
100
AcDbMText
 10
197.632068404322
 20
-106.017575668144
 40
2.5
 41
0.0
 11
1.0
 21
0.0
 71
     5
 72
     5
  7
BIGFONT
  1
{\T1.42857;\W0.614035;約　　ｒｐｍ}
  0
MTEXT
  5
4A3
100
AcDbEntity
  8
4
  6
CONTINUOUS
 62
     2
100
AcDbMText
 10
197.632074507838
 20
-99.767569564629
 40
3.3
 41
0.0
 11
1.0
 21
0.0
 71
     5
 72
     5
  7
BIGFONT
  1
{\T1.34615;\W0.760234;回転速度（ＭＡＸ）}
  0
MTEXT
  5
4A4
100
AcDbEntity
  8
4
  6
CONTINUOUS
 62
     2
100
AcDbMText
 10
227.632068404322
 20
-99.7675756681441
 40
3.5
 41
0.0
 11
1.0
 21
0.0
 71
     5
 72
     5
  7
BIGFONT
  1
{\T1.375;\W0.701754;全　　　　長}
  0
MTEXT
  5
4A5
100
AcDbEntity
  8
4
  6
CONTINUOUS
 62
     2
100
AcDbMText
 10
227.632068404322
 20
-106.017575668144
 40
2.5
 41
0.0
 11
1.0
 21
0.0
 71
     5
 72
     5
  7
BIGFONT
  1
{\T1.4;\W0.657895;約　ｍｍ}
  0
MTEXT
  5
4A6
100
AcDbEntity
  8
4
  6
CONTINUOUS
 62
     2
100
AcDbMText
 10
257.632068404322
 20
-99.7675756681441
 40
3.5
 41
0.0
 11
1.0
 21
0.0
 71
     5
 72
     5
  7
BIGFONT
  1
{\T1.375;\W0.701754;質　　　　量}
  0
MTEXT
  5
4A7
100
AcDbEntity
  8
4
  6
CONTINUOUS
 62
     2
100
AcDbMText
 10
257.632068404322
 20
-106.017575668144
 40
2.5
 41
0.0
 11
1.0
 21
0.0
 71
     5
 72
     5
  7
BIGFONT
  1
{\T1.4;\W0.657895;約　ｋｇ}
  0
LINE
  5
4A8
100
AcDbEntity
  8
2
  6
CONTINUOUS
100
AcDbLine
 10
272.632068404322
 20
-118.517575668144
 11
272.632068404322
 21
-96.0175756681441
  0
LINE
  5
4A9
100
AcDbEntity
  8
2
  6
CONTINUOUS
100
AcDbLine
 10
112.632068404322
 20
-118.517575668144
 11
112.632068404322
 21
-96.0175756681441
  0
MTEXT
  5
4AA
100
AcDbEntity
  8
4
  6
CONTINUOUS
 62
     2
100
AcDbMText
 10
132.632068404322
 20
-113.517575668144
 40
3.5
 41
0.0
 11
1.0
 21
0.0
 71
     5
 72
     5
  7
STANDARD
  1
{\T1.60714;\W0.666667;UNR-G640-1300NT}
  0
MTEXT
  5
4AB
100
AcDbEntity
  8
4
  6
CONTINUOUS
 62
     2
100
AcDbMText
 10
167.632068404322
 20
-113.517575668144
 40
3.5
 41
0.0
 11
1.0
 21
0.0
 71
     5
 72
     5
  7
STANDARD
  1
{\T1.60714;\W0.666667;130}
  0
MTEXT
  5
4AC
100
AcDbEntity
  8
4
  6
CONTINUOUS
 62
     2
100
AcDbMText
 10
197.632068404322
 20
-113.517575668144
 40
3.5
 41
0.0
 11
1.0
 21
0.0
 71
     5
 72
     5
  7
STANDARD
  1
{\T1.60714;\W0.666667;560}
  0
MTEXT
  5
4AD
100
AcDbEntity
  8
4
  6
CONTINUOUS
 62
     2
100
AcDbMText
 10
227.632068404322
 20
-113.517575668144
 40
3.5
 41
0.0
 11
1.0
 21
0.0
 71
     5
 72
     5
  7
STANDARD
  1
{\T1.60714;\W0.666667;419}
  0
MTEXT
  5
4AE
100
AcDbEntity
  8
4
  6
CONTINUOUS
 62
     2
100
AcDbMText
 10
257.632068404322
 20
-113.517575668144
 40
3.5
 41
0.0
 11
1.0
 21
0.0
 71
     5
 72
     5
  7
STANDARD
  1
{\T1.60714;\W0.666667;4.0}
  0
ENDSEC
  0
SECTION
  2
OBJECTS
  0
DICTIONARY
  5
C
100
AcDbDictionary
  3
ACAD_GROUP
350
D
  3
ACAD_MLINESTYLE
350
E
  3
ACDBVARIABLEDICTIONARY
350
4AF
  0
DICTIONARY
  5
D
102
{ACAD_REACTORS
330
C
102
}
100
AcDbDictionary
  0
DICTIONARY
  5
E
102
{ACAD_REACTORS
330
C
102
}
100
AcDbDictionary
  3
STANDARD
350
13
  0
DICTIONARY
  5
4AF
102
{ACAD_REACTORS
330
C
102
}
330
C
100
AcDbDictionary
  3
SORTENTS
350
4B0
  0
MLINESTYLE
  5
13
102
{ACAD_REACTORS
330
E
102
}
100
AcDbMlineStyle
  2
STANDARD
 70
     0
  3

 62
   256
 51
90.0
 52
90.0
 71
     2
 49
0.5
 62
   256
  6
BYLAYER
 49
-0.5
 62
   256
  6
BYLAYER
  0
DICTIONARYVAR
  5
4B0
102
{ACAD_REACTORS
330
4AF
102
}
100
DictionaryVariables
280
     0
  1
96
  0
ENDSEC
  0
EOF
