  0
SECTION
  2
HEADER
  9
$ACADVER
  1
AC1014
  9
$ACADMAINTVER
 70
     0
  9
$DWGCODEPAGE
  3
ANSI_932
  9
$INSBASE
 10
0.0
 20
0.0
 30
0.0
  9
$EXTMIN
 10
-77.9055092479971
 20
-79.7720135500586
  9
$EXTMAX
 10
477.14359211829
 20
106.5
  9
$LIMMIN
 10
-77.9055092479971
 20
-79.7720135500586
  9
$LIMMAX
 10
477.14359211829
 20
106.5
  9
$ORTHOMODE
 70
     0
  9
$REGENMODE
 70
     1
  9
$FILLMODE
 70
     1
  9
$QTEXTMODE
 70
     0
  9
$MIRRTEXT
 70
     1
  9
$DRAGMODE
 70
     2
  9
$LTSCALE
 40
1.0
  9
$OSMODE
 70
     0
  9
$ATTMODE
 70
     1
  9
$TEXTSIZE
 40
3.0
  9
$TRACEWID
 40
0.5
  9
$TEXTSTYLE
  7
STANDARD
  9
$CLAYER
  8
0
  9
$CELTYPE
  6
BYLAYER
  9
$CECOLOR
 62
   256
  9
$CELTSCALE
 40
1.0
  9
$DELOBJ
 70
     1
  9
$DISPSILH
 70
     0
  9
$DIMSCALE
 40
1.0
  9
$DIMASZ
 40
2.0
  9
$DIMEXO
 40
1.0
  9
$DIMDLI
 40
5.0
  9
$DIMRND
 40
0.0
  9
$DIMDLE
 40
3.0
  9
$DIMEXE
 40
1.0
  9
$DIMTP
 40
0.0
  9
$DIMTM
 40
0.0
  9
$DIMTXT
 40
3.5
  9
$DIMCEN
 40
2.0
  9
$DIMTSZ
 40
0.0
  9
$DIMTOL
 70
     0
  9
$DIMLIM
 70
     0
  9
$DIMTIH
 70
     0
  9
$DIMTOH
 70
     0
  9
$DIMSE1
 70
     0
  9
$DIMSE2
 70
     0
  9
$DIMTAD
 70
     1
  9
$DIMZIN
 70
     8
  9
$DIMBLK
  1

  9
$DIMASO
 70
     1
  9
$DIMSHO
 70
     1
  9
$DIMPOST
  1

  9
$DIMAPOST
  1

  9
$DIMALT
 70
     0
  9
$DIMALTD
 70
     4
  9
$DIMALTF
 40
0.0393700787401575
  9
$DIMLFAC
 40
1.0
  9
$DIMTOFL
 70
     1
  9
$DIMTVP
 40
1.0
  9
$DIMTIX
 70
     0
  9
$DIMSOXD
 70
     0
  9
$DIMSAH
 70
     0
  9
$DIMBLK1
  1

  9
$DIMBLK2
  1

  9
$DIMSTYLE
  2
ISO-25
  9
$DIMCLRD
 70
     0
  9
$DIMCLRE
 70
     0
  9
$DIMCLRT
 70
     0
  9
$DIMTFAC
 40
1.0
  9
$DIMGAP
 40
0.5
  9
$DIMJUST
 70
     0
  9
$DIMSD1
 70
     0
  9
$DIMSD2
 70
     0
  9
$DIMTOLJ
 70
     1
  9
$DIMTZIN
 70
     1
  9
$DIMALTZ
 70
     0
  9
$DIMALTTZ
 70
     0
  9
$DIMFIT
 70
     3
  9
$DIMUPT
 70
     0
  9
$DIMUNIT
 70
     2
  9
$DIMDEC
 70
     3
  9
$DIMTDEC
 70
     3
  9
$DIMALTU
 70
     8
  9
$DIMALTTD
 70
     4
  9
$DIMTXSTY
  7
STANDARD
  9
$DIMAUNIT
 70
     0
  9
$LUNITS
 70
     2
  9
$LUPREC
 70
     4
  9
$AXISMODE
 70
     0
  9
$AXISUNIT
 10
0.0
 20
0.0
  9
$SKETCHINC
 40
1.0
  9
$FILLETRAD
 40
0.0
  9
$AUNITS
 70
     0
  9
$AUPREC
 70
     0
  9
$MENU
  1
.
  9
$ELEVATION
 40
0.0
  9
$PELEVATION
 40
0.0
  9
$THICKNESS
 40
0.0
  9
$LIMCHECK
 70
     0
  9
$BLIPMODE
 70
     1
  9
$CHAMFERA
 40
0.0
  9
$CHAMFERB
 40
0.0
  9
$CHAMFERC
 40
0.0
  9
$CHAMFERD
 40
0.0
  9
$SKPOLY
 70
     0
  9
$TDCREATE
 40
2459662.57484954
  9
$TDUPDATE
 40
2459662.57484954
  9
$TDINDWG
 40
0.0
  9
$TDUSRTIMER
 40
0.0
  9
$USRTIMER
 70
     1
  9
$ANGBASE
 50
0.0
  9
$ANGDIR
 70
     0
  9
$PDMODE
 70
     0
  9
$PDSIZE
 40
0.0
  9
$PLINEWID
 40
0.0
  9
$COORDS
 70
     0
  9
$SPLFRAME
 70
     0
  9
$SPLINETYPE
 70
     6
  9
$SPLINESEGS
 70
     8
  9
$ATTDIA
 70
     0
  9
$ATTREQ
 70
     1
  9
$HANDLING
 70
     1
  9
$HANDSEED
  5
485
  9
$SURFTAB1
 70
     6
  9
$SURFTAB2
 70
     6
  9
$SURFTYPE
 70
     6
  9
$SURFU
 70
     6
  9
$SURFV
 70
     6
  9
$UCSNAME
  2

  9
$UCSORG
 10
0.0
 20
0.0
 30
0.0
  9
$UCSXDIR
 10
1.0
 20
0.0
 30
0.0
  9
$UCSYDIR
 10
0.0
 20
1.0
 30
0.0
  9
$PUCSNAME
  2

  9
$PUCSORG
 10
0.0
 20
1.0
 30
0.0
  9
$PUCSXDIR
 10
1.0
 20
0.0
 30
0.0
  9
$PUCSYDIR
 10
0.0
 20
1.0
 30
0.0
  9
$USERI1
 70
     0
  9
$USERI2
 70
     0
  9
$USERI3
 70
     0
  9
$USERI4
 70
     0
  9
$USERI5
 70
     0
  9
$USERR1
 40
0.0
  9
$USERR2
 40
0.0
  9
$USERR3
 40
0.0
  9
$USERR4
 40
0.0
  9
$USERR5
 40
0.0
  9
$WORLDVIEW
 70
     1
  9
$SHADEDGE
 70
     3
  9
$SHADEDIF
 70
    70
  9
$TILEMODE
 70
     1
  9
$MAXACTVP
 70
    16
  9
$PINSBASE
 10
0.0
 20
1.0
 30
0.0
  9
$PLIMCHECK
 70
     0
  9
$PEXTMIN
 10
1.00000000000000E+020
 20
1.00000000000000E+020
 30
1.00000000000000E+020
  9
$PEXTMAX
 10
-1.00000000000000E+020
 20
-1.00000000000000E+020
 30
-1.00000000000000E+020
  9
$PLIMMIN
 10
-77.9055092479971
 20
-79.7720135500586
  9
$PLIMMAX
 10
477.14359211829
 20
106.5
  9
$UNITMODE
 70
     0
  9
$VISRETAIN
 70
     0
  9
$PLINEGEN
 70
     0
  9
$PSLTSCALE
 70
     0
  9
$TREEDEPTH
 70
  3020
  9
$PICKSTYLE
 70
     1
  9
$CMLSTYLE
  2
STANDARD
  9
$CMLJUST
 70
     0
  9
$CMLSCALE
 40
1.0
  9
$PROXYGRAPHICS
 70
     1
  9
$MEASUREMENT
 70
     1
  0
ENDSEC
  0
SECTION
  2
CLASSES
  0
CLASS
  1
LWPOLYLINE
  2
AcDbPolyline
  3
"AutoCAD"
 90
        0
280
     0
281
     1
  0
CLASS
  1
DICTIONARYVAR
  2
AcDbDictionaryVar
  3
"AutoCAD"
 90
        0
280
     0
281
     1
  0
CLASS
  1
HATCH
  2
AcDbHatch
  3
"AutoCAD"
 90
        0
280
     0
281
     1
  0
ENDSEC
  0
SECTION
  2
TABLES
  0
TABLE
  2
VPORT
  5
8
100
AcDbSymbolTable
 70
     1
  0
VPORT
  5
477
100
AcDbSymbolTableRecord
100
AcDbViewportTableRecord
  2
*ACTIVE
 70
     0
 10
0.0
 20
0.0
 11
1.0
 21
1.0
 12
199.619041435146
 22
13.3639932249707
 13
0.0
 23
0.0
 14
0.0
 24
0.0
 15
0.0
 25
0.0
 16
0.0
 26
0.0
 36
1.0
 17
0.0
 27
0.0
 37
0.0
 40
555.049101366287
 41
1.5
 42
50.0
 43
0.0
 44
0.0
 50
0.0
 51
0.0
 71
     0
 72
   100
 73
     1
 74
     1
 75
     0
 76
     0
 77
     0
 78
     0
  0
ENDTAB
  0
TABLE
  2
LTYPE
  5
5
100
AcDbSymbolTable
 70
    20
  0
LTYPE
  5
478
100
AcDbSymbolTableRecord
100
AcDbLinetypeTableRecord
  2
BYBLOCK
 70
     0
  3

 72
    65
 73
     0
 40
0.0
  0
LTYPE
  5
479
100
AcDbSymbolTableRecord
100
AcDbLinetypeTableRecord
  2
BYLAYER
 70
     0
  3

 72
    65
 73
     0
 40
0.0
  0
LTYPE
  5
47A
100
AcDbSymbolTableRecord
100
AcDbLinetypeTableRecord
  2
CONTINUOUS
 70
    64
  3
solid line
 72
    65
 73
     0
 40
0.0
  0
LTYPE
  5
47B
100
AcDbSymbolTableRecord
100
AcDbLinetypeTableRecord
  2
HIDDEN
 70
    64
  3
HIDDEN
 72
    65
 73
     0
 40
0.0
  0
LTYPE
  5
47C
100
AcDbSymbolTableRecord
100
AcDbLinetypeTableRecord
  2
CENTER
 70
    64
  3
--- - --- - --- - --- - --- -
 72
    65
 73
     4
 40
6.0
 49
3.0
 74
     0
 49
-1.0
 74
     0
 49
1.0
 74
     0
 49
-1.0
 74
     0
  0
LTYPE
  5
47D
100
AcDbSymbolTableRecord
100
AcDbLinetypeTableRecord
  2
CENTER2
 70
    64
  3
CENTER2
 72
    65
 73
     0
 40
0.0
  0
LTYPE
  5
47E
100
AcDbSymbolTableRecord
100
AcDbLinetypeTableRecord
  2
PHANTOM
 70
    64
  3
----- - - ----- - - ----- - -
 72
    65
 73
     6
 40
12.0
 49
7.0
 74
     0
 49
-1.0
 74
     0
 49
1.0
 74
     0
 49
-1.0
 74
     0
 49
1.0
 74
     0
 49
-1.0
 74
     0
  0
ENDTAB
  0
TABLE
  2
LAYER
  5
2
100
AcDbSymbolTable
 70
    20
  0
LAYER
  5
47F
100
AcDbSymbolTableRecord
100
AcDbLayerTableRecord
  2
0
 70
    64
 62
     7
  6
CONTINUOUS
  0
LAYER
  5
26
100
AcDbSymbolTableRecord
100
AcDbLayerTableRecord
  2
4
 70
    64
 62
     7
  6
CONTINUOUS
  0
LAYER
  5
29
100
AcDbSymbolTableRecord
100
AcDbLayerTableRecord
  2
6
 70
    64
 62
     7
  6
CONTINUOUS
  0
LAYER
  5
48
100
AcDbSymbolTableRecord
100
AcDbLayerTableRecord
  2
2
 70
    64
 62
     7
  6
CONTINUOUS
  0
LAYER
  5
5B
100
AcDbSymbolTableRecord
100
AcDbLayerTableRecord
  2
7
 70
    64
 62
     7
  6
CONTINUOUS
  0
LAYER
  5
23C
100
AcDbSymbolTableRecord
100
AcDbLayerTableRecord
  2
8
 70
    64
 62
     7
  6
CONTINUOUS
  0
LAYER
  5
3D3
100
AcDbSymbolTableRecord
100
AcDbLayerTableRecord
  2
9
 70
    64
 62
     7
  6
CONTINUOUS
  0
LAYER
  5
480
100
AcDbSymbolTableRecord
100
AcDbLayerTableRecord
  2
DEFPOINTS
 70
     0
 62
    -7
  6
CONTINUOUS
  0
ENDTAB
  0
TABLE
  2
STYLE
  5
3
100
AcDbSymbolTable
 70
     4
  0
STYLE
  5
481
100
AcDbSymbolTableRecord
100
AcDbTextStyleTableRecord
  2
STANDARD
 70
    64
 40
0.0
 41
1.0
 50
0.0
 71
     0
 42
3.0
  3
monotxt
  4

  0
STYLE
  5
482
100
AcDbSymbolTableRecord
100
AcDbTextStyleTableRecord
  2
BIGFONT
 70
    64
 40
0.0
 41
1.0
 50
0.0
 71
     0
 42
3.0
  3
monotxt
  4
bigfont
  0
ENDTAB
  0
TABLE
  2
VIEW
  5
6
100
AcDbSymbolTable
 70
     0
  0
ENDTAB
  0
TABLE
  2
UCS
  5
7
100
AcDbSymbolTable
 70
     0
  0
ENDTAB
  0
TABLE
  2
APPID
  5
9
100
AcDbSymbolTable
 70
     1
  0
APPID
  5
483
100
AcDbSymbolTableRecord
100
AcDbRegAppTableRecord
  2
ACAD
 70
     0
  0
ENDTAB
  0
TABLE
  2
DIMSTYLE
  5
A
100
AcDbSymbolTable
 70
     8
  0
DIMSTYLE
105
484
100
AcDbSymbolTableRecord
100
AcDbDimStyleTableRecord
  2
ISO-25
 70
     0
  3

  4

  5

  6

  7

 40
1.0
 41
2.0
 42
1.0
 43
5.0
 44
1.0
 45
0.0
 46
3.0
 47
0.0
 48
0.0
140
3.5
141
2.0
142
0.0
143
0.0393700787401575
144
1.0
145
1.0
146
1.0
147
0.5
 71
     0
 72
     0
 73
     0
 74
     0
 75
     0
 76
     0
 77
     1
 78
     8
170
     0
171
     0
172
     1
173
     0
174
     0
175
     0
176
     0
177
     0
178
     0
270
     2
271
     3
272
     3
273
     8
274
     4
340
481
275
     0
280
     0
281
     0
282
     0
283
     1
284
     1
285
     0
286
     0
287
     3
288
     0
  0
ENDTAB
  0
TABLE
  2
BLOCK_RECORD
  5
1
100
AcDbSymbolTable
 70
     2
  0
BLOCK_RECORD
  5
20
100
AcDbSymbolTableRecord
100
AcDbBlockTableRecord
  2
*MODEL_SPACE
  0
BLOCK_RECORD
  5
22
100
AcDbSymbolTableRecord
100
AcDbBlockTableRecord
  2
*PAPER_SPACE
  0
BLOCK_RECORD
  5
212
100
AcDbSymbolTableRecord
100
AcDbBlockTableRecord
  2
*D1
  0
BLOCK_RECORD
  5
223
100
AcDbSymbolTableRecord
100
AcDbBlockTableRecord
  2
*D2
  0
BLOCK_RECORD
  5
25A
100
AcDbSymbolTableRecord
100
AcDbBlockTableRecord
  2
*D3
  0
BLOCK_RECORD
  5
269
100
AcDbSymbolTableRecord
100
AcDbBlockTableRecord
  2
*D4
  0
BLOCK_RECORD
  5
29D
100
AcDbSymbolTableRecord
100
AcDbBlockTableRecord
  2
*D5
  0
BLOCK_RECORD
  5
2AD
100
AcDbSymbolTableRecord
100
AcDbBlockTableRecord
  2
*D6
  0
BLOCK_RECORD
  5
2BD
100
AcDbSymbolTableRecord
100
AcDbBlockTableRecord
  2
*D7
  0
BLOCK_RECORD
  5
2CD
100
AcDbSymbolTableRecord
100
AcDbBlockTableRecord
  2
*D8
  0
BLOCK_RECORD
  5
32E
100
AcDbSymbolTableRecord
100
AcDbBlockTableRecord
  2
*D9
  0
BLOCK_RECORD
  5
33E
100
AcDbSymbolTableRecord
100
AcDbBlockTableRecord
  2
*D10
  0
BLOCK_RECORD
  5
352
100
AcDbSymbolTableRecord
100
AcDbBlockTableRecord
  2
*D11
  0
BLOCK_RECORD
  5
36E
100
AcDbSymbolTableRecord
100
AcDbBlockTableRecord
  2
*D12
  0
BLOCK_RECORD
  5
37E
100
AcDbSymbolTableRecord
100
AcDbBlockTableRecord
  2
*D13
  0
BLOCK_RECORD
  5
38E
100
AcDbSymbolTableRecord
100
AcDbBlockTableRecord
  2
*D14
  0
BLOCK_RECORD
  5
3A0
100
AcDbSymbolTableRecord
100
AcDbBlockTableRecord
  2
*D15
  0
BLOCK_RECORD
  5
3B0
100
AcDbSymbolTableRecord
100
AcDbBlockTableRecord
  2
*D16
  0
BLOCK_RECORD
  5
3C0
100
AcDbSymbolTableRecord
100
AcDbBlockTableRecord
  2
*D17
  0
BLOCK_RECORD
  5
3D5
100
AcDbSymbolTableRecord
100
AcDbBlockTableRecord
  2
*D18
  0
BLOCK_RECORD
  5
3E7
100
AcDbSymbolTableRecord
100
AcDbBlockTableRecord
  2
*D19
  0
BLOCK_RECORD
  5
3F9
100
AcDbSymbolTableRecord
100
AcDbBlockTableRecord
  2
*D20
  0
BLOCK_RECORD
  5
409
100
AcDbSymbolTableRecord
100
AcDbBlockTableRecord
  2
*D21
  0
BLOCK_RECORD
  5
463
100
AcDbSymbolTableRecord
100
AcDbBlockTableRecord
  2
*D22
  0
BLOCK_RECORD
  5
362
100
AcDbSymbolTableRecord
100
AcDbBlockTableRecord
  2
M5_0001
  0
BLOCK_RECORD
  5
368
100
AcDbSymbolTableRecord
100
AcDbBlockTableRecord
  2
M5_0002
  0
BLOCK_RECORD
  5
24
100
AcDbSymbolTableRecord
100
AcDbBlockTableRecord
  2
SUB1
  0
BLOCK_RECORD
  5
127
100
AcDbSymbolTableRecord
100
AcDbBlockTableRecord
  2
SUB2
  0
BLOCK_RECORD
  5
287
100
AcDbSymbolTableRecord
100
AcDbBlockTableRecord
  2
SUB3
  0
BLOCK_RECORD
  5
2F9
100
AcDbSymbolTableRecord
100
AcDbBlockTableRecord
  2
SUB4
  0
BLOCK_RECORD
  5
300
100
AcDbSymbolTableRecord
100
AcDbBlockTableRecord
  2
SUB5
  0
BLOCK_RECORD
  5
307
100
AcDbSymbolTableRecord
100
AcDbBlockTableRecord
  2
SUB6
  0
BLOCK_RECORD
  5
30E
100
AcDbSymbolTableRecord
100
AcDbBlockTableRecord
  2
SUB7
  0
BLOCK_RECORD
  5
317
100
AcDbSymbolTableRecord
100
AcDbBlockTableRecord
  2
SUB8
  0
BLOCK_RECORD
  5
433
100
AcDbSymbolTableRecord
100
AcDbBlockTableRecord
  2
COMP1
  0
BLOCK_RECORD
  5
44B
100
AcDbSymbolTableRecord
100
AcDbBlockTableRecord
  2
COMP2
  0
ENDTAB
  0
ENDSEC
  0
SECTION
  2
BLOCKS
  0
BLOCK
  5
21
100
AcDbEntity
  8
0
100
AcDbBlockBegin
  2
*MODEL_SPACE
 70
     0
 10
0.0
 20
0.0
 30
0.0
  3
*MODEL_SPACE
  1

  0
ENDBLK
  5
475
100
AcDbEntity
  8
0
100
AcDbBlockEnd
  0
BLOCK
  5
23
100
AcDbEntity
 67
     1
  8
0
100
AcDbBlockBegin
  2
*PAPER_SPACE
 70
     0
 10
0.0
 20
0.0
 30
0.0
  3
*PAPER_SPACE
  1

  0
ENDBLK
  5
476
100
AcDbEntity
 67
     1
  8
0
100
AcDbBlockEnd
  0
BLOCK
  5
213
100
AcDbEntity
  8
0
100
AcDbBlockBegin
  2
*D1
 70
    65
 10
0.0
 20
0.0
  0
LINE
  5
214
100
AcDbEntity
  8
0
  6
CONTINUOUS
 62
     2
100
AcDbLine
 10
-58.2983738762491
 20
24.596747752498
 11
-67.0000000000001
 21
42.0
  0
LINE
  5
215
100
AcDbEntity
  8
0
  6
CONTINUOUS
 62
     2
100
AcDbLine
 10
-67.0000000000001
 20
42.0
 11
-75.0000000000001
 21
42.0
  0
LINE
  5
216
100
AcDbEntity
  8
0
  6
CONTINUOUS
 62
     2
100
AcDbLine
 10
-58.2983738762491
 20
24.596747752498
 11
-46.0000000000001
 21
0.0
  0
LINE
  5
217
100
AcDbEntity
  8
0
  6
CONTINUOUS
 62
     2
100
AcDbLine
 10
-56.9567330897492
 20
23.0315001682482
 11
-58.2983738762491
 21
24.596747752498
  0
LINE
  5
218
100
AcDbEntity
  8
0
  6
CONTINUOUS
 62
     2
100
AcDbLine
 10
-58.2983738762491
 20
24.596747752498
 11
-57.8511602807492
 21
22.5842865727482
  0
LINE
  5
219
100
AcDbEntity
  8
0
  6
CONTINUOUS
 62
     2
100
AcDbLine
 10
-33.7016261237511
 20
-24.596747752498
 11
-46.0000000000001
 21
0.0
  0
LINE
  5
21A
100
AcDbEntity
  8
0
  6
CONTINUOUS
 62
     2
100
AcDbLine
 10
-35.043266910251
 20
-23.0315001682481
 11
-33.7016261237511
 21
-24.596747752498
  0
LINE
  5
21B
100
AcDbEntity
  8
0
  6
CONTINUOUS
 62
     2
100
AcDbLine
 10
-33.7016261237511
 20
-24.596747752498
 11
-34.1488397192511
 21
-22.5842865727482
  0
MTEXT
  5
21C
100
AcDbEntity
  8
0
  6
CONTINUOUS
 62
     2
100
AcDbMText
 10
-74.5000000000001
 20
42.5
 40
3.5
 41
0.0
 11
1.0
 21
0.0
 71
     7
 72
     5
  7
STANDARD
  1
{\T1.60714;\W0.666667;%%c55}
 73
     1
 44
1.0
  0
POINT
  5
21D
100
AcDbEntity
  8
DEFPOINTS
  6
BYBLOCK
 62
     0
100
AcDbPoint
 10
-33.7016261237511
 20
-24.596747752498
  0
POINT
  5
21E
100
AcDbEntity
  8
DEFPOINTS
  6
BYBLOCK
 62
     0
100
AcDbPoint
 10
-58.2983738762491
 20
24.596747752498
  0
ENDBLK
  5
21F
100
AcDbEntity
  8
4
100
AcDbBlockEnd
  0
BLOCK
  5
224
100
AcDbEntity
  8
0
100
AcDbBlockBegin
  2
*D2
 70
    65
 10
0.0
 20
0.0
  0
LINE
  5
225
100
AcDbEntity
  8
0
  6
CONTINUOUS
 62
     2
100
AcDbLine
 10
-48.2378038025831
 20
-24.498046523101
 11
-60.0000000000001
 21
-35.0
  0
LINE
  5
226
100
AcDbEntity
  8
0
  6
CONTINUOUS
 62
     2
100
AcDbLine
 10
-60.0000000000001
 20
-35.0
 11
-70.6250000000001
 21
-35.0
  0
LINE
  5
227
100
AcDbEntity
  8
0
  6
CONTINUOUS
 62
     2
100
AcDbLine
 10
-49.3966718391423
 20
-26.2030464861043
 11
-48.2378038025831
 21
-24.498046523101
  0
LINE
  5
228
100
AcDbEntity
  8
0
  6
CONTINUOUS
 62
     2
100
AcDbLine
 10
-48.2378038025831
 20
-24.498046523101
 11
-50.0626873468428
 21
-25.4571085908996
  0
MTEXT
  5
229
100
AcDbEntity
  8
0
  6
CONTINUOUS
 62
     2
100
AcDbMText
 10
-70.1250000000001
 20
-34.5
 40
3.5
 41
0.0
 11
1.0
 21
0.0
 71
     7
 72
     5
  7
STANDARD
  1
{\T1.60714;\W0.666667;2-M6}
 73
     1
 44
1.0
  0
POINT
  5
22A
100
AcDbEntity
  8
DEFPOINTS
  6
BYBLOCK
 62
     0
100
AcDbPoint
 10
-45.9999901169691
 20
-22.5
  0
POINT
  5
22B
100
AcDbEntity
  8
DEFPOINTS
  6
BYBLOCK
 62
     0
100
AcDbPoint
 10
-48.2378038025831
 20
-24.498046523101
  0
ENDBLK
  5
22C
100
AcDbEntity
  8
4
100
AcDbBlockEnd
  0
BLOCK
  5
25B
100
AcDbEntity
  8
0
100
AcDbBlockBegin
  2
*D3
 70
    65
 10
0.0
 20
0.0
  0
LINE
  5
25C
100
AcDbEntity
  8
0
  6
CONTINUOUS
 62
     2
100
AcDbLine
 10
-56.0623058987491
 20
-20.124611797498
 11
-60.0000000000001
 21
-28.0
  0
LINE
  5
25D
100
AcDbEntity
  8
0
  6
CONTINUOUS
 62
     2
100
AcDbLine
 10
-60.0000000000001
 20
-28.0
 11
-68.0000000000001
 21
-28.0
  0
LINE
  5
25E
100
AcDbEntity
  8
0
  6
CONTINUOUS
 62
     2
100
AcDbLine
 10
-56.0623058987491
 20
-20.124611797498
 11
-46.0000000000001
 21
0.0
  0
LINE
  5
25F
100
AcDbEntity
  8
0
  6
CONTINUOUS
 62
     2
100
AcDbLine
 10
-55.6150923032492
 20
-18.1121506177481
 11
-56.0623058987491
 21
-20.124611797498
  0
LINE
  5
260
100
AcDbEntity
  8
0
  6
CONTINUOUS
 62
     2
100
AcDbLine
 10
-56.0623058987491
 20
-20.124611797498
 11
-54.7206651122492
 21
-18.5593642132481
  0
LINE
  5
261
100
AcDbEntity
  8
0
  6
CONTINUOUS
 62
     2
100
AcDbLine
 10
-35.9376941012511
 20
20.124611797498
 11
-46.0000000000001
 21
0.0
  0
LINE
  5
262
100
AcDbEntity
  8
0
  6
CONTINUOUS
 62
     2
100
AcDbLine
 10
-36.3849076967511
 20
18.1121506177482
 11
-35.9376941012511
 21
20.124611797498
  0
LINE
  5
263
100
AcDbEntity
  8
0
  6
CONTINUOUS
 62
     2
100
AcDbLine
 10
-35.9376941012511
 20
20.124611797498
 11
-37.279334887751
 21
18.5593642132481
  0
MTEXT
  5
264
100
AcDbEntity
  8
0
  6
CONTINUOUS
 62
     2
100
AcDbMText
 10
-67.5000000000001
 20
-27.5
 40
3.5
 41
0.0
 11
1.0
 21
0.0
 71
     7
 72
     5
  7
STANDARD
  1
{\T1.60714;\W0.666667;%%c45}
 73
     1
 44
1.0
  0
POINT
  5
265
100
AcDbEntity
  8
DEFPOINTS
  6
BYBLOCK
 62
     0
100
AcDbPoint
 10
-35.9376941012511
 20
20.124611797498
  0
POINT
  5
266
100
AcDbEntity
  8
DEFPOINTS
  6
BYBLOCK
 62
     0
100
AcDbPoint
 10
-56.0623058987491
 20
-20.124611797498
  0
ENDBLK
  5
267
100
AcDbEntity
  8
4
100
AcDbBlockEnd
  0
BLOCK
  5
26A
100
AcDbEntity
  8
0
100
AcDbBlockBegin
  2
*D4
 70
    65
 10
0.0
 20
0.0
  0
ARC
  5
26B
100
AcDbEntity
  8
0
  6
CONTINUOUS
 62
     2
100
AcDbCircle
 10
-46.0000000000001
 20
-30.861115664173
 40
21.6388843358272
100
AcDbArc
 50
231.999999999999
 51
270.0
  0
LINE
  5
26C
100
AcDbEntity
  8
0
  6
CONTINUOUS
 62
     2
100
AcDbLine
 10
-57.4383752097208
 20
-48.7501067907049
 11
-59.3222274545971
 21
-47.912789216857
  0
LINE
  5
26D
100
AcDbEntity
  8
0
  6
CONTINUOUS
 62
     2
100
AcDbLine
 10
-59.3222274545971
 20
-47.912789216857
 11
-58.0540366850465
 21
-49.5381175443117
  0
ARC
  5
26E
100
AcDbEntity
  8
0
  6
CONTINUOUS
 62
     2
100
AcDbCircle
 10
-46.0000000000001
 20
-30.861115664173
 40
21.6388843358272
100
AcDbArc
 50
270.0
 51
307.999999999993
  0
LINE
  5
26F
100
AcDbEntity
  8
0
  6
CONTINUOUS
 62
     2
100
AcDbLine
 10
-33.9459633149569
 20
-49.5381175443125
 11
-32.6777725454061
 21
-47.912789216858
  0
LINE
  5
270
100
AcDbEntity
  8
0
  6
CONTINUOUS
 62
     2
100
AcDbLine
 10
-32.6777725454061
 20
-47.912789216858
 11
-34.5616247902825
 21
-48.7501067907057
  0
LINE
  5
271
100
AcDbEntity
  8
0
  6
CONTINUOUS
 62
     2
100
AcDbLine
 10
-46.3078307376631
 20
-31.2551210409759
 11
-59.9378889299221
 21
-48.700799970464
  0
LINE
  5
272
100
AcDbEntity
  8
0
  6
CONTINUOUS
 62
     2
100
AcDbLine
 10
-45.6921692623371
 20
-31.2551210409759
 11
-32.0621110700801
 21
-48.700799970465
  0
MTEXT
  5
273
100
AcDbEntity
  8
0
  6
CONTINUOUS
 62
     2
100
AcDbMText
 10
-49.5000000000011
 20
-52.0
 40
3.5
 41
0.0
 11
1.0
 21
-5.26474561221369E-014
 71
     7
 72
     5
  7
STANDARD
  1
{\T1.60714;\W0.666667;76%%d}
 73
     1
 44
1.0
  0
POINT
  5
274
100
AcDbEntity
  8
DEFPOINTS
  6
BYBLOCK
 62
     0
100
AcDbPoint
 10
-46.0000000000001
 20
-30.861115664173
  0
POINT
  5
275
100
AcDbEntity
  8
DEFPOINTS
  6
BYBLOCK
 62
     0
100
AcDbPoint
 10
-46.0000000000001
 20
-30.861115664173
  0
POINT
  5
276
100
AcDbEntity
  8
DEFPOINTS
  6
BYBLOCK
 62
     0
100
AcDbPoint
 10
-46.0000000000001
 20
-30.861115664173
  0
ENDBLK
  5
277
100
AcDbEntity
  8
4
100
AcDbBlockEnd
  0
BLOCK
  5
29E
100
AcDbEntity
  8
0
100
AcDbBlockBegin
  2
*D5
 70
    65
 10
0.0
 20
0.0
  0
LINE
  5
29F
100
AcDbEntity
  8
0
  6
CONTINUOUS
 62
     2
100
AcDbLine
 10
-73.4055092479971
 20
33.0
 11
-73.4055092479971
 21
16.5
  0
LINE
  5
2A0
100
AcDbEntity
  8
0
  6
CONTINUOUS
 62
     2
100
AcDbLine
 10
-72.9055092479971
 20
31.0
 11
-73.4055092479971
 21
33.0
  0
LINE
  5
2A1
100
AcDbEntity
  8
0
  6
CONTINUOUS
 62
     2
100
AcDbLine
 10
-73.4055092479971
 20
33.0
 11
-73.9055092479971
 21
31.0
  0
LINE
  5
2A2
100
AcDbEntity
  8
0
  6
CONTINUOUS
 62
     2
100
AcDbLine
 10
-73.4055092479971
 20
0.0
 11
-73.4055092479971
 21
16.5
  0
LINE
  5
2A3
100
AcDbEntity
  8
0
  6
CONTINUOUS
 62
     2
100
AcDbLine
 10
-73.9055092479971
 20
2.0
 11
-73.4055092479971
 21
0.0
  0
LINE
  5
2A4
100
AcDbEntity
  8
0
  6
CONTINUOUS
 62
     2
100
AcDbLine
 10
-73.4055092479971
 20
0.0
 11
-72.9055092479971
 21
2.0
  0
LINE
  5
2A5
100
AcDbEntity
  8
0
  6
CONTINUOUS
 62
     2
100
AcDbLine
 10
-57.0000000000001
 20
33.0
 11
-74.4055092479971
 21
33.0
  0
LINE
  5
2A6
100
AcDbEntity
  8
0
  6
CONTINUOUS
 62
     2
100
AcDbLine
 10
-66.5000000000001
 20
0.0
 11
-74.4055092479971
 21
0.0
  0
MTEXT
  5
2A7
100
AcDbEntity
  8
0
  6
CONTINUOUS
 62
     2
100
AcDbMText
 10
-73.9055092479971
 20
14.3125
 40
3.5
 41
0.0
 11
6.12323399573677E-017
 21
1.0
 71
     7
 72
     5
  7
STANDARD
  1
{\T1.60714;\W0.666667;33}
 73
     1
 44
1.0
  0
POINT
  5
2A8
100
AcDbEntity
  8
DEFPOINTS
  6
BYBLOCK
 62
     0
100
AcDbPoint
 10
-56.5000000000001
 20
33.0
  0
POINT
  5
2A9
100
AcDbEntity
  8
DEFPOINTS
  6
BYBLOCK
 62
     0
100
AcDbPoint
 10
-66.0000000000001
 20
0.0
  0
POINT
  5
2AA
100
AcDbEntity
  8
DEFPOINTS
  6
BYBLOCK
 62
     0
100
AcDbPoint
 10
-73.4055092479971
 20
0.0
  0
ENDBLK
  5
2AB
100
AcDbEntity
  8
4
100
AcDbBlockEnd
  0
BLOCK
  5
2AE
100
AcDbEntity
  8
0
100
AcDbBlockBegin
  2
*D6
 70
    65
 10
0.0
 20
0.0
  0
LINE
  5
2AF
100
AcDbEntity
  8
0
  6
CONTINUOUS
 62
     2
100
AcDbLine
 10
-57.5000000000001
 20
47.0
 11
-46.0000000000001
 21
47.0
  0
LINE
  5
2B0
100
AcDbEntity
  8
0
  6
CONTINUOUS
 62
     2
100
AcDbLine
 10
-55.5000000000001
 20
47.5
 11
-57.5000000000001
 21
47.0
  0
LINE
  5
2B1
100
AcDbEntity
  8
0
  6
CONTINUOUS
 62
     2
100
AcDbLine
 10
-57.5000000000001
 20
47.0
 11
-55.5000000000001
 21
46.5
  0
LINE
  5
2B2
100
AcDbEntity
  8
0
  6
CONTINUOUS
 62
     2
100
AcDbLine
 10
-34.5000000000001
 20
47.0
 11
-46.0000000000001
 21
47.0
  0
LINE
  5
2B3
100
AcDbEntity
  8
0
  6
CONTINUOUS
 62
     2
100
AcDbLine
 10
-36.5000000000001
 20
46.5
 11
-34.5000000000001
 21
47.0
  0
LINE
  5
2B4
100
AcDbEntity
  8
0
  6
CONTINUOUS
 62
     2
100
AcDbLine
 10
-34.5000000000001
 20
47.0
 11
-36.5000000000001
 21
47.5
  0
LINE
  5
2B5
100
AcDbEntity
  8
0
  6
CONTINUOUS
 62
     2
100
AcDbLine
 10
-57.5000000000001
 20
32.5
 11
-57.5000000000001
 21
48.0
  0
LINE
  5
2B6
100
AcDbEntity
  8
0
  6
CONTINUOUS
 62
     2
100
AcDbLine
 10
-34.5000000000001
 20
32.5
 11
-34.5000000000001
 21
48.0
  0
MTEXT
  5
2B7
100
AcDbEntity
  8
0
  6
CONTINUOUS
 62
     2
100
AcDbMText
 10
-48.1875000000001
 20
47.5
 40
3.5
 41
0.0
 11
1.0
 21
0.0
 71
     7
 72
     5
  7
STANDARD
  1
{\T1.60714;\W0.666667;23}
 73
     1
 44
1.0
  0
POINT
  5
2B8
100
AcDbEntity
  8
DEFPOINTS
  6
BYBLOCK
 62
     0
100
AcDbPoint
 10
-57.5000000000001
 20
32.0
  0
POINT
  5
2B9
100
AcDbEntity
  8
DEFPOINTS
  6
BYBLOCK
 62
     0
100
AcDbPoint
 10
-34.5000000000001
 20
32.0
  0
POINT
  5
2BA
100
AcDbEntity
  8
DEFPOINTS
  6
BYBLOCK
 62
     0
100
AcDbPoint
 10
-34.5000000000001
 20
47.0
  0
ENDBLK
  5
2BB
100
AcDbEntity
  8
4
100
AcDbBlockEnd
  0
BLOCK
  5
2BE
100
AcDbEntity
  8
0
100
AcDbBlockBegin
  2
*D7
 70
    65
 10
0.0
 20
0.0
  0
LINE
  5
2BF
100
AcDbEntity
  8
0
  6
CONTINUOUS
 62
     2
100
AcDbLine
 10
-65.0000000000001
 20
56.0
 11
-46.0000000000001
 21
56.0
  0
LINE
  5
2C0
100
AcDbEntity
  8
0
  6
CONTINUOUS
 62
     2
100
AcDbLine
 10
-63.0000000000001
 20
56.5
 11
-65.0000000000001
 21
56.0
  0
LINE
  5
2C1
100
AcDbEntity
  8
0
  6
CONTINUOUS
 62
     2
100
AcDbLine
 10
-65.0000000000001
 20
56.0
 11
-63.0000000000001
 21
55.5
  0
LINE
  5
2C2
100
AcDbEntity
  8
0
  6
CONTINUOUS
 62
     2
100
AcDbLine
 10
-27.0000000000001
 20
56.0
 11
-46.0000000000001
 21
56.0
  0
LINE
  5
2C3
100
AcDbEntity
  8
0
  6
CONTINUOUS
 62
     2
100
AcDbLine
 10
-29.0000000000001
 20
55.5
 11
-27.0000000000001
 21
56.0
  0
LINE
  5
2C4
100
AcDbEntity
  8
0
  6
CONTINUOUS
 62
     2
100
AcDbLine
 10
-27.0000000000001
 20
56.0
 11
-29.0000000000001
 21
56.5
  0
LINE
  5
2C5
100
AcDbEntity
  8
0
  6
CONTINUOUS
 62
     2
100
AcDbLine
 10
-65.0000000000001
 20
20.3808953520711
 11
-65.0000000000001
 21
57.0
  0
LINE
  5
2C6
100
AcDbEntity
  8
0
  6
CONTINUOUS
 62
     2
100
AcDbLine
 10
-27.0000000000001
 20
20.3808953520711
 11
-27.0000000000001
 21
57.0
  0
MTEXT
  5
2C7
100
AcDbEntity
  8
0
  6
CONTINUOUS
 62
     2
100
AcDbMText
 10
-48.1875000000001
 20
56.5
 40
3.5
 41
0.0
 11
1.0
 21
0.0
 71
     7
 72
     5
  7
STANDARD
  1
{\T1.60714;\W0.666667;38}
 73
     1
 44
1.0
  0
POINT
  5
2C8
100
AcDbEntity
  8
DEFPOINTS
  6
BYBLOCK
 62
     0
100
AcDbPoint
 10
-65.0000000000001
 20
19.8808953520711
  0
POINT
  5
2C9
100
AcDbEntity
  8
DEFPOINTS
  6
BYBLOCK
 62
     0
100
AcDbPoint
 10
-27.0000000000001
 20
19.8808953520711
  0
POINT
  5
2CA
100
AcDbEntity
  8
DEFPOINTS
  6
BYBLOCK
 62
     0
100
AcDbPoint
 10
-27.0000000000001
 20
56.0
  0
ENDBLK
  5
2CB
100
AcDbEntity
  8
4
100
AcDbBlockEnd
  0
BLOCK
  5
2CE
100
AcDbEntity
  8
0
100
AcDbBlockBegin
  2
*D8
 70
    65
 10
0.0
 20
0.0
  0
LINE
  5
2CF
100
AcDbEntity
  8
0
  6
CONTINUOUS
 62
     2
100
AcDbLine
 10
-50.7500000000001
 20
-31.3496993197981
 11
-46.0000000000001
 21
-31.3496993197981
  0
LINE
  5
2D0
100
AcDbEntity
  8
0
  6
CONTINUOUS
 62
     2
100
AcDbLine
 10
-48.7500000000001
 20
-30.8496993197981
 11
-50.7500000000001
 21
-31.3496993197981
  0
LINE
  5
2D1
100
AcDbEntity
  8
0
  6
CONTINUOUS
 62
     2
100
AcDbLine
 10
-50.7500000000001
 20
-31.3496993197981
 11
-48.7500000000001
 21
-31.8496993197981
  0
LINE
  5
2D2
100
AcDbEntity
  8
0
  6
CONTINUOUS
 62
     2
100
AcDbLine
 10
-41.2500000000001
 20
-31.3496993197981
 11
-46.0000000000001
 21
-31.3496993197981
  0
LINE
  5
2D3
100
AcDbEntity
  8
0
  6
CONTINUOUS
 62
     2
100
AcDbLine
 10
-43.2500000000001
 20
-31.8496993197981
 11
-41.2500000000001
 21
-31.3496993197981
  0
LINE
  5
2D4
100
AcDbEntity
  8
0
  6
CONTINUOUS
 62
     2
100
AcDbLine
 10
-41.2500000000001
 20
-31.3496993197981
 11
-43.2500000000001
 21
-30.8496993197981
  0
LINE
  5
2D5
100
AcDbEntity
  8
0
  6
CONTINUOUS
 62
     2
100
AcDbLine
 10
-41.2500000000001
 20
-31.3496993197981
 11
-27.6250000000001
 21
-31.3496993197981
  0
LINE
  5
2D6
100
AcDbEntity
  8
0
  6
CONTINUOUS
 62
     2
100
AcDbLine
 10
-50.7500000000001
 20
-4.1657195746539
 11
-50.7500000000001
 21
-32.3496993197981
  0
LINE
  5
2D7
100
AcDbEntity
  8
0
  6
CONTINUOUS
 62
     2
100
AcDbLine
 10
-41.2500000000001
 20
-4.1657195746539
 11
-41.2500000000001
 21
-32.3496993197981
  0
MTEXT
  5
2D8
100
AcDbEntity
  8
0
  6
CONTINUOUS
 62
     2
100
AcDbMText
 10
-37.7500000000001
 20
-30.8496993197981
 40
3.5
 41
0.0
 11
1.0
 21
0.0
 71
     7
 72
     5
  7
STANDARD
  1
{\T1.60714;\W0.666667;□9.5}
 73
     1
 44
1.0
  0
POINT
  5
2D9
100
AcDbEntity
  8
DEFPOINTS
  6
BYBLOCK
 62
     0
100
AcDbPoint
 10
-50.7500000000001
 20
-3.6657195746539
  0
POINT
  5
2DA
100
AcDbEntity
  8
DEFPOINTS
  6
BYBLOCK
 62
     0
100
AcDbPoint
 10
-41.2500000000001
 20
-3.6657195746539
  0
POINT
  5
2DB
100
AcDbEntity
  8
DEFPOINTS
  6
BYBLOCK
 62
     0
100
AcDbPoint
 10
-41.2500000000001
 20
-31.3496993197981
  0
ENDBLK
  5
2DC
100
AcDbEntity
  8
4
100
AcDbBlockEnd
  0
BLOCK
  5
32F
100
AcDbEntity
  8
0
100
AcDbBlockBegin
  2
*D9
 70
    65
 10
0.0
 20
0.0
  0
LINE
  5
330
100
AcDbEntity
  8
0
  6
CONTINUOUS
 62
     2
100
AcDbLine
 10
419.218990017395
 20
36.0
 11
419.218990017395
 21
18.0
  0
LINE
  5
331
100
AcDbEntity
  8
0
  6
CONTINUOUS
 62
     2
100
AcDbLine
 10
419.718990017395
 20
34.0
 11
419.218990017395
 21
36.0
  0
LINE
  5
332
100
AcDbEntity
  8
0
  6
CONTINUOUS
 62
     2
100
AcDbLine
 10
419.218990017395
 20
36.0
 11
418.718990017395
 21
34.0
  0
LINE
  5
333
100
AcDbEntity
  8
0
  6
CONTINUOUS
 62
     2
100
AcDbLine
 10
419.218990017395
 20
0.0
 11
419.218990017395
 21
18.0
  0
LINE
  5
334
100
AcDbEntity
  8
0
  6
CONTINUOUS
 62
     2
100
AcDbLine
 10
418.718990017395
 20
2.0
 11
419.218990017395
 21
0.0
  0
LINE
  5
335
100
AcDbEntity
  8
0
  6
CONTINUOUS
 62
     2
100
AcDbLine
 10
419.218990017395
 20
0.0
 11
419.718990017395
 21
2.0
  0
LINE
  5
336
100
AcDbEntity
  8
0
  6
CONTINUOUS
 62
     2
100
AcDbLine
 10
437.5
 20
36.0
 11
418.218990017395
 21
36.0
  0
LINE
  5
337
100
AcDbEntity
  8
0
  6
CONTINUOUS
 62
     2
100
AcDbLine
 10
430.575466674163
 20
0.0
 11
418.218990017395
 21
0.0
  0
MTEXT
  5
338
100
AcDbEntity
  8
0
  6
CONTINUOUS
 62
     2
100
AcDbMText
 10
418.718990017395
 20
15.8125
 40
3.5
 41
0.0
 11
6.12323399573677E-017
 21
1.0
 71
     7
 72
     5
  7
STANDARD
  1
{\T1.60714;\W0.666667;36}
 73
     1
 44
1.0
  0
POINT
  5
339
100
AcDbEntity
  8
DEFPOINTS
  6
BYBLOCK
 62
     0
100
AcDbPoint
 10
438.0
 20
36.0
  0
POINT
  5
33A
100
AcDbEntity
  8
DEFPOINTS
  6
BYBLOCK
 62
     0
100
AcDbPoint
 10
431.075466674163
 20
0.0
  0
POINT
  5
33B
100
AcDbEntity
  8
DEFPOINTS
  6
BYBLOCK
 62
     0
100
AcDbPoint
 10
419.218990017395
 20
0.0
  0
ENDBLK
  5
33C
100
AcDbEntity
  8
4
100
AcDbBlockEnd
  0
BLOCK
  5
33F
100
AcDbEntity
  8
0
100
AcDbBlockBegin
  2
*D10
 70
    65
 10
0.0
 20
0.0
  0
LINE
  5
340
100
AcDbEntity
  8
0
  6
CONTINUOUS
 62
     2
100
AcDbLine
 10
436.0
 20
47.0
 11
454.0
 21
47.0
  0
LINE
  5
341
100
AcDbEntity
  8
0
  6
CONTINUOUS
 62
     2
100
AcDbLine
 10
438.0
 20
47.5
 11
436.0
 21
47.0
  0
LINE
  5
342
100
AcDbEntity
  8
0
  6
CONTINUOUS
 62
     2
100
AcDbLine
 10
436.0
 20
47.0
 11
438.0
 21
46.5
  0
LINE
  5
343
100
AcDbEntity
  8
0
  6
CONTINUOUS
 62
     2
100
AcDbLine
 10
472.0
 20
47.0
 11
454.0
 21
47.0
  0
LINE
  5
344
100
AcDbEntity
  8
0
  6
CONTINUOUS
 62
     2
100
AcDbLine
 10
470.0
 20
46.5
 11
472.0
 21
47.0
  0
LINE
  5
345
100
AcDbEntity
  8
0
  6
CONTINUOUS
 62
     2
100
AcDbLine
 10
472.0
 20
47.0
 11
470.0
 21
47.5
  0
LINE
  5
346
100
AcDbEntity
  8
0
  6
CONTINUOUS
 62
     2
100
AcDbLine
 10
436.0
 20
34.5
 11
436.0
 21
48.0
  0
LINE
  5
347
100
AcDbEntity
  8
0
  6
CONTINUOUS
 62
     2
100
AcDbLine
 10
472.0
 20
34.5
 11
472.0
 21
48.0
  0
MTEXT
  5
348
100
AcDbEntity
  8
0
  6
CONTINUOUS
 62
     2
100
AcDbMText
 10
451.8125
 20
47.5
 40
3.5
 41
0.0
 11
1.0
 21
0.0
 71
     7
 72
     5
  7
STANDARD
  1
{\T1.60714;\W0.666667;36}
 73
     1
 44
1.0
  0
POINT
  5
349
100
AcDbEntity
  8
DEFPOINTS
  6
BYBLOCK
 62
     0
100
AcDbPoint
 10
436.0
 20
34.0
  0
POINT
  5
34A
100
AcDbEntity
  8
DEFPOINTS
  6
BYBLOCK
 62
     0
100
AcDbPoint
 10
472.0
 20
34.0
  0
POINT
  5
34B
100
AcDbEntity
  8
DEFPOINTS
  6
BYBLOCK
 62
     0
100
AcDbPoint
 10
472.0
 20
47.0
  0
ENDBLK
  5
34C
100
AcDbEntity
  8
4
100
AcDbBlockEnd
  0
BLOCK
  5
353
100
AcDbEntity
  8
0
100
AcDbBlockBegin
  2
*D11
 70
    65
 10
0.0
 20
0.0
  0
LINE
  5
354
100
AcDbEntity
  8
0
  6
CONTINUOUS
 62
     2
100
AcDbLine
 10
427.805626844769
 20
18.0
 11
427.805626844769
 21
9.0
  0
LINE
  5
355
100
AcDbEntity
  8
0
  6
CONTINUOUS
 62
     2
100
AcDbLine
 10
428.305626844769
 20
16.0
 11
427.805626844769
 21
18.0
  0
LINE
  5
356
100
AcDbEntity
  8
0
  6
CONTINUOUS
 62
     2
100
AcDbLine
 10
427.805626844769
 20
18.0
 11
427.305626844769
 21
16.0
  0
LINE
  5
357
100
AcDbEntity
  8
0
  6
CONTINUOUS
 62
     2
100
AcDbLine
 10
427.805626844769
 20
0.0
 11
427.805626844769
 21
9.0
  0
LINE
  5
358
100
AcDbEntity
  8
0
  6
CONTINUOUS
 62
     2
100
AcDbLine
 10
427.305626844769
 20
2.0
 11
427.805626844769
 21
0.0
  0
LINE
  5
359
100
AcDbEntity
  8
0
  6
CONTINUOUS
 62
     2
100
AcDbLine
 10
427.805626844769
 20
0.0
 11
428.305626844769
 21
2.0
  0
LINE
  5
35A
100
AcDbEntity
  8
0
  6
CONTINUOUS
 62
     2
100
AcDbLine
 10
434.8
 20
18.0
 11
426.805626844769
 21
18.0
  0
LINE
  5
35B
100
AcDbEntity
  8
0
  6
CONTINUOUS
 62
     2
100
AcDbLine
 10
430.575466674163
 20
0.0
 11
426.805626844769
 21
0.0
  0
MTEXT
  5
35C
100
AcDbEntity
  8
0
  6
CONTINUOUS
 62
     2
100
AcDbMText
 10
427.305626844769
 20
6.8125
 40
3.5
 41
0.0
 11
6.12323399573677E-017
 21
1.0
 71
     7
 72
     5
  7
STANDARD
  1
{\T1.60714;\W0.666667;18}
 73
     1
 44
1.0
  0
POINT
  5
35D
100
AcDbEntity
  8
DEFPOINTS
  6
BYBLOCK
 62
     0
100
AcDbPoint
 10
435.3
 20
18.0
  0
POINT
  5
35E
100
AcDbEntity
  8
DEFPOINTS
  6
BYBLOCK
 62
     0
100
AcDbPoint
 10
431.075466674163
 20
0.0
  0
POINT
  5
35F
100
AcDbEntity
  8
DEFPOINTS
  6
BYBLOCK
 62
     0
100
AcDbPoint
 10
427.805626844769
 20
0.0
  0
ENDBLK
  5
360
100
AcDbEntity
  8
4
100
AcDbBlockEnd
  0
BLOCK
  5
36F
100
AcDbEntity
  8
0
100
AcDbBlockBegin
  2
*D12
 70
    65
 10
0.0
 20
0.0
  0
LINE
  5
370
100
AcDbEntity
  8
0
  6
CONTINUOUS
 62
     2
100
AcDbLine
 10
12.0
 20
38.0
 11
6.0
 21
38.0
  0
LINE
  5
371
100
AcDbEntity
  8
0
  6
CONTINUOUS
 62
     2
100
AcDbLine
 10
10.0
 20
37.5
 11
12.0
 21
38.0
  0
LINE
  5
372
100
AcDbEntity
  8
0
  6
CONTINUOUS
 62
     2
100
AcDbLine
 10
12.0
 20
38.0
 11
10.0
 21
38.5
  0
LINE
  5
373
100
AcDbEntity
  8
0
  6
CONTINUOUS
 62
     2
100
AcDbLine
 10
0.0
 20
38.0
 11
6.0
 21
38.0
  0
LINE
  5
374
100
AcDbEntity
  8
0
  6
CONTINUOUS
 62
     2
100
AcDbLine
 10
2.0
 20
38.5
 11
0.0
 21
38.0
  0
LINE
  5
375
100
AcDbEntity
  8
0
  6
CONTINUOUS
 62
     2
100
AcDbLine
 10
0.0
 20
38.0
 11
2.0
 21
37.5
  0
LINE
  5
376
100
AcDbEntity
  8
0
  6
CONTINUOUS
 62
     2
100
AcDbLine
 10
12.0
 20
6.5
 11
12.0
 21
39.0
  0
LINE
  5
377
100
AcDbEntity
  8
0
  6
CONTINUOUS
 62
     2
100
AcDbLine
 10
0.0
 20
4.75
 11
0.0
 21
39.0
  0
MTEXT
  5
378
100
AcDbEntity
  8
0
  6
CONTINUOUS
 62
     2
100
AcDbMText
 10
3.8125
 20
38.5
 40
3.5
 41
0.0
 11
1.0
 21
0.0
 71
     7
 72
     5
  7
STANDARD
  1
{\T1.60714;\W0.666667;12}
 73
     1
 44
1.0
  0
POINT
  5
379
100
AcDbEntity
  8
DEFPOINTS
  6
BYBLOCK
 62
     0
100
AcDbPoint
 10
12.0
 20
6.0
  0
POINT
  5
37A
100
AcDbEntity
  8
DEFPOINTS
  6
BYBLOCK
 62
     0
100
AcDbPoint
 10
0.0
 20
4.25
  0
POINT
  5
37B
100
AcDbEntity
  8
DEFPOINTS
  6
BYBLOCK
 62
     0
100
AcDbPoint
 10
0.0
 20
38.0
  0
ENDBLK
  5
37C
100
AcDbEntity
  8
4
100
AcDbBlockEnd
  0
BLOCK
  5
37F
100
AcDbEntity
  8
0
100
AcDbBlockBegin
  2
*D13
 70
    65
 10
0.0
 20
0.0
  0
LINE
  5
380
100
AcDbEntity
  8
0
  6
CONTINUOUS
 62
     2
100
AcDbLine
 10
32.0
 20
47.0
 11
16.0
 21
47.0
  0
LINE
  5
381
100
AcDbEntity
  8
0
  6
CONTINUOUS
 62
     2
100
AcDbLine
 10
30.0
 20
46.5
 11
32.0
 21
47.0
  0
LINE
  5
382
100
AcDbEntity
  8
0
  6
CONTINUOUS
 62
     2
100
AcDbLine
 10
32.0
 20
47.0
 11
30.0
 21
47.5
  0
LINE
  5
383
100
AcDbEntity
  8
0
  6
CONTINUOUS
 62
     2
100
AcDbLine
 10
-1.77635683940025E-015
 20
47.0
 11
16.0
 21
47.0
  0
LINE
  5
384
100
AcDbEntity
  8
0
  6
CONTINUOUS
 62
     2
100
AcDbLine
 10
2.0
 20
47.5
 11
-1.77635683940025E-015
 21
47.0
  0
LINE
  5
385
100
AcDbEntity
  8
0
  6
CONTINUOUS
 62
     2
100
AcDbLine
 10
-1.77635683940025E-015
 20
47.0
 11
2.0
 21
46.5
  0
LINE
  5
386
100
AcDbEntity
  8
0
  6
CONTINUOUS
 62
     2
100
AcDbLine
 10
32.0
 20
17.5
 11
32.0
 21
48.0
  0
LINE
  5
387
100
AcDbEntity
  8
0
  6
CONTINUOUS
 62
     2
100
AcDbLine
 10
-2.07761033847983E-017
 20
4.75
 11
-1.81790904616985E-015
 21
48.0
  0
MTEXT
  5
388
100
AcDbEntity
  8
0
  6
CONTINUOUS
 62
     2
100
AcDbMText
 10
13.8125
 20
47.5
 40
3.5
 41
0.0
 11
1.0
 21
0.0
 71
     7
 72
     5
  7
STANDARD
  1
{\T1.60714;\W0.666667;32}
 73
     1
 44
1.0
  0
POINT
  5
389
100
AcDbEntity
  8
DEFPOINTS
  6
BYBLOCK
 62
     0
100
AcDbPoint
 10
32.0
 20
17.0
  0
POINT
  5
38A
100
AcDbEntity
  8
DEFPOINTS
  6
BYBLOCK
 62
     0
100
AcDbPoint
 10
0.0
 20
4.25
  0
POINT
  5
38B
100
AcDbEntity
  8
DEFPOINTS
  6
BYBLOCK
 62
     0
100
AcDbPoint
 10
-1.77635683940025E-015
 20
47.0
  0
ENDBLK
  5
38C
100
AcDbEntity
  8
4
100
AcDbBlockEnd
  0
BLOCK
  5
38F
100
AcDbEntity
  8
0
100
AcDbBlockBegin
  2
*D14
 70
    65
 10
0.0
 20
0.0
  0
LINE
  5
390
100
AcDbEntity
  8
0
  6
CONTINUOUS
 62
     2
100
AcDbLine
 10
-14.7560938647571
 20
17.5
 11
-14.7560938647571
 21
0.0
  0
LINE
  5
391
100
AcDbEntity
  8
0
  6
CONTINUOUS
 62
     2
100
AcDbLine
 10
-14.2560938647571
 20
15.5
 11
-14.7560938647571
 21
17.5
  0
LINE
  5
392
100
AcDbEntity
  8
0
  6
CONTINUOUS
 62
     2
100
AcDbLine
 10
-14.7560938647571
 20
17.5
 11
-15.2560938647571
 21
15.5
  0
LINE
  5
393
100
AcDbEntity
  8
0
  6
CONTINUOUS
 62
     2
100
AcDbLine
 10
-14.7560938647571
 20
-17.5
 11
-14.7560938647571
 21
0.0
  0
LINE
  5
394
100
AcDbEntity
  8
0
  6
CONTINUOUS
 62
     2
100
AcDbLine
 10
-15.2560938647571
 20
-15.5
 11
-14.7560938647571
 21
-17.5
  0
LINE
  5
395
100
AcDbEntity
  8
0
  6
CONTINUOUS
 62
     2
100
AcDbLine
 10
-14.7560938647571
 20
-17.5
 11
-14.2560938647571
 21
-15.5
  0
LINE
  5
396
100
AcDbEntity
  8
0
  6
CONTINUOUS
 62
     2
100
AcDbLine
 10
32.0
 20
17.5
 11
-15.7560938647571
 21
17.5
  0
LINE
  5
397
100
AcDbEntity
  8
0
  6
CONTINUOUS
 62
     2
100
AcDbLine
 10
32.0
 20
-17.5
 11
-15.7560938647571
 21
-17.5
  0
MTEXT
  5
398
100
AcDbEntity
  8
0
  6
CONTINUOUS
 62
     2
100
AcDbMText
 10
-16.2560938647571
 20
-8.37499999999995
 40
3.5
 41
0.0
 11
6.12323399573677E-017
 21
1.0
 71
     7
 72
     5
  7
STANDARD
  1
{\T1.60714;\W0.666667;%%c35}
 73
     1
 44
1.0
  0
MTEXT
  5
399
100
AcDbEntity
  8
0
  6
CONTINUOUS
 62
     2
100
AcDbMText
 10
-18.2560938647571
 20
-0.375
 40
2.5
 41
0.0
 11
6.12323399573677E-017
 21
1.0
 71
     7
 72
     5
  7
STANDARD
  1
{\T1.60714;\W0.666667;-0.05}
 73
     1
 44
1.0
  0
MTEXT
  5
39A
100
AcDbEntity
  8
0
  6
CONTINUOUS
 62
     2
100
AcDbMText
 10
-15.2560938647571
 20
-0.375
 40
2.5
 41
0.0
 11
6.12323399573677E-017
 21
1.0
 71
     7
 72
     5
  7
STANDARD
  1
{\T1.60714;\W0.666667;-0.1}
 73
     1
 44
1.0
  0
POINT
  5
39B
100
AcDbEntity
  8
DEFPOINTS
  6
BYBLOCK
 62
     0
100
AcDbPoint
 10
32.5
 20
17.5
  0
POINT
  5
39C
100
AcDbEntity
  8
DEFPOINTS
  6
BYBLOCK
 62
     0
100
AcDbPoint
 10
32.5
 20
-17.5
  0
POINT
  5
39D
100
AcDbEntity
  8
DEFPOINTS
  6
BYBLOCK
 62
     0
100
AcDbPoint
 10
-14.7560938647571
 20
-17.5
  0
ENDBLK
  5
39E
100
AcDbEntity
  8
4
100
AcDbBlockEnd
  0
BLOCK
  5
3A1
100
AcDbEntity
  8
0
100
AcDbBlockBegin
  2
*D15
 70
    65
 10
0.0
 20
0.0
  0
LINE
  5
3A2
100
AcDbEntity
  8
0
  6
CONTINUOUS
 62
     2
100
AcDbLine
 10
311.9
 20
47.0
 11
173.95
 21
47.0
  0
LINE
  5
3A3
100
AcDbEntity
  8
0
  6
CONTINUOUS
 62
     2
100
AcDbLine
 10
309.9
 20
46.5
 11
311.9
 21
47.0
  0
LINE
  5
3A4
100
AcDbEntity
  8
0
  6
CONTINUOUS
 62
     2
100
AcDbLine
 10
311.9
 20
47.0
 11
309.9
 21
47.5
  0
LINE
  5
3A5
100
AcDbEntity
  8
0
  6
CONTINUOUS
 62
     2
100
AcDbLine
 10
36.0
 20
47.0
 11
173.95
 21
47.0
  0
LINE
  5
3A6
100
AcDbEntity
  8
0
  6
CONTINUOUS
 62
     2
100
AcDbLine
 10
38.0
 20
47.5
 11
36.0
 21
47.0
  0
LINE
  5
3A7
100
AcDbEntity
  8
0
  6
CONTINUOUS
 62
     2
100
AcDbLine
 10
36.0
 20
47.0
 11
38.0
 21
46.5
  0
LINE
  5
3A8
100
AcDbEntity
  8
0
  6
CONTINUOUS
 62
     2
100
AcDbLine
 10
311.9
 20
44.0554033409044
 11
311.9
 21
48.0
  0
LINE
  5
3A9
100
AcDbEntity
  8
0
  6
CONTINUOUS
 62
     2
100
AcDbLine
 10
36.0
 20
28.0
 11
36.0
 21
48.0
  0
MTEXT
  5
3AA
100
AcDbEntity
  8
0
  6
CONTINUOUS
 62
     2
100
AcDbMText
 10
167.825
 20
47.5
 40
3.5
 41
0.0
 11
1.0
 21
0.0
 71
     7
 72
     5
  7
STANDARD
  1
{\T1.60714;\W0.666667;275.9}
 73
     1
 44
1.0
  0
POINT
  5
3AB
100
AcDbEntity
  8
DEFPOINTS
  6
BYBLOCK
 62
     0
100
AcDbPoint
 10
311.9
 20
43.5554033409044
  0
POINT
  5
3AC
100
AcDbEntity
  8
DEFPOINTS
  6
BYBLOCK
 62
     0
100
AcDbPoint
 10
36.0
 20
27.5
  0
POINT
  5
3AD
100
AcDbEntity
  8
DEFPOINTS
  6
BYBLOCK
 62
     0
100
AcDbPoint
 10
36.0
 20
47.0
  0
ENDBLK
  5
3AE
100
AcDbEntity
  8
4
100
AcDbBlockEnd
  0
BLOCK
  5
3B1
100
AcDbEntity
  8
0
100
AcDbBlockBegin
  2
*D16
 70
    65
 10
0.0
 20
0.0
  0
LINE
  5
3B2
100
AcDbEntity
  8
0
  6
CONTINUOUS
 62
     2
100
AcDbLine
 10
0.0
 20
56.0
 11
155.95
 21
56.0
  0
LINE
  5
3B3
100
AcDbEntity
  8
0
  6
CONTINUOUS
 62
     2
100
AcDbLine
 10
2.0
 20
56.5
 11
0.0
 21
56.0
  0
LINE
  5
3B4
100
AcDbEntity
  8
0
  6
CONTINUOUS
 62
     2
100
AcDbLine
 10
0.0
 20
56.0
 11
2.0
 21
55.5
  0
LINE
  5
3B5
100
AcDbEntity
  8
0
  6
CONTINUOUS
 62
     2
100
AcDbLine
 10
311.9
 20
56.0
 11
155.95
 21
56.0
  0
LINE
  5
3B6
100
AcDbEntity
  8
0
  6
CONTINUOUS
 62
     2
100
AcDbLine
 10
309.9
 20
55.5
 11
311.9
 21
56.0
  0
LINE
  5
3B7
100
AcDbEntity
  8
0
  6
CONTINUOUS
 62
     2
100
AcDbLine
 10
311.9
 20
56.0
 11
309.9
 21
56.5
  0
LINE
  5
3B8
100
AcDbEntity
  8
0
  6
CONTINUOUS
 62
     2
100
AcDbLine
 10
0.0
 20
4.75
 11
0.0
 21
57.0
  0
LINE
  5
3B9
100
AcDbEntity
  8
0
  6
CONTINUOUS
 62
     2
100
AcDbLine
 10
311.9
 20
31.199999999265
 11
311.9
 21
57.0
  0
MTEXT
  5
3BA
100
AcDbEntity
  8
0
  6
CONTINUOUS
 62
     2
100
AcDbMText
 10
149.825
 20
56.5
 40
3.5
 41
0.0
 11
1.0
 21
0.0
 71
     7
 72
     5
  7
STANDARD
  1
{\T1.60714;\W0.666667;311.9}
 73
     1
 44
1.0
  0
POINT
  5
3BB
100
AcDbEntity
  8
DEFPOINTS
  6
BYBLOCK
 62
     0
100
AcDbPoint
 10
0.0
 20
4.25
  0
POINT
  5
3BC
100
AcDbEntity
  8
DEFPOINTS
  6
BYBLOCK
 62
     0
100
AcDbPoint
 10
311.9
 20
30.699999999265
  0
POINT
  5
3BD
100
AcDbEntity
  8
DEFPOINTS
  6
BYBLOCK
 62
     0
100
AcDbPoint
 10
311.9
 20
56.0
  0
ENDBLK
  5
3BE
100
AcDbEntity
  8
4
100
AcDbBlockEnd
  0
BLOCK
  5
3C1
100
AcDbEntity
  8
0
100
AcDbBlockBegin
  2
*D17
 70
    65
 10
0.0
 20
0.0
  0
LINE
  5
3C2
100
AcDbEntity
  8
0
  6
CONTINUOUS
 62
     2
100
AcDbLine
 10
32.0
 20
47.0
 11
27.0
 21
47.0
  0
LINE
  5
3C3
100
AcDbEntity
  8
0
  6
CONTINUOUS
 62
     2
100
AcDbLine
 10
30.0
 20
46.5
 11
32.0
 21
47.0
  0
LINE
  5
3C4
100
AcDbEntity
  8
0
  6
CONTINUOUS
 62
     2
100
AcDbLine
 10
32.0
 20
47.0
 11
30.0
 21
47.5
  0
LINE
  5
3C5
100
AcDbEntity
  8
0
  6
CONTINUOUS
 62
     2
100
AcDbLine
 10
32.0
 20
47.0
 11
34.0
 21
47.0
  0
LINE
  5
3C6
100
AcDbEntity
  8
0
  6
CONTINUOUS
 62
     2
100
AcDbLine
 10
36.0
 20
47.0
 11
34.0
 21
47.0
  0
LINE
  5
3C7
100
AcDbEntity
  8
0
  6
CONTINUOUS
 62
     2
100
AcDbLine
 10
36.0
 20
47.0
 11
41.0
 21
47.0
  0
LINE
  5
3C8
100
AcDbEntity
  8
0
  6
CONTINUOUS
 62
     2
100
AcDbLine
 10
38.0
 20
47.5
 11
36.0
 21
47.0
  0
LINE
  5
3C9
100
AcDbEntity
  8
0
  6
CONTINUOUS
 62
     2
100
AcDbLine
 10
36.0
 20
47.0
 11
38.0
 21
46.5
  0
LINE
  5
3CA
100
AcDbEntity
  8
0
  6
CONTINUOUS
 62
     2
100
AcDbLine
 10
32.0
 20
17.5
 11
32.0
 21
48.0
  0
LINE
  5
3CB
100
AcDbEntity
  8
0
  6
CONTINUOUS
 62
     2
100
AcDbLine
 10
36.0
 20
28.0
 11
36.0
 21
48.0
  0
MTEXT
  5
3CC
100
AcDbEntity
  8
0
  6
CONTINUOUS
 62
     2
100
AcDbMText
 10
33.125
 20
47.5
 40
3.5
 41
0.0
 11
1.0
 21
0.0
 71
     7
 72
     5
  7
STANDARD
  1
{\T1.60714;\W0.666667;4}
 73
     1
 44
1.0
  0
POINT
  5
3CD
100
AcDbEntity
  8
DEFPOINTS
  6
BYBLOCK
 62
     0
100
AcDbPoint
 10
32.0
 20
17.0
  0
POINT
  5
3CE
100
AcDbEntity
  8
DEFPOINTS
  6
BYBLOCK
 62
     0
100
AcDbPoint
 10
36.0
 20
27.5
  0
POINT
  5
3CF
100
AcDbEntity
  8
DEFPOINTS
  6
BYBLOCK
 62
     0
100
AcDbPoint
 10
36.0
 20
47.0
  0
ENDBLK
  5
3D0
100
AcDbEntity
  8
4
100
AcDbBlockEnd
  0
BLOCK
  5
3D6
100
AcDbEntity
  8
0
100
AcDbBlockBegin
  2
*D18
 70
    65
 10
0.0
 20
0.0
  0
LINE
  5
3D7
100
AcDbEntity
  8
0
  6
CONTINUOUS
 62
     2
100
AcDbLine
 10
0.0
 20
29.0
 11
-5.0
 21
29.0
  0
LINE
  5
3D8
100
AcDbEntity
  8
0
  6
CONTINUOUS
 62
     2
100
AcDbLine
 10
-2.0
 20
28.5
 11
0.0
 21
29.0
  0
LINE
  5
3D9
100
AcDbEntity
  8
0
  6
CONTINUOUS
 62
     2
100
AcDbLine
 10
0.0
 20
29.0
 11
-2.0
 21
29.5
  0
LINE
  5
3DA
100
AcDbEntity
  8
0
  6
CONTINUOUS
 62
     2
100
AcDbLine
 10
0.0
 20
29.0
 11
2.5
 21
29.0
  0
LINE
  5
3DB
100
AcDbEntity
  8
0
  6
CONTINUOUS
 62
     2
100
AcDbLine
 10
5.0
 20
29.0
 11
2.5
 21
29.0
  0
LINE
  5
3DC
100
AcDbEntity
  8
0
  6
CONTINUOUS
 62
     2
100
AcDbLine
 10
5.0
 20
29.0
 11
10.0
 21
29.0
  0
LINE
  5
3DD
100
AcDbEntity
  8
0
  6
CONTINUOUS
 62
     2
100
AcDbLine
 10
7.0
 20
29.5
 11
5.0
 21
29.0
  0
LINE
  5
3DE
100
AcDbEntity
  8
0
  6
CONTINUOUS
 62
     2
100
AcDbLine
 10
5.0
 20
29.0
 11
7.0
 21
28.5
  0
LINE
  5
3DF
100
AcDbEntity
  8
0
  6
CONTINUOUS
 62
     2
100
AcDbLine
 10
0.0
 20
4.75
 11
0.0
 21
30.0
  0
LINE
  5
3E0
100
AcDbEntity
  8
0
  6
CONTINUOUS
 62
     2
100
AcDbLine
 10
5.0
 20
5.25
 11
5.0
 21
30.0
  0
MTEXT
  5
3E1
100
AcDbEntity
  8
0
  6
CONTINUOUS
 62
     2
100
AcDbMText
 10
1.625
 20
29.5
 40
3.5
 41
0.0
 11
1.0
 21
0.0
 71
     7
 72
     5
  7
STANDARD
  1
{\T1.60714;\W0.666667;5}
 73
     1
 44
1.0
  0
POINT
  5
3E2
100
AcDbEntity
  8
DEFPOINTS
  6
BYBLOCK
 62
     0
100
AcDbPoint
 10
0.0
 20
4.25
  0
POINT
  5
3E3
100
AcDbEntity
  8
DEFPOINTS
  6
BYBLOCK
 62
     0
100
AcDbPoint
 10
5.0
 20
4.75
  0
POINT
  5
3E4
100
AcDbEntity
  8
DEFPOINTS
  6
BYBLOCK
 62
     0
100
AcDbPoint
 10
5.0
 20
29.0
  0
ENDBLK
  5
3E5
100
AcDbEntity
  8
4
100
AcDbBlockEnd
  0
BLOCK
  5
3E8
100
AcDbEntity
  8
0
100
AcDbBlockBegin
  2
*D19
 70
    65
 10
0.0
 20
0.0
  0
LINE
  5
3E9
100
AcDbEntity
  8
0
  6
CONTINUOUS
 62
     2
100
AcDbLine
 10
5.0
 20
29.039520609652
 11
8.0
 21
29.039520609652
  0
LINE
  5
3EA
100
AcDbEntity
  8
0
  6
CONTINUOUS
 62
     2
100
AcDbLine
 10
7.0
 20
29.539520609652
 11
5.0
 21
29.039520609652
  0
LINE
  5
3EB
100
AcDbEntity
  8
0
  6
CONTINUOUS
 62
     2
100
AcDbLine
 10
5.0
 20
29.039520609652
 11
7.0
 21
28.539520609652
  0
LINE
  5
3EC
100
AcDbEntity
  8
0
  6
CONTINUOUS
 62
     2
100
AcDbLine
 10
5.0
 20
29.039520609652
 11
2.5
 21
29.039520609652
  0
LINE
  5
3ED
100
AcDbEntity
  8
0
  6
CONTINUOUS
 62
     2
100
AcDbLine
 10
0.0
 20
29.039520609652
 11
2.5
 21
29.039520609652
  0
LINE
  5
3EE
100
AcDbEntity
  8
0
  6
CONTINUOUS
 62
     2
100
AcDbLine
 10
0.0
 20
29.039520609652
 11
-3.0
 21
29.039520609652
  0
LINE
  5
3EF
100
AcDbEntity
  8
0
  6
CONTINUOUS
 62
     2
100
AcDbLine
 10
-2.0
 20
28.539520609652
 11
0.0
 21
29.039520609652
  0
LINE
  5
3F0
100
AcDbEntity
  8
0
  6
CONTINUOUS
 62
     2
100
AcDbLine
 10
0.0
 20
29.039520609652
 11
-2.0
 21
29.539520609652
  0
LINE
  5
3F1
100
AcDbEntity
  8
0
  6
CONTINUOUS
 62
     2
100
AcDbLine
 10
5.0
 20
5.25
 11
5.0
 21
30.039520609652
  0
LINE
  5
3F2
100
AcDbEntity
  8
0
  6
CONTINUOUS
 62
     2
100
AcDbLine
 10
0.0
 20
4.75
 11
0.0
 21
30.039520609652
  0
MTEXT
  5
3F3
100
AcDbEntity
  8
0
  6
CONTINUOUS
 62
     2
100
AcDbMText
 10
1.625
 20
29.539520609652
 40
3.5
 41
0.0
 11
1.0
 21
0.0
 71
     7
 72
     5
  7
STANDARD
  1
{\T1.60714;\W0.666667;5}
 73
     1
 44
1.0
  0
POINT
  5
3F4
100
AcDbEntity
  8
DEFPOINTS
  6
BYBLOCK
 62
     0
100
AcDbPoint
 10
5.0
 20
4.75
  0
POINT
  5
3F5
100
AcDbEntity
  8
DEFPOINTS
  6
BYBLOCK
 62
     0
100
AcDbPoint
 10
0.0
 20
4.25
  0
POINT
  5
3F6
100
AcDbEntity
  8
DEFPOINTS
  6
BYBLOCK
 62
     0
100
AcDbPoint
 10
0.0
 20
29.039520609652
  0
ENDBLK
  5
3F7
100
AcDbEntity
  8
4
100
AcDbBlockEnd
  0
BLOCK
  5
3FA
100
AcDbEntity
  8
0
100
AcDbBlockBegin
  2
*D20
 70
    65
 10
0.0
 20
0.0
  0
LINE
  5
3FB
100
AcDbEntity
  8
0
  6
CONTINUOUS
 62
     2
100
AcDbLine
 10
-7.7560938647572
 20
6.0
 11
-7.7560938647572
 21
0.0
  0
LINE
  5
3FC
100
AcDbEntity
  8
0
  6
CONTINUOUS
 62
     2
100
AcDbLine
 10
-7.2560938647572
 20
4.0
 11
-7.7560938647572
 21
6.0
  0
LINE
  5
3FD
100
AcDbEntity
  8
0
  6
CONTINUOUS
 62
     2
100
AcDbLine
 10
-7.7560938647572
 20
6.0
 11
-8.2560938647572
 21
4.0
  0
LINE
  5
3FE
100
AcDbEntity
  8
0
  6
CONTINUOUS
 62
     2
100
AcDbLine
 10
-7.7560938647572
 20
-6.0
 11
-7.7560938647572
 21
0.0
  0
LINE
  5
3FF
100
AcDbEntity
  8
0
  6
CONTINUOUS
 62
     2
100
AcDbLine
 10
-8.2560938647572
 20
-4.0
 11
-7.7560938647572
 21
-6.0
  0
LINE
  5
400
100
AcDbEntity
  8
0
  6
CONTINUOUS
 62
     2
100
AcDbLine
 10
-7.7560938647572
 20
-6.0
 11
-7.2560938647572
 21
-4.0
  0
LINE
  5
401
100
AcDbEntity
  8
0
  6
CONTINUOUS
 62
     2
100
AcDbLine
 10
11.5
 20
6.0
 11
-8.7560938647572
 21
6.0
  0
LINE
  5
402
100
AcDbEntity
  8
0
  6
CONTINUOUS
 62
     2
100
AcDbLine
 10
11.5
 20
-6.0
 11
-8.7560938647572
 21
-6.0
  0
MTEXT
  5
403
100
AcDbEntity
  8
0
  6
CONTINUOUS
 62
     2
100
AcDbMText
 10
-8.2560938647572
 20
-3.5
 40
3.5
 41
0.0
 11
6.12323399573677E-017
 21
1.0
 71
     7
 72
     5
  7
STANDARD
  1
{\T1.60714;\W0.666667;%%c12}
 73
     1
 44
1.0
  0
POINT
  5
404
100
AcDbEntity
  8
DEFPOINTS
  6
BYBLOCK
 62
     0
100
AcDbPoint
 10
12.0
 20
6.0
  0
POINT
  5
405
100
AcDbEntity
  8
DEFPOINTS
  6
BYBLOCK
 62
     0
100
AcDbPoint
 10
12.0
 20
-6.0
  0
POINT
  5
406
100
AcDbEntity
  8
DEFPOINTS
  6
BYBLOCK
 62
     0
100
AcDbPoint
 10
-7.7560938647572
 20
-6.0
  0
ENDBLK
  5
407
100
AcDbEntity
  8
4
100
AcDbBlockEnd
  0
BLOCK
  5
40A
100
AcDbEntity
  8
0
100
AcDbBlockBegin
  2
*D21
 70
    65
 10
0.0
 20
0.0
  0
LINE
  5
40B
100
AcDbEntity
  8
0
  6
CONTINUOUS
 62
     2
100
AcDbLine
 10
5.62571858945249
 20
-1.4725746999089
 11
11.589371579462
 21
-15.5075173405169
  0
LINE
  5
40C
100
AcDbEntity
  8
0
  6
CONTINUOUS
 62
     2
100
AcDbLine
 10
11.589371579462
 20
-15.5075173405169
 11
22.214371579462
 21
-15.5075173405169
  0
LINE
  5
40D
100
AcDbEntity
  8
0
  6
CONTINUOUS
 62
     2
100
AcDbLine
 10
6.86804641998985
 20
-3.11775601559186
 11
5.62571858945249
 21
-1.4725746999089
  0
LINE
  5
40E
100
AcDbEntity
  8
0
  6
CONTINUOUS
 62
     2
100
AcDbLine
 10
5.62571858945249
 20
-1.4725746999089
 11
5.94768723254642
 21
-3.50883013399968
  0
LINE
  5
40F
100
AcDbEntity
  8
0
  6
CONTINUOUS
 62
     2
100
AcDbLine
 10
5.62571858945249
 20
-1.4725746999089
 11
5.0
 21
0.0
  0
LINE
  5
410
100
AcDbEntity
  8
0
  6
CONTINUOUS
 62
     2
100
AcDbLine
 10
4.3742814105475
 20
1.4725746999101
 11
5.0
 21
0.0
  0
LINE
  5
411
100
AcDbEntity
  8
0
  6
CONTINUOUS
 62
     2
100
AcDbLine
 10
4.3742814105475
 20
1.4725746999101
 11
3.201059055324
 21
4.2336522622401
  0
LINE
  5
412
100
AcDbEntity
  8
0
  6
CONTINUOUS
 62
     2
100
AcDbLine
 10
3.13195358001013
 20
3.11775601559306
 11
4.3742814105475
 21
1.4725746999101
  0
LINE
  5
413
100
AcDbEntity
  8
0
  6
CONTINUOUS
 62
     2
100
AcDbLine
 10
4.3742814105475
 20
1.4725746999101
 11
4.05231276745357
 21
3.50883013400089
  0
MTEXT
  5
414
100
AcDbEntity
  8
0
  6
CONTINUOUS
 62
     2
100
AcDbMText
 10
12.089371579462
 20
-15.0075173405169
 40
3.5
 41
0.0
 11
1.0
 21
0.0
 71
     7
 72
     5
  7
STANDARD
  1
{\T1.60714;\W0.666667;%%c3.2}
 73
     1
 44
1.0
  0
POINT
  5
415
100
AcDbEntity
  8
DEFPOINTS
  6
BYBLOCK
 62
     0
100
AcDbPoint
 10
4.3742814105475
 20
1.4725746999101
  0
POINT
  5
416
100
AcDbEntity
  8
DEFPOINTS
  6
BYBLOCK
 62
     0
100
AcDbPoint
 10
5.62571858945249
 20
-1.4725746999089
  0
ENDBLK
  5
417
100
AcDbEntity
  8
4
100
AcDbBlockEnd
  0
BLOCK
  5
464
100
AcDbEntity
  8
0
100
AcDbBlockBegin
  2
*D22
 70
    65
 10
0.0
 20
0.0
  0
LINE
  5
465
100
AcDbEntity
  8
0
  6
CONTINUOUS
 62
     2
100
AcDbLine
 10
311.9
 20
56.0
 11
347.9
 21
56.0
  0
LINE
  5
466
100
AcDbEntity
  8
0
  6
CONTINUOUS
 62
     2
100
AcDbLine
 10
313.9
 20
56.5
 11
311.9
 21
56.0
  0
LINE
  5
467
100
AcDbEntity
  8
0
  6
CONTINUOUS
 62
     2
100
AcDbLine
 10
311.9
 20
56.0
 11
313.9
 21
55.5
  0
LINE
  5
468
100
AcDbEntity
  8
0
  6
CONTINUOUS
 62
     2
100
AcDbLine
 10
383.9
 20
56.0
 11
347.9
 21
56.0
  0
LINE
  5
469
100
AcDbEntity
  8
0
  6
CONTINUOUS
 62
     2
100
AcDbLine
 10
381.9
 20
55.5
 11
383.9
 21
56.0
  0
LINE
  5
46A
100
AcDbEntity
  8
0
  6
CONTINUOUS
 62
     2
100
AcDbLine
 10
383.9
 20
56.0
 11
381.9
 21
56.5
  0
LINE
  5
46B
100
AcDbEntity
  8
0
  6
CONTINUOUS
 62
     2
100
AcDbLine
 10
311.9
 20
34.2307387670581
 11
311.9
 21
57.0
  0
LINE
  5
46C
100
AcDbEntity
  8
0
  6
CONTINUOUS
 62
     2
100
AcDbLine
 10
383.9
 20
29.096421786898
 11
383.9
 21
57.0
  0
MTEXT
  5
46D
100
AcDbEntity
  8
0
  6
CONTINUOUS
 62
     2
100
AcDbMText
 10
343.0875
 20
56.5
 40
3.5
 41
0.0
 11
1.0
 21
0.0
 71
     7
 72
     5
  7
STANDARD
  1
{\T1.60714;\W0.666667;(72)}
 73
     1
 44
1.0
  0
POINT
  5
46E
100
AcDbEntity
  8
DEFPOINTS
  6
BYBLOCK
 62
     0
100
AcDbPoint
 10
311.9
 20
33.7307387670581
  0
POINT
  5
46F
100
AcDbEntity
  8
DEFPOINTS
  6
BYBLOCK
 62
     0
100
AcDbPoint
 10
383.9
 20
28.596421786898
  0
POINT
  5
470
100
AcDbEntity
  8
DEFPOINTS
  6
BYBLOCK
 62
     0
100
AcDbPoint
 10
383.9
 20
56.0
  0
ENDBLK
  5
471
100
AcDbEntity
  8
4
100
AcDbBlockEnd
  0
BLOCK
  5
364
100
AcDbEntity
  8
2
100
AcDbBlockBegin
  2
M5_0001
 70
    64
 10
0.0
 20
0.0
  0
CIRCLE
  5
365
100
AcDbEntity
  8
2
  6
CONTINUOUS
 62
     0
100
AcDbCircle
 10
0.0
 20
0.0
 40
2.1
  0
CIRCLE
  5
366
100
AcDbEntity
  8
8
  6
CONTINUOUS
 62
     7
100
AcDbCircle
 10
0.0
 20
0.0
 40
2.5
  0
ENDBLK
  5
367
100
AcDbEntity
  8
8
100
AcDbBlockEnd
  0
BLOCK
  5
36A
100
AcDbEntity
  8
2
100
AcDbBlockBegin
  2
M5_0002
 70
    64
 10
0.0
 20
0.0
  0
CIRCLE
  5
36B
100
AcDbEntity
  8
2
  6
CONTINUOUS
 62
     0
100
AcDbCircle
 10
0.0
 20
0.0
 40
2.1
  0
CIRCLE
  5
36C
100
AcDbEntity
  8
8
  6
CONTINUOUS
 62
     7
100
AcDbCircle
 10
0.0
 20
0.0
 40
2.5
  0
ENDBLK
  5
36D
100
AcDbEntity
  8
8
100
AcDbBlockEnd
  0
BLOCK
  5
27
100
AcDbEntity
  8
4
100
AcDbBlockBegin
  2
SUB1
 70
    64
 10
0.0
 20
0.0
  0
LINE
  5
28
100
AcDbEntity
  8
6
  6
CENTER
 62
     0
100
AcDbLine
 10
102.0
 20
38.424039087007
 11
102.0
 21
22.593744682063
  0
LINE
  5
2A
100
AcDbEntity
  8
0
  6
CONTINUOUS
 62
     0
100
AcDbLine
 10
252.5
 20
-19.999999999999
 11
207.5
 21
-19.999999999999
  0
LINE
  5
2B
100
AcDbEntity
  8
6
  6
CENTER
 62
     0
100
AcDbLine
 10
235.51807407732
 20
18.000000000003
 11
377.9000011628
 21
18.000000000003
  0
LINE
  5
2C
100
AcDbEntity
  8
0
  6
CONTINUOUS
 62
     0
100
AcDbLine
 10
252.5
 20
-19.999999999999
 11
252.5
 21
36.000000000003
  0
LINE
  5
2D
100
AcDbEntity
  8
0
  6
CONTINUOUS
 62
     0
100
AcDbLine
 10
207.5
 20
36.000000000003
 11
207.5
 21
16.000000000002
  0
LINE
  5
2E
100
AcDbEntity
  8
0
  6
CONTINUOUS
 62
     0
100
AcDbLine
 10
207.5
 20
-19.999999999999
 11
207.5
 21
-15.999999999998
  0
ELLIPSE
  5
2F
100
AcDbEntity
  8
0
  6
CONTINUOUS
 62
     0
100
AcDbEllipse
 10
213.0
 20
-8.34999999996199
 30
0.0
 11
-3.5
 21
0.0
 31
0.0
210
0.0
220
0.0
230
1.0
 40
0.866025403807425
 41
0.0793066647157528
 42
3.06228598887404
  0
ELLIPSE
  5
30
100
AcDbEntity
  8
0
  6
CONTINUOUS
 62
     0
100
AcDbEllipse
 10
213.0
 20
-8.83026729068999
 30
0.0
 11
-3.5
 21
0.0
 31
0.0
210
0.0
220
0.0
230
1.0
 40
0.866025403807425
 41
1.41410031826234E-016
 42
6.28318530717959
  0
ELLIPSE
  5
31
100
AcDbEntity
  8
0
  6
CONTINUOUS
 62
     0
100
AcDbEllipse
 10
212.999999999999
 20
10.3923048454685
 30
0.0
 11
0.0
 21
-4.0414518843275
 31
0.0
210
0.0
220
0.0
230
1.0
 40
0.866025403784652
 41
2.12115047744929E-016
 42
6.28318530717959
  0
LINE
  5
32
100
AcDbEntity
  8
0
  6
CONTINUOUS
 62
     0
100
AcDbLine
 10
252.5
 20
-18.248397601932
 11
207.5
 21
-18.248397601932
  0
LINE
  5
33
100
AcDbEntity
  8
0
  6
CONTINUOUS
 62
     0
100
AcDbLine
 10
253.5
 20
1.729999999265
 11
256.7
 21
1.729999999265
  0
LINE
  5
34
100
AcDbEntity
  8
0
  6
CONTINUOUS
 62
     0
100
AcDbLine
 10
256.7
 20
1.729999999265
 11
256.7
 21
34.269999999265
  0
LINE
  5
35
100
AcDbEntity
  8
0
  6
CONTINUOUS
 62
     0
100
AcDbLine
 10
256.7
 20
34.269999999265
 11
253.5
 21
34.269999999265
  0
LINE
  5
36
100
AcDbEntity
  8
0
  6
CONTINUOUS
 62
     0
100
AcDbLine
 10
259.7
 20
31.699999999265
 11
261.9
 21
31.699999999265
  0
LINE
  5
37
100
AcDbEntity
  8
0
  6
CONTINUOUS
 62
     0
100
AcDbLine
 10
261.9
 20
4.299999999265
 11
259.7
 21
4.299999999265
  0
LINE
  5
38
100
AcDbEntity
  8
6
  6
CENTER
 62
     0
100
AcDbLine
 10
246.580746092321
 20
30.299998287202
 11
261.706642989263
 21
30.299998287202
  0
LWPOLYLINE
  5
39
100
AcDbEntity
  8
0
  6
CONTINUOUS
 62
     0
100
AcDbPolyline
 90
        6
 70
     1
 43
0.0
 10
256.7
 20
33.049998287202
 10
259.4
 20
33.049998287202
 10
259.7
 20
32.749998287202
 10
259.7
 20
27.849998287202
 10
259.4
 20
27.549998287202
 10
256.7
 20
27.549998287202
  0
LINE
  5
3A
100
AcDbEntity
  8
6
  6
CENTER
 62
     0
100
AcDbLine
 10
246.580746092321
 20
5.70000171280401
 11
261.706642989263
 21
5.70000171280401
  0
LWPOLYLINE
  5
3B
100
AcDbEntity
  8
0
  6
CONTINUOUS
 62
     0
100
AcDbPolyline
 90
        6
 70
     1
 43
0.0
 10
256.7
 20
2.95000171280401
 10
259.4
 20
2.95000171280401
 10
259.7
 20
3.25000171280399
 10
259.7
 20
8.150001712804
 10
259.4
 20
8.45000171280401
 10
256.7
 20
8.45000171280401
  0
LWPOLYLINE
  5
3C
100
AcDbEntity
  8
0
  6
CONTINUOUS
 62
     0
100
AcDbPolyline
 90
        4
 70
     1
 43
0.0
 10
253.5
 20
34.269999999265
 10
252.5
 20
34.269999999265
 10
252.5
 20
1.729999999265
 10
253.5
 20
1.729999999265
  0
LINE
  5
3D
100
AcDbEntity
  8
0
  6
CONTINUOUS
 62
     0
100
AcDbLine
 10
207.5
 20
-11.570176974354
 11
252.5
 21
-11.570176974354
  0
LINE
  5
3E
100
AcDbEntity
  8
0
  6
CONTINUOUS
 62
     0
100
AcDbLine
 10
207.2
 20
20.500000000001
 11
202.5
 21
20.500000000001
  0
LINE
  5
3F
100
AcDbEntity
  8
0
  6
CONTINUOUS
 62
     0
100
AcDbLine
 10
202.5
 20
20.500000000001
 11
202.5
 21
-20.499999999996
  0
LINE
  5
40
100
AcDbEntity
  8
0
  6
CONTINUOUS
 62
     0
100
AcDbLine
 10
202.5
 20
-20.499999999996
 11
207.2
 21
-20.499999999996
  0
LINE
  5
41
100
AcDbEntity
  8
0
  6
CONTINUOUS
 62
     0
100
AcDbLine
 10
207.2
 20
-20.499999999996
 11
207.5
 21
-20.199999999996
  0
LINE
  5
42
100
AcDbEntity
  8
0
  6
CONTINUOUS
 62
     0
100
AcDbLine
 10
207.5
 20
-20.199999999996
 11
207.5
 21
20.200000000001
  0
LINE
  5
43
100
AcDbEntity
  8
0
  6
CONTINUOUS
 62
     0
100
AcDbLine
 10
207.5
 20
20.200000000001
 11
207.2
 21
20.500000000001
  0
SPLINE
  5
44
100
AcDbEntity
  8
0
  6
CONTINUOUS
 62
     0
100
AcDbSpline
210
0.0
220
0.0
230
1.0
 70
     8
 71
     3
 72
    23
 73
    19
 74
     0
 42
1.00000000000000E-007
 43
1.00000000000000E-007
 40
0.0
 40
0.0
 40
0.0
 40
0.0
 40
0.526424835887007
 40
1.05168187408958
 40
1.58238120940684
 40
2.12265449513669
 40
2.67492317366382
 40
3.24071236202945
 40
3.82141741790516
 40
4.41898779354654
 40
5.01655816918863
 40
5.59726322506495
 40
6.16305241343111
 40
6.71532109195863
 40
7.25559437768872
 40
7.78629371300617
 40
8.31155075120883
 40
8.83797558709589
 40
8.83797558709589
 40
8.83797558709589
 40
8.83797558709589
 10
216.404331027613
 20
9.45384493374101
 30
0.0
 10
216.357311072097
 20
9.62441321425526
 30
0.0
 10
216.231018331585
 20
9.95299200938236
 30
0.0
 10
215.954435023796
 20
10.4016144524979
 30
0.0
 10
215.600321810415
 20
10.7994186941649
 30
0.0
 10
215.178292982866
 20
11.1398322825113
 30
0.0
 10
214.697962832575
 20
11.4162827656651
 30
0.0
 10
214.168945650967
 20
11.6221976917536
 30
0.0
 10
213.600855729469
 20
11.7510046089046
 30
0.0
 10
213.0
 20
11.7963808348408
 30
0.0
 10
212.39914427053
 20
11.7510046089045
 30
0.0
 10
211.831054349032
 20
11.6221976917533
 30
0.0
 10
211.302037167424
 20
11.4162827656644
 30
0.0
 10
210.821707017132
 20
11.1398322825102
 30
0.0
 10
210.399678189583
 20
10.7994186941632
 30
0.0
 10
210.045564976202
 20
10.4016144524955
 30
0.0
 10
209.768981668414
 20
9.95299200937987
 30
0.0
 10
209.642688927902
 20
9.62441321425237
 30
0.0
 10
209.595668972387
 20
9.453844933738
 30
0.0
  0
LINE
  5
45
100
AcDbEntity
  8
0
  6
CONTINUOUS
 62
     0
100
AcDbLine
 10
207.5
 20
36.000000000003
 11
252.5
 21
36.000000000003
  0
LINE
  5
46
100
AcDbEntity
  8
0
  6
CONTINUOUS
 62
     0
100
AcDbLine
 10
247.5
 20
-19.999999999999
 11
247.5
 21
36.000000000003
  0
LINE
  5
47
100
AcDbEntity
  8
2
  6
CONTINUOUS
 62
     0
100
AcDbLine
 10
98.5
 20
-27.0
 11
98.5
 21
22.5
  0
LINE
  5
49
100
AcDbEntity
  8
2
  6
CONTINUOUS
 62
     0
100
AcDbLine
 10
98.5
 20
-18.25
 11
103.2
 21
-18.25
  0
LINE
  5
4A
100
AcDbEntity
  8
2
  6
CONTINUOUS
 62
     0
100
AcDbLine
 10
103.5
 20
-26.45
 11
103.5
 21
-18.55
  0
LINE
  5
4B
100
AcDbEntity
  8
2
  6
CONTINUOUS
 62
     0
100
AcDbLine
 10
103.5
 20
-18.55
 11
103.2
 21
-18.25
  0
LINE
  5
4C
100
AcDbEntity
  8
2
  6
CONTINUOUS
 62
     0
100
AcDbLine
 10
103.5
 20
-26.45
 11
103.2
 21
-26.75
  0
LINE
  5
4D
100
AcDbEntity
  8
2
  6
CONTINUOUS
 62
     0
100
AcDbLine
 10
103.2
 20
-18.25
 11
103.2
 21
-26.75
  0
LINE
  5
4E
100
AcDbEntity
  8
2
  6
CONTINUOUS
 62
     0
100
AcDbLine
 10
50.5
 20
33.0
 11
98.5
 21
33.0
  0
LINE
  5
4F
100
AcDbEntity
  8
2
  6
CONTINUOUS
 62
     0
100
AcDbLine
 10
-24.0
 20
6.0
 11
-4.0
 21
6.0
  0
LINE
  5
50
100
AcDbEntity
  8
2
  6
CONTINUOUS
 62
     0
100
AcDbLine
 10
-24.0
 20
-6.0
 11
-4.0
 21
-6.0
  0
LINE
  5
51
100
AcDbEntity
  8
2
  6
CONTINUOUS
 62
     0
100
AcDbLine
 10
-36.0
 20
-4.25
 11
-36.0
 21
4.25
  0
LINE
  5
52
100
AcDbEntity
  8
2
  6
CONTINUOUS
 62
     0
100
AcDbLine
 10
-35.5
 20
4.75
 11
-24.0
 21
4.75
  0
LINE
  5
53
100
AcDbEntity
  8
2
  6
CONTINUOUS
 62
     0
100
AcDbLine
 10
-35.5
 20
4.75
 11
-36.0
 21
4.25
  0
LINE
  5
54
100
AcDbEntity
  8
2
  6
CONTINUOUS
 62
     0
100
AcDbLine
 10
-35.5
 20
-4.75
 11
-35.5
 21
-3.49964283891902
  0
LINE
  5
55
100
AcDbEntity
  8
2
  6
CONTINUOUS
 62
     0
100
AcDbLine
 10
-35.5
 20
3.49964283891899
 11
-35.5
 21
4.75
  0
LINE
  5
56
100
AcDbEntity
  8
2
  6
CONTINUOUS
 62
     0
100
AcDbLine
 10
-35.5
 20
3.49964283891899
 11
-24.0
 21
3.49964283891899
  0
ARC
  5
57
100
AcDbEntity
  8
2
  6
CONTINUOUS
 62
     0
100
AcDbCircle
 10
-31.387518997004
 20
0.0
 40
5.4
100
AcDbArc
 50
139.602850955785
 51
148.667405670432
  0
ARC
  5
58
100
AcDbEntity
  8
2
  6
CONTINUOUS
 62
     0
100
AcDbCircle
 10
-31.387518997004
 20
0.0
 40
5.4
100
AcDbArc
 50
211.332594329568
 51
220.397149044216
  0
CIRCLE
  5
59
100
AcDbEntity
  8
2
  6
CONTINUOUS
 62
     0
100
AcDbCircle
 10
-31.0
 20
0.0
 40
1.6
  0
LINE
  5
5A
100
AcDbEntity
  8
7
  6
CENTER2
 62
    40
100
AcDbLine
 10
-31.0
 20
-4.75
 11
-31.0
 21
4.75
  0
LINE
  5
5C
100
AcDbEntity
  8
2
  6
CONTINUOUS
 62
     0
100
AcDbLine
 10
-35.5
 20
-4.75
 11
-24.0
 21
-4.75
  0
LINE
  5
5D
100
AcDbEntity
  8
2
  6
CONTINUOUS
 62
     0
100
AcDbLine
 10
-36.0
 20
-4.25
 11
-35.5
 21
-4.75
  0
LINE
  5
5E
100
AcDbEntity
  8
2
  6
CONTINUOUS
 62
     0
100
AcDbLine
 10
-35.5
 20
-3.49964283891902
 11
-24.0
 21
-3.49964283891902
  0
LINE
  5
5F
100
AcDbEntity
  8
2
  6
CONTINUOUS
 62
     0
100
AcDbLine
 10
-24.0
 20
-6.0
 11
-24.0
 21
6.0
  0
LINE
  5
60
100
AcDbEntity
  8
2
  6
CONTINUOUS
 62
     0
100
AcDbLine
 10
49.5
 20
22.5
 11
49.5
 21
32.0
  0
LINE
  5
61
100
AcDbEntity
  8
2
  6
CONTINUOUS
 62
     0
100
AcDbLine
 10
101.0
 20
35.0
 11
103.0
 21
35.0
  0
LINE
  5
62
100
AcDbEntity
  8
2
  6
CONTINUOUS
 62
     0
100
AcDbLine
 10
104.5
 20
33.5
 11
104.5
 21
33.0
  0
LINE
  5
63
100
AcDbEntity
  8
2
  6
CONTINUOUS
 62
     0
100
AcDbLine
 10
99.5
 20
33.5
 11
99.5
 21
33.0
  0
ARC
  5
64
100
AcDbEntity
  8
2
  6
CONTINUOUS
 62
     0
100
AcDbCircle
 10
101.0
 20
33.5
 40
1.5
100
AcDbArc
 50
90.0
 51
180.0
  0
ARC
  5
65
100
AcDbEntity
  8
2
  6
CONTINUOUS
 62
     0
100
AcDbCircle
 10
103.0
 20
33.5
 40
1.5
100
AcDbArc
 50
0.0
 51
90.0
  0
LINE
  5
66
100
AcDbEntity
  8
2
  6
CONTINUOUS
 62
     0
100
AcDbLine
 10
50.5
 20
33.0
 11
49.5
 21
32.0
  0
LINE
  5
67
100
AcDbEntity
  8
2
  6
CONTINUOUS
 62
     0
100
AcDbLine
 10
98.5
 20
-26.75
 11
103.2
 21
-26.75
  0
LINE
  5
68
100
AcDbEntity
  8
0
  6
CONTINUOUS
 62
     0
100
AcDbLine
 10
106.5
 20
18.174003338202
 11
202.5
 21
18.174003338202
  0
LINE
  5
69
100
AcDbEntity
  8
0
  6
CONTINUOUS
 62
     0
100
AcDbLine
 10
106.5
 20
15.809971077381
 11
202.5
 21
15.809971077381
  0
LINE
  5
6A
100
AcDbEntity
  8
0
  6
CONTINUOUS
 62
     0
100
AcDbLine
 10
202.5
 20
14.627954946971
 11
106.5
 21
14.627954946971
  0
LINE
  5
6B
100
AcDbEntity
  8
2
  6
CONTINUOUS
 62
     0
100
AcDbLine
 10
98.5
 20
33.0
 11
207.5
 21
33.0
  0
LINE
  5
6C
100
AcDbEntity
  8
2
  6
CONTINUOUS
 62
     0
100
AcDbLine
 10
103.5
 20
20.5
 11
207.5
 21
20.5
  0
LINE
  5
6D
100
AcDbEntity
  8
2
  6
CONTINUOUS
 62
     0
100
AcDbLine
 10
103.5
 20
-20.5
 11
207.5
 21
-20.5
  0
LINE
  5
6E
100
AcDbEntity
  8
6
  6
CENTER
 62
     0
100
AcDbLine
 10
-38.0
 20
0.0
 11
280.5
 21
0.0
  0
LINE
  5
6F
100
AcDbEntity
  8
0
  6
CONTINUOUS
 62
     0
100
AcDbLine
 10
202.5
 20
16.991987207791
 11
106.5
 21
16.991987207791
  0
LINE
  5
70
100
AcDbEntity
  8
2
  6
CONTINUOUS
 62
     0
100
AcDbLine
 10
61.0
 20
19.5
 11
61.0
 21
21.0
  0
LINE
  5
71
100
AcDbEntity
  8
2
  6
CONTINUOUS
 62
     0
100
AcDbLine
 10
85.5
 20
-27.0
 11
85.5
 21
22.0
  0
LINE
  5
72
100
AcDbEntity
  8
2
  6
CONTINUOUS
 62
     0
100
AcDbLine
 10
107.23218793128
 20
-18.812850303407
 11
207.5
 21
-18.812850303407
  0
LINE
  5
73
100
AcDbEntity
  8
2
  6
CONTINUOUS
 62
     0
100
AcDbLine
 10
107.285418163976
 20
-18.174003338197
 11
202.5
 21
-18.174003338197
  0
LINE
  5
74
100
AcDbEntity
  8
2
  6
CONTINUOUS
 62
     0
100
AcDbLine
 10
202.5
 20
-16.991987207787
 11
107.361004773305
 21
-16.991987207787
  0
LINE
  5
75
100
AcDbEntity
  8
2
  6
CONTINUOUS
 62
     0
100
AcDbLine
 10
107.402724481035
 20
-15.809971077376
 11
202.5
 21
-15.809971077376
  0
LINE
  5
76
100
AcDbEntity
  8
2
  6
CONTINUOUS
 62
     0
100
AcDbLine
 10
202.5
 20
-14.627954946966
 11
107.405349081898
 21
-14.627954946966
  0
LINE
  5
77
100
AcDbEntity
  8
2
  6
CONTINUOUS
 62
     0
100
AcDbLine
 10
107.10657873022
 20
-11.08190655598
 11
207.5
 21
-11.08190655598
  0
LINE
  5
78
100
AcDbEntity
  8
0
  6
CONTINUOUS
 62
     0
100
AcDbLine
 10
106.5
 20
18.812850303159
 11
207.5
 21
18.812850303159
  0
LINE
  5
79
100
AcDbEntity
  8
0
  6
CONTINUOUS
 62
     0
100
AcDbLine
 10
106.5
 20
11.081906555733
 11
207.5
 21
11.081906555733
  0
LINE
  5
7A
100
AcDbEntity
  8
0
  6
CONTINUOUS
 62
     0
100
AcDbLine
 10
106.5
 20
20.500000000001
 11
202.5
 21
20.500000000001
  0
LINE
  5
7B
100
AcDbEntity
  8
0
  6
CONTINUOUS
 62
     0
100
AcDbLine
 10
202.5
 20
20.500000000001
 11
202.5
 21
-20.499999999996
  0
LINE
  5
7C
100
AcDbEntity
  8
2
  6
CONTINUOUS
 62
     0
100
AcDbLine
 10
202.5
 20
-20.499999999996
 11
106.5
 21
-20.499999999996
  0
LINE
  5
7D
100
AcDbEntity
  8
2
  6
CONTINUOUS
 62
     0
100
AcDbLine
 10
106.5
 20
-20.499999999996
 11
106.5
 21
20.500000000001
  0
LINE
  5
7E
100
AcDbEntity
  8
2
  6
CONTINUOUS
 62
     0
100
AcDbLine
 10
61.000000000001
 20
-27.0
 11
61.000000000001
 21
22.0
  0
LINE
  5
7F
100
AcDbEntity
  8
2
  6
CONTINUOUS
 62
     0
100
AcDbLine
 10
61.000000000001
 20
-6.54222465250402
 11
85.5
 21
-6.54222465250402
  0
LINE
  5
80
100
AcDbEntity
  8
2
  6
CONTINUOUS
 62
     0
100
AcDbLine
 10
61.500000000001
 20
19.880895352071
 11
85.0
 21
19.880895352071
  0
LINE
  5
81
100
AcDbEntity
  8
2
  6
CONTINUOUS
 62
     0
100
AcDbLine
 10
61.500000000001
 20
-27.363927359949
 11
85.0
 21
-27.363927359949
  0
LINE
  5
82
100
AcDbEntity
  8
2
  6
CONTINUOUS
 62
     0
100
AcDbLine
 10
20.0
 20
22.5
 11
20.0
 21
27.5
  0
LINE
  5
83
100
AcDbEntity
  8
2
  6
CONTINUOUS
 62
     0
100
AcDbLine
 10
0.5
 20
27.5
 11
20.0
 21
27.5
  0
LINE
  5
84
100
AcDbEntity
  8
2
  6
CONTINUOUS
 62
     0
100
AcDbLine
 10
60.500000000001
 20
22.5
 11
20.0
 21
22.5
  0
LINE
  5
85
100
AcDbEntity
  8
2
  6
CONTINUOUS
 62
     0
100
AcDbLine
 10
0.0
 20
27.0
 11
0.5
 21
27.5
  0
LINE
  5
86
100
AcDbEntity
  8
2
  6
CONTINUOUS
 62
     0
100
AcDbLine
 10
60.500000000001
 20
22.5
 11
61.000000000001
 21
22.0
  0
LINE
  5
87
100
AcDbEntity
  8
2
  6
CONTINUOUS
 62
     0
100
AcDbLine
 10
0.5
 20
-27.5
 11
60.500000000001
 21
-27.5
  0
LINE
  5
88
100
AcDbEntity
  8
2
  6
CONTINUOUS
 62
     0
100
AcDbLine
 10
-3.5
 20
-17.5
 11
0.0
 21
-17.5
  0
LINE
  5
89
100
AcDbEntity
  8
2
  6
CONTINUOUS
 62
     0
100
AcDbLine
 10
-4.0
 20
-17.0
 11
-3.5
 21
-17.5
  0
LINE
  5
8A
100
AcDbEntity
  8
2
  6
CONTINUOUS
 62
     0
100
AcDbLine
 10
0.0
 20
-27.0
 11
0.0
 21
27.0
  0
LINE
  5
8B
100
AcDbEntity
  8
2
  6
CONTINUOUS
 62
     0
100
AcDbLine
 10
61.000000000001
 20
-27.0
 11
61.000000000001
 21
22.0
  0
LINE
  5
8C
100
AcDbEntity
  8
2
  6
CONTINUOUS
 62
     0
100
AcDbLine
 10
-4.0
 20
17.0
 11
-4.0
 21
-17.0
  0
LINE
  5
8D
100
AcDbEntity
  8
2
  6
CONTINUOUS
 62
     0
100
AcDbLine
 10
-3.5
 20
17.5
 11
-3.5
 21
-17.5
  0
LINE
  5
8E
100
AcDbEntity
  8
2
  6
CONTINUOUS
 62
     0
100
AcDbLine
 10
61.000000000001
 20
-6.54222465250299
 11
0.0
 21
-6.54222465250299
  0
LINE
  5
8F
100
AcDbEntity
  8
2
  6
CONTINUOUS
 62
     0
100
AcDbLine
 10
0.0
 20
-27.0
 11
0.5
 21
-27.5
  0
LINE
  5
90
100
AcDbEntity
  8
2
  6
CONTINUOUS
 62
     0
100
AcDbLine
 10
61.000000000001
 20
-27.0
 11
60.500000000001
 21
-27.5
  0
LINE
  5
91
100
AcDbEntity
  8
2
  6
CONTINUOUS
 62
     0
100
AcDbLine
 10
-3.5
 20
17.5
 11
0.0
 21
17.5
  0
LINE
  5
92
100
AcDbEntity
  8
2
  6
CONTINUOUS
 62
     0
100
AcDbLine
 10
-3.5
 20
17.5
 11
-4.0
 21
17.0
  0
LINE
  5
93
100
AcDbEntity
  8
2
  6
CONTINUOUS
 62
     0
100
AcDbLine
 10
61.0
 20
19.5
 11
61.0
 21
21.0
  0
LINE
  5
94
100
AcDbEntity
  8
2
  6
CONTINUOUS
 62
     0
100
AcDbLine
 10
47.499999999999
 20
6.54222465250999
 11
0.0
 21
6.54222465250999
  0
LINE
  5
95
100
AcDbEntity
  8
2
  6
CONTINUOUS
 62
     0
100
AcDbLine
 10
47.499999999999
 20
22.5
 11
47.499999999999
 21
6.54222465250999
  0
LINE
  5
96
100
AcDbEntity
  8
2
  6
CONTINUOUS
 62
     0
100
AcDbLine
 10
60.5
 20
19.880895352071
 11
47.499999999999
 21
19.880895352071
  0
LINE
  5
97
100
AcDbEntity
  8
2
  6
CONTINUOUS
 62
     0
100
AcDbLine
 10
60.5
 20
19.880895352071
 11
61.0
 21
19.380895352071
  0
LINE
  5
98
100
AcDbEntity
  8
2
  6
CONTINUOUS
 62
     0
100
AcDbLine
 10
60.5
 20
19.880895352071
 11
60.500000000001
 21
22.5
  0
LINE
  5
99
100
AcDbEntity
  8
2
  6
CONTINUOUS
 62
     0
100
AcDbLine
 10
61.500000000001
 20
-27.5
 11
85.0
 21
-27.5
  0
LINE
  5
9A
100
AcDbEntity
  8
2
  6
CONTINUOUS
 62
     0
100
AcDbLine
 10
86.0
 20
-27.5
 11
98.0
 21
-27.5
  0
LINE
  5
9B
100
AcDbEntity
  8
2
  6
CONTINUOUS
 62
     0
100
AcDbLine
 10
98.0
 20
-27.5
 11
98.5
 21
-27.0
  0
LINE
  5
9C
100
AcDbEntity
  8
2
  6
CONTINUOUS
 62
     0
100
AcDbLine
 10
86.0
 20
-27.5
 11
85.5
 21
-27.0
  0
LINE
  5
9D
100
AcDbEntity
  8
2
  6
CONTINUOUS
 62
     0
100
AcDbLine
 10
98.0
 20
-27.363927359949
 11
98.5
 21
-26.863927359949
  0
LINE
  5
9E
100
AcDbEntity
  8
2
  6
CONTINUOUS
 62
     0
100
AcDbLine
 10
86.0
 20
-27.363927359949
 11
85.5
 21
-26.863927359949
  0
LINE
  5
9F
100
AcDbEntity
  8
2
  6
CONTINUOUS
 62
     0
100
AcDbLine
 10
50.5
 20
32.0
 11
97.5
 21
32.0
  0
LINE
  5
A0
100
AcDbEntity
  8
2
  6
CONTINUOUS
 62
     0
100
AcDbLine
 10
50.5
 20
22.5
 11
50.5
 21
32.0
  0
LINE
  5
A1
100
AcDbEntity
  8
2
  6
CONTINUOUS
 62
     0
100
AcDbLine
 10
50.0
 20
32.5
 11
50.5
 21
32.0
  0
LINE
  5
A2
100
AcDbEntity
  8
2
  6
CONTINUOUS
 62
     0
100
AcDbLine
 10
98.5
 20
22.5
 11
98.5
 21
33.0
  0
LINE
  5
A3
100
AcDbEntity
  8
2
  6
CONTINUOUS
 62
     0
100
AcDbLine
 10
97.5
 20
22.5
 11
97.5
 21
32.0
  0
LINE
  5
A4
100
AcDbEntity
  8
2
  6
CONTINUOUS
 62
     0
100
AcDbLine
 10
97.5
 20
32.0
 11
98.5
 21
33.0
  0
LINE
  5
A5
100
AcDbEntity
  8
2
  6
CONTINUOUS
 62
     0
100
AcDbLine
 10
85.0
 20
-27.5
 11
85.5
 21
-27.0
  0
LINE
  5
A6
100
AcDbEntity
  8
2
  6
CONTINUOUS
 62
     0
100
AcDbLine
 10
61.500000000001
 20
-27.5
 11
61.000000000001
 21
-27.0
  0
LINE
  5
A7
100
AcDbEntity
  8
2
  6
CONTINUOUS
 62
     0
100
AcDbLine
 10
61.500000000001
 20
19.880895352071
 11
61.000000000001
 21
19.380895352071
  0
LINE
  5
A8
100
AcDbEntity
  8
2
  6
CONTINUOUS
 62
     0
100
AcDbLine
 10
85.0
 20
19.880895352071
 11
85.5
 21
19.380895352071
  0
LINE
  5
A9
100
AcDbEntity
  8
2
  6
CONTINUOUS
 62
     0
100
AcDbLine
 10
61.500000000001
 20
-27.363927359949
 11
61.000000000001
 21
-26.863927359949
  0
LINE
  5
AA
100
AcDbEntity
  8
2
  6
CONTINUOUS
 62
     0
100
AcDbLine
 10
85.0
 20
-27.363927359949
 11
85.5
 21
-26.863927359949
  0
LINE
  5
AB
100
AcDbEntity
  8
2
  6
CONTINUOUS
 62
     0
100
AcDbLine
 10
98.5
 20
22.5
 11
85.5
 21
22.5
  0
LINE
  5
AC
100
AcDbEntity
  8
2
  6
CONTINUOUS
 62
     0
100
AcDbLine
 10
85.0
 20
22.5
 11
61.500000000001
 21
22.5
  0
LINE
  5
AD
100
AcDbEntity
  8
2
  6
CONTINUOUS
 62
     0
100
AcDbLine
 10
61.000000000001
 20
22.0
 11
61.500000000001
 21
22.5
  0
LINE
  5
AE
100
AcDbEntity
  8
2
  6
CONTINUOUS
 62
     0
100
AcDbLine
 10
85.0
 20
22.5
 11
85.5
 21
22.0
  0
LINE
  5
AF
100
AcDbEntity
  8
2
  6
CONTINUOUS
 62
     0
100
AcDbLine
 10
61.500000000001
 20
19.880895352071
 11
61.500000000001
 21
22.5
  0
LINE
  5
B0
100
AcDbEntity
  8
2
  6
CONTINUOUS
 62
     0
100
AcDbLine
 10
85.0
 20
22.5
 11
85.0
 21
19.880895352071
  0
LINE
  5
B1
100
AcDbEntity
  8
2
  6
CONTINUOUS
 62
     0
100
AcDbLine
 10
103.5
 20
14.05
 11
103.5
 21
21.95
  0
LINE
  5
B2
100
AcDbEntity
  8
2
  6
CONTINUOUS
 62
     0
100
AcDbLine
 10
103.5
 20
14.05
 11
103.2
 21
13.75
  0
LINE
  5
B3
100
AcDbEntity
  8
2
  6
CONTINUOUS
 62
     0
100
AcDbLine
 10
103.2
 20
22.25
 11
103.2
 21
13.75
  0
LINE
  5
B4
100
AcDbEntity
  8
2
  6
CONTINUOUS
 62
     0
100
AcDbLine
 10
98.5
 20
13.75
 11
103.2
 21
13.75
  0
LINE
  5
B5
100
AcDbEntity
  8
2
  6
CONTINUOUS
 62
     0
100
AcDbLine
 10
98.5
 20
22.25
 11
103.2
 21
22.25
  0
LINE
  5
B6
100
AcDbEntity
  8
2
  6
CONTINUOUS
 62
     0
100
AcDbLine
 10
103.5
 20
21.95
 11
103.2
 21
22.25
  0
LINE
  5
B7
100
AcDbEntity
  8
0
  6
CONTINUOUS
 62
     0
100
AcDbLine
 10
284.24451466726
 20
33.7307387670581
 11
284.24451466726
 21
2.26926123294817
  0
LINE
  5
B8
100
AcDbEntity
  8
0
  6
CONTINUOUS
 62
     0
100
AcDbLine
 10
345.23072053414
 20
28.596421786898
 11
343.37382189686
 21
29.8817887729581
  0
LINE
  5
B9
100
AcDbEntity
  8
0
  6
CONTINUOUS
 62
     0
100
AcDbLine
 10
347.9
 20
28.596421786898
 11
345.23072053414
 21
28.596421786898
  0
LINE
  5
BA
100
AcDbEntity
  8
0
  6
CONTINUOUS
 62
     0
100
AcDbLine
 10
345.23072053414
 20
6.44782103830818
 11
341.64019992542
 21
4.62161749988806
  0
LINE
  5
BB
100
AcDbEntity
  8
0
  6
CONTINUOUS
 62
     0
100
AcDbLine
 10
347.9
 20
6.44782103830818
 11
347.9
 21
28.596421786898
  0
LINE
  5
BC
100
AcDbEntity
  8
0
  6
CONTINUOUS
 62
     0
100
AcDbLine
 10
347.9
 20
6.44782103830818
 11
345.23072053414
 21
6.44782103830818
  0
LINE
  5
BD
100
AcDbEntity
  8
0
  6
CONTINUOUS
 62
     0
100
AcDbLine
 10
336.15101881603
 20
5.64966161967797
 11
336.15101881603
 21
4.23560357882798
  0
ELLIPSE
  5
BE
100
AcDbEntity
  8
0
  6
CONTINUOUS
 62
     0
100
AcDbEllipse
 10
332.909364362495
 20
6.30026304200808
 30
0.0
 11
-0.395478135705048
 21
0.0
 31
0.0
210
0.0
220
0.0
230
1.0
 40
0.994412670801172
 41
3.40949156654329
 42
4.71238898038469
  0
ELLIPSE
  5
BF
100
AcDbEntity
  8
0
  6
CONTINUOUS
 62
     0
100
AcDbEllipse
 10
336.15101881603
 20
7.18511709764817
 30
0.0
 11
-2.96608601778001
 21
0.0
 31
0.0
210
0.0
220
0.0
230
1.0
 40
0.99441267081923
 41
0.267898912398719
 42
1.5707963267949
  0
ELLIPSE
  5
C0
100
AcDbEntity
  8
0
  6
CONTINUOUS
 62
     0
100
AcDbEllipse
 10
295.61451106874
 20
17.9999999998981
 30
0.0
 11
0.0
 21
6.19865838898009
 31
0.0
210
0.0
220
0.0
230
1.0
 40
0.733400073764678
 41
3.14159265358979
 42
6.28318530717959
  0
ELLIPSE
  5
C1
100
AcDbEntity
  8
0
  6
CONTINUOUS
 62
     0
100
AcDbEllipse
 10
338.12840949409
 20
27.831711729418
 30
0.0
 11
-2.71891218296003
 21
0.0
 31
0.0
210
0.0
220
0.0
230
1.0
 40
0.994412670819195
 41
1.23152775008236E-016
 42
6.28318530717959
  0
ELLIPSE
  5
C2
100
AcDbEntity
  8
0
  6
CONTINUOUS
 62
     0
100
AcDbEllipse
 10
339.01823529942
 20
26.9468576737679
 30
0.0
 11
-0.494347669629974
 21
0.0
 31
0.0
210
0.0
220
0.0
230
1.0
 40
0.994412670818923
 41
4.71238898038469
 42
6.28318530717959
  0
LINE
  5
C3
100
AcDbEntity
  8
0
  6
CONTINUOUS
 62
     0
100
AcDbLine
 10
338.52388762979
 20
26.9468576737679
 11
338.52388762979
 21
26.207246350908
  0
LINE
  5
C4
100
AcDbEntity
  8
0
  6
CONTINUOUS
 62
     0
100
AcDbLine
 10
339.76200229331
 20
27.4384432607781
 11
339.01823529942
 21
27.4384432607781
  0
ELLIPSE
  5
C5
100
AcDbEntity
  8
0
  6
CONTINUOUS
 62
     0
100
AcDbEllipse
 10
338.12840949409
 20
27.831711729408
 30
0.0
 11
-1.68078207674
 21
0.0
 31
0.0
210
0.0
220
0.0
230
1.0
 40
0.994412670815541
 41
1.23152775008688E-016
 42
3.3791138248857
  0
LINE
  5
C6
100
AcDbEntity
  8
0
  6
CONTINUOUS
 62
     0
100
AcDbLine
 10
339.01823529942
 20
28.2249801985882
 11
339.76200229331
 21
28.2249801985882
  0
LINE
  5
C7
100
AcDbEntity
  8
0
  6
CONTINUOUS
 62
     0
100
AcDbLine
 10
268.32651970518
 20
33.7307387670581
 11
284.24451466726
 21
33.7307387670581
  0
LINE
  5
C8
100
AcDbEntity
  8
0
  6
CONTINUOUS
 62
     0
100
AcDbLine
 10
268.32651970518
 20
33.5341045324681
 11
284.24451466726
 21
33.5341045324681
  0
LINE
  5
C9
100
AcDbEntity
  8
0
  6
CONTINUOUS
 62
     0
100
AcDbLine
 10
268.32651970518
 20
33.2391531805882
 11
284.24451466726
 21
33.2391531805882
  0
LINE
  5
CA
100
AcDbEntity
  8
0
  6
CONTINUOUS
 62
     0
100
AcDbLine
 10
268.32651970518
 20
31.9610306557682
 11
284.24451466726
 21
31.9610306557682
  0
LINE
  5
CB
100
AcDbEntity
  8
0
  6
CONTINUOUS
 62
     0
100
AcDbLine
 10
268.32651970518
 20
32.747567594118
 11
284.24451466726
 21
32.747567594118
  0
LINE
  5
CC
100
AcDbEntity
  8
0
  6
CONTINUOUS
 62
     0
100
AcDbLine
 10
268.32651970518
 20
30.9778594828281
 11
284.24451466726
 21
30.9778594828281
  0
LINE
  5
CD
100
AcDbEntity
  8
0
  6
CONTINUOUS
 62
     0
100
AcDbLine
 10
268.32651970518
 20
29.7980540748381
 11
284.24451466726
 21
29.7980540748381
  0
SPLINE
  5
CE
100
AcDbEntity
  8
0
  6
CONTINUOUS
 62
     0
100
AcDbSpline
210
0.0
220
0.0
230
1.0
 70
     8
 71
     3
 72
     8
 73
     4
 74
     0
 42
1.00000000000000E-007
 43
1.00000000000000E-007
 40
0.0
 40
0.0
 40
0.0
 40
0.0
 40
1.39432567660155
 40
1.39432567660155
 40
1.39432567660155
 40
1.39432567660155
 10
285.23321000652
 20
32.7475675619489
 30
0.0
 10
285.23321000652
 20
33.2905580394081
 30
0.0
 10
284.79055602536
 20
33.7307387670581
 30
0.0
 10
284.24451466726
 20
33.7307387670581
 30
0.0
  0
LINE
  5
CF
100
AcDbEntity
  8
0
  6
CONTINUOUS
 62
     0
100
AcDbLine
 10
268.32651970518
 20
28.6182486677681
 11
284.24451466726
 21
28.6182486677681
  0
LINE
  5
D0
100
AcDbEntity
  8
0
  6
CONTINUOUS
 62
     0
100
AcDbLine
 10
262.19660860178
 20
33.2391531805882
 11
267.83217203556
 21
33.2391531805882
  0
LINE
  5
D1
100
AcDbEntity
  8
0
  6
CONTINUOUS
 62
     0
100
AcDbLine
 10
285.23321000652
 20
28.8148829023581
 11
287.70494835467
 21
28.8148829023581
  0
LINE
  5
D2
100
AcDbEntity
  8
0
  6
CONTINUOUS
 62
     0
100
AcDbLine
 10
262.19660860178
 20
2.76084681941808
 11
261.9
 21
3.05579817100809
  0
LINE
  5
D3
100
AcDbEntity
  8
0
  6
CONTINUOUS
 62
     0
100
AcDbLine
 10
268.32651970518
 20
2.26926123294817
 11
284.24451466726
 21
2.26926123294817
  0
LINE
  5
D4
100
AcDbEntity
  8
0
  6
CONTINUOUS
 62
     0
100
AcDbLine
 10
262.19660860178
 20
2.76084681941808
 11
267.83217203556
 21
2.76084681941808
  0
ELLIPSE
  5
D5
100
AcDbEntity
  8
0
  6
CONTINUOUS
 62
     0
100
AcDbEllipse
 10
284.24451466726
 20
3.25243240588796
 30
0.0
 11
-0.988695339260005
 21
0.0
 31
0.0
210
0.0
220
0.0
230
1.0
 40
0.994412670818952
 41
1.5707963267949
 42
3.14159265358979
  0
LINE
  5
D6
100
AcDbEntity
  8
0
  6
CONTINUOUS
 62
     0
100
AcDbLine
 10
267.83217203556
 20
2.76084681941808
 11
268.32651970518
 21
2.26926123294817
  0
LINE
  5
D7
100
AcDbEntity
  8
0
  6
CONTINUOUS
 62
     0
100
AcDbLine
 10
261.9
 20
3.05579817100809
 11
261.9
 21
32.944201828708
  0
LINE
  5
D8
100
AcDbEntity
  8
0
  6
CONTINUOUS
 62
     0
100
AcDbLine
 10
262.19660860178
 20
33.2391531805882
 11
261.9
 21
32.944201828708
  0
ELLIPSE
  5
D9
100
AcDbEntity
  8
0
  6
CONTINUOUS
 62
     0
100
AcDbEllipse
 10
339.01823529942
 20
28.7165657850581
 30
0.0
 11
-0.494347669629974
 21
0.0
 31
0.0
210
0.0
220
0.0
230
1.0
 40
0.99441267081898
 41
1.23152775008263E-016
 42
1.5707963267949
  0
LINE
  5
DA
100
AcDbEntity
  8
0
  6
CONTINUOUS
 62
     0
100
AcDbLine
 10
338.52388762979
 20
29.456177107918
 11
338.52388762979
 21
28.7165657850581
  0
ELLIPSE
  5
DB
100
AcDbEntity
  8
0
  6
CONTINUOUS
 62
     0
100
AcDbEllipse
 10
338.12840949409
 20
27.831711729418
 30
0.0
 11
-1.68078207674
 21
0.0
 31
0.0
210
0.0
220
0.0
230
1.0
 40
0.994412670821493
 41
4.47486781018569
 42
4.94991015181356
  0
LINE
  5
DC
100
AcDbEntity
  8
0
  6
CONTINUOUS
 62
     0
100
AcDbLine
 10
337.73293135839
 20
28.7165657850581
 11
337.73293135839
 21
29.456177107918
  0
ELLIPSE
  5
DD
100
AcDbEntity
  8
0
  6
CONTINUOUS
 62
     0
100
AcDbEllipse
 10
337.23858368876
 20
28.7165657850581
 30
0.0
 11
-0.494347669629974
 21
0.0
 31
0.0
210
0.0
220
0.0
230
1.0
 40
0.99441267081898
 41
1.5707963267949
 42
3.14159265358979
  0
ELLIPSE
  5
DE
100
AcDbEntity
  8
0
  6
CONTINUOUS
 62
     0
100
AcDbEllipse
 10
338.12840949409
 20
27.831711729418
 30
0.0
 11
-1.68078207674
 21
0.0
 31
0.0
210
0.0
220
0.0
230
1.0
 40
0.994412670821493
 41
6.0456641371283
 42
0.237521171393072
  0
LINE
  5
DF
100
AcDbEntity
  8
0
  6
CONTINUOUS
 62
     0
100
AcDbLine
 10
336.49481669487
 20
28.2249801985882
 11
337.23858368876
 21
28.2249801985882
  0
LINE
  5
E0
100
AcDbEntity
  8
0
  6
CONTINUOUS
 62
     0
100
AcDbLine
 10
337.23858368876
 20
27.4384432607781
 11
336.49481669487
 21
27.4384432607781
  0
ELLIPSE
  5
E1
100
AcDbEntity
  8
0
  6
CONTINUOUS
 62
     0
100
AcDbEllipse
 10
337.23858368876
 20
26.9468576737679
 30
0.0
 11
-0.494347669629974
 21
0.0
 31
0.0
210
0.0
220
0.0
230
1.0
 40
0.994412670818923
 41
1.23152775008270E-016
 42
4.71238898038469
  0
LINE
  5
E2
100
AcDbEntity
  8
0
  6
CONTINUOUS
 62
     0
100
AcDbLine
 10
337.73293135839
 20
26.207246350908
 11
337.73293135839
 21
26.9468576737679
  0
ELLIPSE
  5
E3
100
AcDbEntity
  8
0
  6
CONTINUOUS
 62
     0
100
AcDbEllipse
 10
338.12840949409
 20
27.831711729418
 30
0.0
 11
-3.21325985259
 21
0.0
 31
0.0
210
0.0
220
0.0
230
1.0
 40
0.994412670819153
 41
5.04042805740386
 42
4.38434990458852
  0
ELLIPSE
  5
E4
100
AcDbEntity
  8
0
  6
CONTINUOUS
 62
     0
100
AcDbEllipse
 10
338.12840949409
 20
8.16828827058799
 30
0.0
 11
-3.21325985259
 21
0.0
 31
0.0
210
0.0
220
0.0
230
1.0
 40
0.994412670819162
 41
1.89883540340643
 42
1.24275725059104
  0
LINE
  5
E5
100
AcDbEntity
  8
0
  6
CONTINUOUS
 62
     0
100
AcDbLine
 10
337.09313801081
 20
30.856631361158
 11
339.16368097737
 21
30.856631361158
  0
LINE
  5
E6
100
AcDbEntity
  8
0
  6
CONTINUOUS
 62
     0
100
AcDbLine
 10
302.86307078573
 20
29.306468488828
 11
302.86307078573
 21
6.69353151117798
  0
LINE
  5
E7
100
AcDbEntity
  8
0
  6
CONTINUOUS
 62
     0
100
AcDbLine
 10
337.09313801081
 20
5.14336863884796
 11
339.16368097737
 21
5.14336863884796
  0
LINE
  5
E8
100
AcDbEntity
  8
0
  6
CONTINUOUS
 62
     0
100
AcDbLine
 10
295.61451106874
 20
11.801341611028
 11
287.70494835467
 21
11.801341611028
  0
LINE
  5
E9
100
AcDbEntity
  8
0
  6
CONTINUOUS
 62
     0
100
AcDbLine
 10
287.70494835467
 20
24.198658388978
 11
295.61451106874
 21
24.198658388978
  0
LINE
  5
EA
100
AcDbEntity
  8
0
  6
CONTINUOUS
 62
     0
100
AcDbLine
 10
287.70494835467
 20
24.198658388978
 11
298.61339018783
 21
13.341311826978
  0
LINE
  5
EB
100
AcDbEntity
  8
0
  6
CONTINUOUS
 62
     0
100
AcDbLine
 10
298.61339018783
 20
22.658688173028
 11
287.70494835467
 21
11.801341611028
  0
LINE
  5
EC
100
AcDbEntity
  8
0
  6
CONTINUOUS
 62
     0
100
AcDbLine
 10
340.10580017261
 20
4.23560357882798
 11
340.10580017261
 21
5.64966161968798
  0
ELLIPSE
  5
ED
100
AcDbEntity
  8
0
  6
CONTINUOUS
 62
     0
100
AcDbEllipse
 10
338.12840949409
 20
27.831711729408
 30
0.0
 11
-1.68078207674
 21
0.0
 31
0.0
210
0.0
220
0.0
230
1.0
 40
0.994412670815541
 41
1.33327515618732
 42
1.80831749781246
  0
LINE
  5
EE
100
AcDbEntity
  8
0
  6
CONTINUOUS
 62
     0
100
AcDbLine
 10
338.52388762979
 20
9.05314232623809
 11
338.52388762979
 21
9.79275364909819
  0
ELLIPSE
  5
EF
100
AcDbEntity
  8
0
  6
CONTINUOUS
 62
     0
100
AcDbEllipse
 10
338.12840949409
 20
8.16828827058799
 30
0.0
 11
-2.71891218296003
 21
0.0
 31
0.0
210
0.0
220
0.0
230
1.0
 40
0.994412670819122
 41
1.23152775008245E-016
 42
6.28318530717959
  0
LINE
  5
F0
100
AcDbEntity
  8
0
  6
CONTINUOUS
 62
     0
100
AcDbLine
 10
285.23321000652
 20
32.747567594118
 11
285.23321000652
 21
3.25243240588796
  0
ELLIPSE
  5
F1
100
AcDbEntity
  8
0
  6
CONTINUOUS
 62
     0
100
AcDbEllipse
 10
339.01823529942
 20
9.05314232623809
 30
0.0
 11
-0.494347669629974
 21
0.0
 31
0.0
210
0.0
220
0.0
230
1.0
 40
0.994412670818923
 41
1.23152775008270E-016
 42
1.5707963267949
  0
LINE
  5
F2
100
AcDbEntity
  8
0
  6
CONTINUOUS
 62
     0
100
AcDbLine
 10
339.76200229331
 20
8.56155673976809
 11
339.01823529942
 21
8.56155673976809
  0
LINE
  5
F3
100
AcDbEntity
  8
0
  6
CONTINUOUS
 62
     0
100
AcDbLine
 10
267.83217203556
 20
33.2391531805882
 11
268.32651970518
 21
33.7307387670581
  0
LINE
  5
F4
100
AcDbEntity
  8
0
  6
CONTINUOUS
 62
     0
100
AcDbLine
 10
339.01823529942
 20
7.77501980141807
 11
339.76200229331
 21
7.77501980141807
  0
ELLIPSE
  5
F5
100
AcDbEntity
  8
0
  6
CONTINUOUS
 62
     0
100
AcDbEllipse
 10
338.12840949409
 20
8.16828827058799
 30
0.0
 11
-1.68078207674
 21
0.0
 31
0.0
210
0.0
220
0.0
230
1.0
 40
0.994412670821493
 41
1.23152775007951E-016
 42
3.37911382488426
  0
ELLIPSE
  5
F6
100
AcDbEntity
  8
0
  6
CONTINUOUS
 62
     0
100
AcDbEllipse
 10
339.01823529942
 20
7.28343421494807
 30
0.0
 11
-0.494347669629974
 21
0.0
 31
0.0
210
0.0
220
0.0
230
1.0
 40
0.994412670819153
 41
4.71238898038469
 42
6.28318530717959
  0
ELLIPSE
  5
F7
100
AcDbEntity
  8
0
  6
CONTINUOUS
 62
     0
100
AcDbEllipse
 10
264.668346950565
 20
17.999999999898
 30
0.0
 11
-1.28530394103501
 21
0.0
 31
0.0
210
0.0
220
0.0
230
1.0
 40
0.994412670819918
 41
1.23152775008146E-016
 42
6.28318530717959
  0
LINE
  5
F8
100
AcDbEntity
  8
0
  6
CONTINUOUS
 62
     0
100
AcDbLine
 10
268.32651970518
 20
33.7307387670581
 11
268.32651970518
 21
2.26926123294817
  0
LINE
  5
F9
100
AcDbEntity
  8
0
  6
CONTINUOUS
 62
     0
100
AcDbLine
 10
267.83217203556
 20
33.2391531805882
 11
267.83217203556
 21
2.76084681941808
  0
LINE
  5
FA
100
AcDbEntity
  8
0
  6
CONTINUOUS
 62
     0
100
AcDbLine
 10
338.52388762979
 20
6.54382289208797
 11
338.52388762979
 21
7.28343421494807
  0
ELLIPSE
  5
FB
100
AcDbEntity
  8
0
  6
CONTINUOUS
 62
     0
100
AcDbEllipse
 10
338.12840949409
 20
8.16828827058799
 30
0.0
 11
-1.68078207674
 21
0.0
 31
0.0
210
0.0
220
0.0
230
1.0
 40
0.994412670821493
 41
1.33327515618595
 42
1.80831749781382
  0
LINE
  5
FC
100
AcDbEntity
  8
0
  6
CONTINUOUS
 62
     0
100
AcDbLine
 10
343.07188619039
 20
28.8148829023581
 11
343.07188619039
 21
7.18511709764817
  0
LINE
  5
FD
100
AcDbEntity
  8
0
  6
CONTINUOUS
 62
     0
100
AcDbLine
 10
333.18493279779
 20
29.417658358088
 11
333.18493279779
 21
6.5823416416381
  0
LINE
  5
FE
100
AcDbEntity
  8
0
  6
CONTINUOUS
 62
     0
100
AcDbLine
 10
287.70494835467
 20
5.21877475176808
 11
287.70494835467
 21
30.7812252482382
  0
LINE
  5
FF
100
AcDbEntity
  8
0
  6
CONTINUOUS
 62
     0
100
AcDbLine
 10
288.69364369456
 20
31.764396421178
 11
287.70494835467
 21
30.7812252482382
  0
LINE
  5
100
100
AcDbEntity
  8
0
  6
CONTINUOUS
 62
     0
100
AcDbLine
 10
340.10580017261
 20
10.6869149219381
 11
340.10580017261
 21
25.3130850785081
  0
ELLIPSE
  5
101
100
AcDbEntity
  8
0
  6
CONTINUOUS
 62
     0
100
AcDbEllipse
 10
336.15101881603
 20
28.8148829023581
 30
0.0
 11
-2.96608601778001
 21
0.0
 31
0.0
210
0.0
220
0.0
230
1.0
 40
0.994412670819124
 41
4.71238898038469
 42
6.01528639560397
  0
LINE
  5
102
100
AcDbEntity
  8
0
  6
CONTINUOUS
 62
     0
100
AcDbLine
 10
340.10580017261
 20
30.350338380318
 11
340.10580017261
 21
31.764396421178
  0
ELLIPSE
  5
103
100
AcDbEntity
  8
0
  6
CONTINUOUS
 62
     0
100
AcDbEllipse
 10
295.61451106874
 20
19.9663423458881
 30
0.0
 11
-11.86434407111
 21
0.0
 31
0.0
210
0.0
220
0.0
230
1.0
 40
0.994412670820842
 41
4.05512482766772
 42
4.71238898038469
  0
LINE
  5
104
100
AcDbEntity
  8
0
  6
CONTINUOUS
 62
     0
100
AcDbLine
 10
295.61451106874
 20
31.764396421178
 11
295.61451106874
 21
24.198658388978
  0
ELLIPSE
  5
105
100
AcDbEntity
  8
0
  6
CONTINUOUS
 62
     0
100
AcDbEllipse
 10
295.61451106874
 20
16.0336576541181
 30
0.0
 11
-11.86434407111
 21
0.0
 31
0.0
210
0.0
220
0.0
230
1.0
 40
0.994412670820861
 41
1.5707963267949
 42
2.22806048033104
  0
LINE
  5
106
100
AcDbEntity
  8
0
  6
CONTINUOUS
 62
     0
100
AcDbLine
 10
295.61451106874
 20
11.801341611028
 11
295.61451106874
 21
4.23560357882798
  0
ELLIPSE
  5
107
100
AcDbEntity
  8
0
  6
CONTINUOUS
 62
     0
100
AcDbEllipse
 10
332.909364362495
 20
29.6997369579981
 30
0.0
 11
-0.395478135705048
 21
0.0
 31
0.0
210
0.0
220
0.0
230
1.0
 40
0.994412670801675
 41
1.5707963267949
 42
2.87369374145659
  0
LINE
  5
108
100
AcDbEntity
  8
0
  6
CONTINUOUS
 62
     0
100
AcDbLine
 10
336.15101881603
 20
31.764396421178
 11
336.15101881603
 21
30.350338380328
  0
LINE
  5
109
100
AcDbEntity
  8
0
  6
CONTINUOUS
 62
     0
100
AcDbLine
 10
336.15101881603
 20
25.3130850784981
 11
336.15101881603
 21
10.6869149219381
  0
LINE
  5
10A
100
AcDbEntity
  8
0
  6
CONTINUOUS
 62
     0
100
AcDbLine
 10
288.69364369456
 20
31.764396421178
 11
295.61451106874
 21
31.764396421178
  0
LINE
  5
10B
100
AcDbEntity
  8
0
  6
CONTINUOUS
 62
     0
100
AcDbLine
 10
302.86307078573
 20
29.306468488828
 11
332.90936436249
 21
29.306468488828
  0
LINE
  5
10C
100
AcDbEntity
  8
0
  6
CONTINUOUS
 62
     0
100
AcDbLine
 10
336.15101881603
 20
31.764396421178
 11
340.10580017261
 21
31.764396421178
  0
ELLIPSE
  5
10D
100
AcDbEntity
  8
0
  6
CONTINUOUS
 62
     0
100
AcDbEllipse
 10
340.10580017261
 20
7.18511709764817
 30
0.0
 11
-2.96608601778001
 21
0.0
 31
0.0
210
0.0
220
0.0
230
1.0
 40
0.99441267081923
 41
1.5707963267949
 42
3.14159265358979
  0
LINE
  5
10E
100
AcDbEntity
  8
0
  6
CONTINUOUS
 62
     0
100
AcDbLine
 10
288.69364369456
 20
4.23560357882798
 11
287.70494835467
 21
5.21877475176808
  0
LINE
  5
10F
100
AcDbEntity
  8
0
  6
CONTINUOUS
 62
     0
100
AcDbLine
 10
336.15101881603
 20
4.23560357882798
 11
340.10580017261
 21
4.23560357882798
  0
LINE
  5
110
100
AcDbEntity
  8
0
  6
CONTINUOUS
 62
     0
100
AcDbLine
 10
288.69364369456
 20
4.23560357882798
 11
295.61451106874
 21
4.23560357882798
  0
LINE
  5
111
100
AcDbEntity
  8
0
  6
CONTINUOUS
 62
     0
100
AcDbLine
 10
302.86307078573
 20
6.69353151117798
 11
332.90936436249
 21
6.69353151117798
  0
LINE
  5
112
100
AcDbEntity
  8
0
  6
CONTINUOUS
 62
     0
100
AcDbLine
 10
337.73293135839
 20
7.28343421494807
 11
337.73293135839
 21
6.54382289208797
  0
LINE
  5
113
100
AcDbEntity
  8
0
  6
CONTINUOUS
 62
     0
100
AcDbLine
 10
288.69364369456
 20
31.764396421178
 11
288.69364369456
 21
24.198658388978
  0
LINE
  5
114
100
AcDbEntity
  8
0
  6
CONTINUOUS
 62
     0
100
AcDbLine
 10
336.49481669487
 20
7.77501980141807
 11
337.23858368876
 21
7.77501980141807
  0
LINE
  5
115
100
AcDbEntity
  8
0
  6
CONTINUOUS
 62
     0
100
AcDbLine
 10
288.69364369456
 20
11.801341611028
 11
288.69364369456
 21
4.23560357882798
  0
ELLIPSE
  5
116
100
AcDbEntity
  8
0
  6
CONTINUOUS
 62
     0
100
AcDbEllipse
 10
337.23858368876
 20
7.28343421494807
 30
0.0
 11
-0.494347669629974
 21
0.0
 31
0.0
210
0.0
220
0.0
230
1.0
 40
0.994412670819153
 41
1.23152775008241E-016
 42
4.71238898038469
  0
ELLIPSE
  5
117
100
AcDbEntity
  8
0
  6
CONTINUOUS
 62
     0
100
AcDbEllipse
 10
338.12840949409
 20
8.16828827058799
 30
0.0
 11
-1.68078207674
 21
0.0
 31
0.0
210
0.0
220
0.0
230
1.0
 40
0.994412670821493
 41
6.04566413712248
 42
0.23752117170062
  0
LINE
  5
118
100
AcDbEntity
  8
0
  6
CONTINUOUS
 62
     0
100
AcDbLine
 10
337.23858368876
 20
8.56155673976809
 11
336.49481669487
 21
8.56155673976809
  0
LINE
  5
119
100
AcDbEntity
  8
0
  6
CONTINUOUS
 62
     0
100
AcDbLine
 10
337.73293135839
 20
9.79275364909819
 11
337.73293135839
 21
9.05314232623809
  0
ELLIPSE
  5
11A
100
AcDbEntity
  8
0
  6
CONTINUOUS
 62
     0
100
AcDbEllipse
 10
337.23858368876
 20
9.05314232623809
 30
0.0
 11
-0.494347669629974
 21
0.0
 31
0.0
210
0.0
220
0.0
230
1.0
 40
0.994412670818923
 41
1.5707963267949
 42
3.14159265358979
  0
ELLIPSE
  5
11B
100
AcDbEntity
  8
0
  6
CONTINUOUS
 62
     0
100
AcDbEllipse
 10
338.12840949409
 20
8.16828827058799
 30
0.0
 11
-1.68078207674
 21
0.0
 31
0.0
210
0.0
220
0.0
230
1.0
 40
0.994412670815541
 41
4.47486781018845
 42
4.94991015181078
  0
LINE
  5
11C
100
AcDbEntity
  8
0
  6
CONTINUOUS
 62
     0
100
AcDbLine
 10
285.23321000652
 20
7.18511709764817
 11
287.70494835467
 21
7.18511709764817
  0
LINE
  5
11D
100
AcDbEntity
  8
0
  6
CONTINUOUS
 62
     0
100
AcDbLine
 10
348.30501061995
 20
23.1506419120681
 11
347.9
 21
23.1737288091681
  0
SPLINE
  5
11E
100
AcDbEntity
  8
0
  6
CONTINUOUS
 62
     0
100
AcDbSpline
210
0.0
220
0.0
230
1.0
 70
     8
 71
     3
 72
    27
 73
    23
 74
     0
 42
1.00000000000000E-007
 43
1.00000000000000E-007
 40
0.0
 40
0.0
 40
0.0
 40
0.0
 40
1.38798215816363
 40
2.78316046272119
 40
4.20377799019127
 40
5.68854752495437
 40
7.27635816236512
 40
8.85118786305866
 40
10.2685612072612
 40
11.5432525534622
 40
12.92769654723
 40
14.4703822511305
 40
16.021278561357
 40
17.4905672224835
 40
18.9306905089277
 40
20.3763410549157
 40
21.8340029661351
 40
23.2893399993304
 40
24.723882735155
 40
26.1425404085114
 40
27.5526664756353
 40
28.9591560497459
 40
28.9591560497459
 40
28.9591560497459
 40
28.9591560497459
 10
348.30501061819
 20
23.1506419130681
 30
0.0
 10
348.59371288517
 20
23.2015101127682
 30
0.0
 10
349.748521924179
 20
23.4049829320979
 30
0.0
 10
351.008383376897
 20
23.7003042415644
 30
0.0
 10
352.377790896056
 20
24.1626145280868
 30
0.0
 10
353.686068629956
 20
24.8321499209226
 30
0.0
 10
354.986372973201
 20
25.8037355622242
 30
0.0
 10
356.075119785851
 20
26.9948441240508
 30
0.0
 10
356.73215656536
 20
28.2900189848578
 30
0.0
 10
356.70166183608
 20
29.5819280944528
 30
0.0
 10
355.900774950954
 20
30.7626437259872
 30
0.0
 10
354.642996354054
 20
31.7353044863234
 30
0.0
 10
353.20006627682
 20
32.386796883828
 30
0.0
 10
351.762050033678
 20
32.6670840423687
 30
0.0
 10
350.317942674989
 20
32.6503016843183
 30
0.0
 10
348.891782677365
 20
32.389014444834
 30
0.0
 10
347.498899267237
 20
31.9419255434998
 30
0.0
 10
346.154420143977
 20
31.3647508245041
 30
0.0
 10
344.882971189607
 20
30.7190029220828
 30
0.0
 10
343.630614888099
 20
29.9981848131746
 30
0.0
 10
342.518008247507
 20
29.3094252749725
 30
0.0
 10
341.519387643
 20
28.665122634568
 30
0.0
 10
341.26973249876
 20
28.5040469692981
 30
0.0
  0
SPLINE
  5
11F
100
AcDbEntity
  8
0
  6
CONTINUOUS
 62
     0
100
AcDbSpline
210
0.0
220
0.0
230
1.0
 70
     8
 71
     3
 72
    35
 73
    31
 74
     0
 42
1.00000000000000E-007
 43
1.00000000000000E-007
 40
0.0
 40
0.0
 40
0.0
 40
0.0
 40
1.30659860743157
 40
2.60308815142774
 40
3.88276558863082
 40
5.14605696922572
 40
6.40473935105568
 40
7.67835783850941
 40
8.98347320892683
 40
10.3317377282635
 40
11.694043334342
 40
13.0001667075589
 40
14.239666198758
 40
15.5028968939449
 40
16.8375664068608
 40
18.1991118291536
 40
19.5199010556939
 40
20.8112122895441
 40
22.1037105048332
 40
23.4009336099188
 40
24.6993076369483
 40
25.9983524540601
 40
27.2961491370533
 40
28.5896543217046
 40
29.875311046574
 40
31.1552320729677
 40
32.4366914567563
 40
33.7231863580174
 40
35.0148674772103
 40
36.3096843383401
 40
36.3096843383401
 40
36.3096843383401
 40
36.3096843383401
 10
347.89999999908
 20
21.3315069569781
 30
0.0
 10
348.17197978923
 20
21.3812737037381
 30
0.0
 10
349.259898919752
 20
21.5803407255888
 30
0.0
 10
350.437032784864
 20
21.8342430493624
 30
0.0
 10
351.696328777032
 20
22.1802352039512
 30
0.0
 10
352.871843981326
 20
22.626361391346
 30
0.0
 10
353.985504574444
 20
23.2155543228719
 30
0.0
 10
355.034112085368
 20
23.9380251955319
 30
0.0
 10
356.02482089553
 20
24.7857110025991
 30
0.0
 10
356.97389478972
 20
25.7510776095067
 30
0.0
 10
357.846215543222
 20
26.8223629582358
 30
0.0
 10
358.485270749219
 20
27.9774339731746
 30
0.0
 10
358.752889267922
 20
29.1962117430478
 30
0.0
 10
358.51113717756
 20
30.4567466031588
 30
0.0
 10
357.877755582585
 20
31.657115120427
 30
0.0
 10
356.962375140335
 20
32.7019602285376
 30
0.0
 10
355.885461667643
 20
33.4769328489842
 30
0.0
 10
354.701919661815
 20
33.9966597284417
 30
0.0
 10
353.444675749984
 20
34.3158262681547
 30
0.0
 10
352.155279137995
 20
34.4844119245148
 30
0.0
 10
350.855599611002
 20
34.5237132172212
 30
0.0
 10
349.557104203587
 20
34.4358443142615
 30
0.0
 10
348.273904371522
 20
34.2273835480334
 30
0.0
 10
347.018618255968
 20
33.9039372505974
 30
0.0
 10
345.80718517892
 20
33.4705452343644
 30
0.0
 10
344.642538859372
 20
32.9362295229016
 30
0.0
 10
343.521750812919
 20
32.3282450725498
 30
0.0
 10
342.403034880635
 20
31.6432993489839
 30
0.0
 10
341.400390981434
 20
30.9854477783043
 30
0.0
 10
340.49581882759
 20
30.3684165882981
 30
0.0
 10
340.26967579679
 20
30.2141587823281
 30
0.0
  0
ELLIPSE
  5
120
100
AcDbEntity
  8
0
  6
CONTINUOUS
 62
     0
100
AcDbEllipse
 10
340.10580017261
 20
28.8148829023581
 30
0.0
 11
-2.96608601778001
 21
0.0
 31
0.0
210
0.0
220
0.0
230
1.0
 40
0.994412670819124
 41
4.09613525646973
 42
4.71238898038469
  0
ELLIPSE
  5
121
100
AcDbEntity
  8
0
  6
CONTINUOUS
 62
     0
100
AcDbEllipse
 10
340.10580017261
 20
28.8148829023581
 30
0.0
 11
-2.96608601778001
 21
0.0
 31
0.0
210
0.0
220
0.0
230
1.0
 40
0.994412670819124
 41
1.23152775008245E-016
 42
3.43240422553222
  0
LINE
  5
122
100
AcDbEntity
  8
2
  6
CONTINUOUS
 62
     0
100
AcDbLine
 10
377.9000011628
 20
10.9925810227381
 11
347.9
 21
10.9925810227381
  0
LINE
  5
123
100
AcDbEntity
  8
2
  6
CONTINUOUS
 62
     0
100
AcDbLine
 10
377.9000011628
 20
24.9925810227381
 11
356.21471320652
 21
24.9925810227381
  0
LINE
  5
124
100
AcDbEntity
  8
2
  6
CONTINUOUS
 62
     0
100
AcDbLine
 10
353.855510386
 20
24.9925810227381
 11
347.9
 21
24.9925810227381
  0
MTEXT
  5
125
100
AcDbEntity
  8
4
  6
CONTINUOUS
 62
     2
100
AcDbMText
 10
144.146458900299
 20
0.5
 40
2.8
 41
0.0
 11
1.0
 21
0.0
 71
     7
 72
     5
  7
STANDARD
  1
{\T1.60714;\W0.666667;UNR-G613-200NT}
  0
ENDBLK
  5
126
100
AcDbEntity
  8
4
100
AcDbBlockEnd
  0
BLOCK
  5
129
100
AcDbEntity
  8
4
100
AcDbBlockBegin
  2
SUB2
 70
    64
 10
0.0
 20
0.0
  0
LINE
  5
12A
100
AcDbEntity
  8
2
  6
CONTINUOUS
 62
     0
100
AcDbLine
 10
91.5
 20
222.75
 11
91.5
 21
231.25
  0
LINE
  5
12B
100
AcDbEntity
  8
2
  6
CONTINUOUS
 62
     0
100
AcDbLine
 10
92.0
 20
231.75
 11
103.5
 21
231.75
  0
LINE
  5
12C
100
AcDbEntity
  8
2
  6
CONTINUOUS
 62
     0
100
AcDbLine
 10
92.0
 20
231.75
 11
91.5
 21
231.25
  0
LINE
  5
12D
100
AcDbEntity
  8
2
  6
CONTINUOUS
 62
     0
100
AcDbLine
 10
92.0
 20
222.25
 11
92.0
 21
223.500357161081
  0
LINE
  5
12E
100
AcDbEntity
  8
2
  6
CONTINUOUS
 62
     0
100
AcDbLine
 10
92.0
 20
230.499642838919
 11
92.0
 21
231.75
  0
LINE
  5
12F
100
AcDbEntity
  8
2
  6
CONTINUOUS
 62
     0
100
AcDbLine
 10
92.0
 20
230.499642838919
 11
103.5
 21
230.499642838919
  0
ARC
  5
130
100
AcDbEntity
  8
2
  6
CONTINUOUS
 62
     0
100
AcDbCircle
 10
96.112481002996
 20
227.0
 40
5.4
100
AcDbArc
 50
139.602850955785
 51
148.667405670432
  0
ARC
  5
131
100
AcDbEntity
  8
2
  6
CONTINUOUS
 62
     0
100
AcDbCircle
 10
96.112481002996
 20
227.0
 40
5.4
100
AcDbArc
 50
211.332594329568
 51
220.397149044215
  0
LINE
  5
132
100
AcDbEntity
  8
7
  6
CENTER2
 62
    40
100
AcDbLine
 10
96.5
 20
220.0
 11
96.5
 21
234.0
  0
LINE
  5
133
100
AcDbEntity
  8
2
  6
CONTINUOUS
 62
     0
100
AcDbLine
 10
92.0
 20
222.25
 11
103.5
 21
222.25
  0
LINE
  5
134
100
AcDbEntity
  8
2
  6
CONTINUOUS
 62
     0
100
AcDbLine
 10
91.5
 20
222.75
 11
92.0
 21
222.25
  0
LINE
  5
135
100
AcDbEntity
  8
2
  6
CONTINUOUS
 62
     0
100
AcDbLine
 10
92.0
 20
223.500357161081
 11
103.5
 21
223.500357161081
  0
LINE
  5
136
100
AcDbEntity
  8
2
  6
CONTINUOUS
 62
     0
100
AcDbLine
 10
103.5
 20
221.0
 11
103.5
 21
233.0
  0
SPLINE
  5
137
100
AcDbEntity
  8
2
  6
CONTINUOUS
 62
     0
100
AcDbSpline
210
0.0
220
0.0
230
1.0
 70
     8
 71
     3
 72
    31
 73
    27
 74
     0
 42
1.00000000000000E-007
 43
1.00000000000000E-007
 40
0.0
 40
0.0
 40
0.0
 40
0.0
 40
0.331538395600131
 40
0.655649956894699
 40
0.971799068852866
 40
1.2795152374104
 40
1.57840665009362
 40
1.86817686218213
 40
2.14864524976602
 40
2.41977187852517
 40
3.48022388064101
 40
4.4658386636822
 40
5.43169057323865
 40
6.39742398850288
 40
7.36315740376711
 40
8.32900931332356
 40
9.31462409636474
 40
10.3750760984806
 40
10.6462027272397
 40
10.9266711148237
 40
11.2164413269122
 40
11.5153327395954
 40
11.823048908153
 40
12.1391980201111
 40
12.4633095814057
 40
12.7948479770058
 40
12.7948479770058
 40
12.7948479770058
 40
12.7948479770058
 10
112.980132446081
 20
232.9
 30
0.0
 10
112.955770153698
 20
232.791000235608
 30
0.0
 10
112.910190640036
 20
232.574633822784
 30
0.0
 10
112.851873407994
 20
232.255677479709
 30
0.0
 10
112.804225039542
 20
231.943008341076
 30
0.0
 10
112.767862359816
 20
231.637320335163
 30
0.0
 10
112.743402193955
 20
231.339307390251
 30
0.0
 10
112.731461367095
 20
231.049663434618
 30
0.0
 10
112.732656704375
 20
230.769082396545
 30
0.0
 10
112.763727856604
 20
230.206155190469
 30
0.0
 10
112.929687500001
 20
229.4375
 30
0.0
 10
113.345703125001
 20
228.546875
 30
0.0
 10
113.890625000001
 20
227.75
 30
0.0
 10
114.296875000001
 20
227.25
 30
0.0
 10
115.109375000001
 20
226.25
 30
0.0
 10
115.654296875001
 20
225.453125
 30
0.0
 10
116.070312500001
 20
224.5625
 30
0.0
 10
116.236272143398
 20
223.793844809531
 30
0.0
 10
116.267343295627
 20
223.230917603455
 30
0.0
 10
116.268538632907
 20
222.950336565382
 30
0.0
 10
116.256597806047
 20
222.660692609749
 30
0.0
 10
116.232137640186
 20
222.362679664837
 30
0.0
 10
116.19577496046
 20
222.056991658924
 30
0.0
 10
116.148126592008
 20
221.74432252029
 30
0.0
 10
116.089809359966
 20
221.425366177216
 30
0.0
 10
116.044229846304
 20
221.208999764392
 30
0.0
 10
116.019867553921
 20
221.1
 30
0.0
  0
LINE
  5
138
100
AcDbEntity
  8
2
  6
CONTINUOUS
 62
     0
100
AcDbLine
 10
103.5
 20
233.0
 11
123.5
 21
233.0
  0
LINE
  5
139
100
AcDbEntity
  8
2
  6
CONTINUOUS
 62
     0
100
AcDbLine
 10
103.5
 20
221.0
 11
123.5
 21
221.0
  0
LINE
  5
13A
100
AcDbEntity
  8
6
  6
CENTER
 62
     0
100
AcDbLine
 10
89.5
 20
227.0
 11
505.4000011628
 21
227.0
  0
LINE
  5
13B
100
AcDbEntity
  8
2
  6
CONTINUOUS
 62
     0
100
AcDbLine
 10
124.0
 20
244.5
 11
127.5
 21
244.5
  0
LINE
  5
13C
100
AcDbEntity
  8
2
  6
CONTINUOUS
 62
     0
100
AcDbLine
 10
124.0
 20
244.5
 11
123.5
 21
244.0
  0
LINE
  5
13D
100
AcDbEntity
  8
2
  6
CONTINUOUS
 62
     0
100
AcDbLine
 10
123.5
 20
210.0
 11
123.5
 21
244.0
  0
LINE
  5
13E
100
AcDbEntity
  8
2
  6
CONTINUOUS
 62
     0
100
AcDbLine
 10
124.0
 20
209.5
 11
127.5
 21
209.5
  0
LINE
  5
13F
100
AcDbEntity
  8
2
  6
CONTINUOUS
 62
     0
100
AcDbLine
 10
127.5
 20
208.0
 11
127.5
 21
246.0
  0
LINE
  5
140
100
AcDbEntity
  8
2
  6
CONTINUOUS
 62
     0
100
AcDbLine
 10
226.0
 20
208.0
 11
226.0
 21
246.0
  0
LINE
  5
141
100
AcDbEntity
  8
2
  6
CONTINUOUS
 62
     0
100
AcDbLine
 10
123.5
 20
210.0
 11
124.0
 21
209.5
  0
LINE
  5
142
100
AcDbEntity
  8
2
  6
CONTINUOUS
 62
     0
100
AcDbLine
 10
124.0
 20
244.5
 11
124.0
 21
209.5
  0
LINE
  5
143
100
AcDbEntity
  8
2
  6
CONTINUOUS
 62
     0
100
AcDbLine
 10
127.5
 20
246.0
 11
226.0
 21
246.0
  0
LINE
  5
144
100
AcDbEntity
  8
2
  6
CONTINUOUS
 62
     0
100
AcDbLine
 10
226.0
 20
236.0
 11
335.0
 21
236.0
  0
LINE
  5
145
100
AcDbEntity
  8
2
  6
CONTINUOUS
 62
     0
100
AcDbLine
 10
226.0
 20
218.0
 11
335.0
 21
218.0
  0
LINE
  5
146
100
AcDbEntity
  8
2
  6
CONTINUOUS
 62
     0
100
AcDbLine
 10
231.0
 20
245.0
 11
335.0
 21
245.0
  0
LINE
  5
147
100
AcDbEntity
  8
2
  6
CONTINUOUS
 62
     0
100
AcDbLine
 10
231.0
 20
209.0
 11
335.0
 21
209.0
  0
ARC
  5
148
100
AcDbEntity
  8
7
  6
HIDDEN
 62
    40
100
AcDbCircle
 10
215.0
 20
233.0
 40
4.0
100
AcDbArc
 50
0.0
 51
90.0
  0
LINE
  5
149
100
AcDbEntity
  8
7
  6
HIDDEN
 62
    40
100
AcDbLine
 10
219.0
 20
221.0
 11
219.0
 21
233.0
  0
ARC
  5
14A
100
AcDbEntity
  8
7
  6
HIDDEN
 62
    40
100
AcDbCircle
 10
215.0
 20
221.0
 40
4.0
100
AcDbArc
 50
270.0
 51
0.0
  0
LINE
  5
14B
100
AcDbEntity
  8
7
  6
HIDDEN
 62
    40
100
AcDbLine
 10
188.5
 20
237.0
 11
215.0
 21
237.0
  0
ARC
  5
14C
100
AcDbEntity
  8
7
  6
HIDDEN
 62
    40
100
AcDbCircle
 10
188.5
 20
233.0
 40
4.0
100
AcDbArc
 50
90.0
 51
180.0
  0
LINE
  5
14D
100
AcDbEntity
  8
7
  6
HIDDEN
 62
    40
100
AcDbLine
 10
184.5
 20
221.0
 11
184.5
 21
233.0
  0
LINE
  5
14E
100
AcDbEntity
  8
7
  6
HIDDEN
 62
    40
100
AcDbLine
 10
188.5
 20
217.0
 11
215.0
 21
217.0
  0
ARC
  5
14F
100
AcDbEntity
  8
7
  6
HIDDEN
 62
    40
100
AcDbCircle
 10
188.5
 20
221.0
 40
4.0
100
AcDbArc
 50
180.0
 51
270.0
  0
CIRCLE
  5
150
100
AcDbEntity
  8
2
  6
CONTINUOUS
 62
     0
100
AcDbCircle
 10
180.0
 20
227.0
 40
2.41
  0
LWPOLYLINE
  5
151
100
AcDbEntity
  8
2
  6
CONTINUOUS
 62
     0
100
AcDbPolyline
 90
        6
 70
     1
 43
0.0
 10
181.443375672974
 20
227.0
 10
180.721687836487
 20
228.25
 10
179.278312163513
 20
228.25
 10
178.556624327026
 20
227.0
 10
179.278312163513
 20
225.75
 10
180.721687836487
 20
225.75
  0
CIRCLE
  5
152
100
AcDbEntity
  8
2
  6
CONTINUOUS
 62
     0
100
AcDbCircle
 10
180.0
 20
227.0
 40
2.75
  0
LINE
  5
153
100
AcDbEntity
  8
6
  6
CENTER
 62
     0
100
AcDbLine
 10
180.0
 20
222.479753928982
 11
180.0
 21
231.161142763608
  0
ARC
  5
154
100
AcDbEntity
  8
2
  6
CONTINUOUS
 62
     0
100
AcDbCircle
 10
180.0
 20
227.0
 40
3.0
100
AcDbArc
 50
270.0
 51
90.0
  0
LINE
  5
155
100
AcDbEntity
  8
2
  6
CONTINUOUS
 62
     0
100
AcDbLine
 10
177.0
 20
230.0
 11
180.0
 21
230.0
  0
LINE
  5
156
100
AcDbEntity
  8
2
  6
CONTINUOUS
 62
     0
100
AcDbLine
 10
177.0
 20
224.0
 11
180.0
 21
224.0
  0
LINE
  5
157
100
AcDbEntity
  8
6
  6
CENTER
 62
     0
100
AcDbLine
 10
217.75773187575
 20
220.0
 11
225.849698489732
 21
220.0
  0
LINE
  5
158
100
AcDbEntity
  8
6
  6
CENTER
 62
     0
100
AcDbLine
 10
222.0
 20
215.547314916612
 11
222.0
 21
223.668078564808
  0
CIRCLE
  5
159
100
AcDbEntity
  8
2
  6
CONTINUOUS
 62
     0
100
AcDbCircle
 10
222.0
 20
220.0
 40
2.75
  0
CIRCLE
  5
15A
100
AcDbEntity
  8
2
  6
CONTINUOUS
 62
     0
100
AcDbCircle
 10
222.0
 20
220.0
 40
2.41
  0
LWPOLYLINE
  5
15B
100
AcDbEntity
  8
2
  6
CONTINUOUS
 62
     0
100
AcDbPolyline
 90
        6
 70
     1
 43
0.0
 10
223.443375672974
 20
220.0
 10
222.721687836487
 20
221.25
 10
221.278312163513
 20
221.25
 10
220.556624327026
 20
220.0
 10
221.278312163513
 20
218.75
 10
222.721687836487
 20
218.75
  0
LINE
  5
15C
100
AcDbEntity
  8
6
  6
CENTER
 62
     0
100
AcDbLine
 10
217.75773187575
 20
234.0
 11
225.849698489732
 21
234.0
  0
LINE
  5
15D
100
AcDbEntity
  8
6
  6
CENTER
 62
     0
100
AcDbLine
 10
222.0
 20
238.452685083388
 11
222.0
 21
230.331921435192
  0
CIRCLE
  5
15E
100
AcDbEntity
  8
2
  6
CONTINUOUS
 62
     0
100
AcDbCircle
 10
222.0
 20
234.0
 40
2.75
  0
CIRCLE
  5
15F
100
AcDbEntity
  8
2
  6
CONTINUOUS
 62
     0
100
AcDbCircle
 10
222.0
 20
234.0
 40
2.41
  0
LWPOLYLINE
  5
160
100
AcDbEntity
  8
2
  6
CONTINUOUS
 62
     0
100
AcDbPolyline
 90
        6
 70
     1
 43
0.0
 10
223.443375672974
 20
234.0
 10
222.721687836487
 20
232.75
 10
221.278312163513
 20
232.75
 10
220.556624327026
 20
234.0
 10
221.278312163513
 20
235.25
 10
222.721687836487
 20
235.25
  0
LINE
  5
161
100
AcDbEntity
  8
2
  6
CONTINUOUS
 62
     0
100
AcDbLine
 10
226.0
 20
208.25
 11
230.7
 21
208.25
  0
LINE
  5
162
100
AcDbEntity
  8
2
  6
CONTINUOUS
 62
     0
100
AcDbLine
 10
231.0
 20
208.55
 11
231.0
 21
216.45
  0
LINE
  5
163
100
AcDbEntity
  8
2
  6
CONTINUOUS
 62
     0
100
AcDbLine
 10
231.0
 20
208.55
 11
230.7
 21
208.25
  0
LINE
  5
164
100
AcDbEntity
  8
2
  6
CONTINUOUS
 62
     0
100
AcDbLine
 10
230.7
 20
216.75
 11
230.7
 21
208.25
  0
LINE
  5
165
100
AcDbEntity
  8
2
  6
CONTINUOUS
 62
     0
100
AcDbLine
 10
226.0
 20
216.75
 11
230.7
 21
216.75
  0
LINE
  5
166
100
AcDbEntity
  8
2
  6
CONTINUOUS
 62
     0
100
AcDbLine
 10
231.0
 20
216.45
 11
230.7
 21
216.75
  0
LINE
  5
167
100
AcDbEntity
  8
2
  6
CONTINUOUS
 62
     0
100
AcDbLine
 10
231.0
 20
237.55
 11
231.0
 21
245.45
  0
LINE
  5
168
100
AcDbEntity
  8
2
  6
CONTINUOUS
 62
     0
100
AcDbLine
 10
230.7
 20
245.75
 11
230.7
 21
237.25
  0
LINE
  5
169
100
AcDbEntity
  8
2
  6
CONTINUOUS
 62
     0
100
AcDbLine
 10
226.0
 20
245.75
 11
230.7
 21
245.75
  0
LINE
  5
16A
100
AcDbEntity
  8
2
  6
CONTINUOUS
 62
     0
100
AcDbLine
 10
231.0
 20
245.45
 11
230.7
 21
245.75
  0
LINE
  5
16B
100
AcDbEntity
  8
2
  6
CONTINUOUS
 62
     0
100
AcDbLine
 10
226.0
 20
237.25
 11
230.7
 21
237.25
  0
LINE
  5
16C
100
AcDbEntity
  8
2
  6
CONTINUOUS
 62
     0
100
AcDbLine
 10
231.0
 20
237.55
 11
230.7
 21
237.25
  0
LINE
  5
16D
100
AcDbEntity
  8
6
  6
CENTER
 62
     0
100
AcDbLine
 10
229.5
 20
223.5
 11
229.5
 21
230.5
  0
LINE
  5
16E
100
AcDbEntity
  8
0
  6
CONTINUOUS
 62
     0
100
AcDbLine
 10
329.999999999999
 20
245.0
 11
329.999999999999
 21
236.0
  0
LINE
  5
16F
100
AcDbEntity
  8
0
  6
CONTINUOUS
 62
     0
100
AcDbLine
 10
329.999999999999
 20
218.0
 11
329.999999999999
 21
209.0
  0
LWPOLYLINE
  5
170
100
AcDbEntity
  8
0
  6
CONTINUOUS
 62
     0
100
AcDbPolyline
 90
        4
 70
     1
 43
0.0
 10
335.0
 20
244.999999999256
 10
375.0
 20
244.999999999256
 10
375.0
 20
208.999999999268
 10
335.0
 20
208.999999999268
  0
LWPOLYLINE
  5
171
100
AcDbEntity
  8
0
  6
CONTINUOUS
 62
     0
100
AcDbPolyline
 90
        4
 70
     1
 43
0.0
 10
375.0
 20
244.999999999256
 10
379.999999999999
 20
244.999999999256
 10
379.999999999999
 20
208.999999999268
 10
375.0
 20
208.999999999268
  0
LINE
  5
172
100
AcDbEntity
  8
0
  6
CONTINUOUS
 62
     0
100
AcDbLine
 10
380.999999999999
 20
210.729999999262
 11
384.2
 21
210.729999999262
  0
LINE
  5
173
100
AcDbEntity
  8
0
  6
CONTINUOUS
 62
     0
100
AcDbLine
 10
384.2
 20
210.729999999262
 11
384.2
 21
243.269999999262
  0
LINE
  5
174
100
AcDbEntity
  8
0
  6
CONTINUOUS
 62
     0
100
AcDbLine
 10
384.2
 20
243.269999999262
 11
380.999999999999
 21
243.269999999262
  0
LINE
  5
175
100
AcDbEntity
  8
0
  6
CONTINUOUS
 62
     0
100
AcDbLine
 10
387.2
 20
240.699999999262
 11
389.4
 21
240.699999999262
  0
LINE
  5
176
100
AcDbEntity
  8
0
  6
CONTINUOUS
 62
     0
100
AcDbLine
 10
389.4
 20
213.299999999262
 11
387.2
 21
213.299999999262
  0
LINE
  5
177
100
AcDbEntity
  8
6
  6
PHANTOM
 62
     0
100
AcDbLine
 10
374.080746092321
 20
239.299998287199
 11
389.206642989262
 21
239.299998287199
  0
LWPOLYLINE
  5
178
100
AcDbEntity
  8
0
  6
CONTINUOUS
 62
     0
100
AcDbPolyline
 90
        6
 70
     1
 43
0.0
 10
384.2
 20
242.049998287199
 10
386.899999999999
 20
242.049998287199
 10
387.2
 20
241.749998287199
 10
387.2
 20
236.849998287199
 10
386.899999999999
 20
236.549998287199
 10
384.2
 20
236.549998287199
  0
LINE
  5
179
100
AcDbEntity
  8
6
  6
PHANTOM
 62
     0
100
AcDbLine
 10
374.080746092321
 20
214.700001712801
 11
389.206642989262
 21
214.700001712801
  0
LWPOLYLINE
  5
17A
100
AcDbEntity
  8
0
  6
CONTINUOUS
 62
     0
100
AcDbPolyline
 90
        6
 70
     1
 43
0.0
 10
384.2
 20
211.950001712802
 10
386.899999999999
 20
211.950001712802
 10
387.2
 20
212.250001712802
 10
387.2
 20
217.150001712802
 10
386.899999999999
 20
217.450001712802
 10
384.2
 20
217.450001712802
  0
LWPOLYLINE
  5
17B
100
AcDbEntity
  8
0
  6
CONTINUOUS
 62
     0
100
AcDbPolyline
 90
        4
 70
     1
 43
0.0
 10
380.999999999999
 20
243.269999999262
 10
379.999999999999
 20
243.269999999262
 10
379.999999999999
 20
210.729999999262
 10
380.999999999999
 20
210.729999999262
  0
LINE
  5
17C
100
AcDbEntity
  8
7
  6
CENTER2
 62
    40
100
AcDbLine
 10
98.1
 20
222.75
 11
98.1
 21
231.25
  0
LINE
  5
17D
100
AcDbEntity
  8
7
  6
CENTER2
 62
    40
100
AcDbLine
 10
94.9
 20
222.75
 11
94.9
 21
231.25
  0
LINE
  5
17E
100
AcDbEntity
  8
7
  6
CENTER2
 62
    40
100
AcDbLine
 10
98.1
 20
231.25
 11
98.6
 21
231.75
  0
LINE
  5
17F
100
AcDbEntity
  8
7
  6
CENTER2
 62
    40
100
AcDbLine
 10
94.9
 20
231.25
 11
94.4
 21
231.75
  0
LINE
  5
180
100
AcDbEntity
  8
7
  6
CENTER2
 62
    40
100
AcDbLine
 10
94.9
 20
222.75
 11
94.4
 21
222.25
  0
LINE
  5
181
100
AcDbEntity
  8
7
  6
CENTER2
 62
    40
100
AcDbLine
 10
98.1
 20
222.75
 11
98.6
 21
222.25
  0
LINE
  5
182
100
AcDbEntity
  8
7
  6
CENTER2
 62
    40
100
AcDbLine
 10
94.9
 20
231.25
 11
98.1
 21
231.25
  0
LINE
  5
183
100
AcDbEntity
  8
7
  6
CENTER2
 62
    40
100
AcDbLine
 10
94.9
 20
222.75
 11
98.1
 21
222.75
  0
LINE
  5
184
100
AcDbEntity
  8
6
  6
CENTER
 62
     0
100
AcDbLine
 10
170.0
 20
241.5
 11
234.5
 21
241.5
  0
LINE
  5
185
100
AcDbEntity
  8
6
  6
CENTER
 62
     0
100
AcDbLine
 10
170.0
 20
212.5
 11
234.5
 21
212.5
  0
LINE
  5
186
100
AcDbEntity
  8
2
  6
CONTINUOUS
 62
     0
100
AcDbLine
 10
127.5
 20
229.7
 11
147.5
 21
229.7
  0
LINE
  5
187
100
AcDbEntity
  8
2
  6
CONTINUOUS
 62
     0
100
AcDbLine
 10
127.5
 20
224.3
 11
147.5
 21
224.3
  0
LINE
  5
188
100
AcDbEntity
  8
2
  6
CONTINUOUS
 62
     0
100
AcDbLine
 10
147.5
 20
233.5
 11
147.5
 21
220.5
  0
LINE
  5
189
100
AcDbEntity
  8
2
  6
CONTINUOUS
 62
     0
100
AcDbLine
 10
174.999999999999
 20
242.8
 11
174.999999999999
 21
233.5
  0
LINE
  5
18A
100
AcDbEntity
  8
2
  6
CONTINUOUS
 62
     0
100
AcDbLine
 10
174.999999999999
 20
220.5
 11
174.999999999999
 21
211.2
  0
LINE
  5
18B
100
AcDbEntity
  8
2
  6
CONTINUOUS
 62
     0
100
AcDbLine
 10
147.5
 20
233.5
 11
174.999999999999
 21
233.5
  0
LINE
  5
18C
100
AcDbEntity
  8
2
  6
CONTINUOUS
 62
     0
100
AcDbLine
 10
147.5
 20
220.5
 11
174.999999999999
 21
220.5
  0
LINE
  5
18D
100
AcDbEntity
  8
2
  6
CONTINUOUS
 62
     0
100
AcDbLine
 10
174.999999999999
 20
242.8
 11
226.0
 21
242.8
  0
LINE
  5
18E
100
AcDbEntity
  8
2
  6
CONTINUOUS
 62
     0
100
AcDbLine
 10
174.999999999999
 20
211.2
 11
226.0
 21
211.2
  0
LINE
  5
18F
100
AcDbEntity
  8
2
  6
CONTINUOUS
 62
     0
100
AcDbLine
 10
127.5
 20
208.0
 11
226.0
 21
208.0
  0
LINE
  5
190
100
AcDbEntity
  8
2
  6
CONTINUOUS
 62
     0
100
AcDbLine
 10
178.0
 20
215.5
 11
225.0
 21
215.5
  0
LINE
  5
191
100
AcDbEntity
  8
2
  6
CONTINUOUS
 62
     0
100
AcDbLine
 10
178.0
 20
216.5
 11
226.0
 21
216.5
  0
LINE
  5
192
100
AcDbEntity
  8
2
  6
CONTINUOUS
 62
     0
100
AcDbLine
 10
225.0
 20
215.5
 11
226.0
 21
216.5
  0
LINE
  5
193
100
AcDbEntity
  8
2
  6
CONTINUOUS
 62
     0
100
AcDbLine
 10
177.0
 20
216.5
 11
178.0
 21
215.5
  0
LINE
  5
194
100
AcDbEntity
  8
2
  6
CONTINUOUS
 62
     0
100
AcDbLine
 10
178.0
 20
237.5
 11
226.0
 21
237.5
  0
LINE
  5
195
100
AcDbEntity
  8
2
  6
CONTINUOUS
 62
     0
100
AcDbLine
 10
178.0
 20
238.5
 11
225.0
 21
238.5
  0
LINE
  5
196
100
AcDbEntity
  8
2
  6
CONTINUOUS
 62
     0
100
AcDbLine
 10
178.0
 20
238.5
 11
177.0
 21
237.5
  0
LINE
  5
197
100
AcDbEntity
  8
2
  6
CONTINUOUS
 62
     0
100
AcDbLine
 10
177.0
 20
216.5
 11
177.0
 21
237.5
  0
LINE
  5
198
100
AcDbEntity
  8
2
  6
CONTINUOUS
 62
     0
100
AcDbLine
 10
178.0
 20
216.5
 11
178.0
 21
224.0
  0
LINE
  5
199
100
AcDbEntity
  8
2
  6
CONTINUOUS
 62
     0
100
AcDbLine
 10
178.0
 20
230.0
 11
178.0
 21
237.5
  0
LINE
  5
19A
100
AcDbEntity
  8
2
  6
CONTINUOUS
 62
     0
100
AcDbLine
 10
225.0
 20
238.5
 11
226.0
 21
237.5
  0
LINE
  5
19B
100
AcDbEntity
  8
2
  6
CONTINUOUS
 62
     0
100
AcDbLine
 10
213.0
 20
208.0
 11
213.0
 21
215.5
  0
LINE
  5
19C
100
AcDbEntity
  8
2
  6
CONTINUOUS
 62
     0
100
AcDbLine
 10
213.0
 20
238.5
 11
213.0
 21
246.0
  0
LINE
  5
19D
100
AcDbEntity
  8
2
  6
CONTINUOUS
 62
     0
100
AcDbLine
 10
188.500000000001
 20
208.0
 11
188.500000000001
 21
215.5
  0
LINE
  5
19E
100
AcDbEntity
  8
2
  6
CONTINUOUS
 62
     0
100
AcDbLine
 10
188.500000000001
 20
238.5
 11
188.500000000001
 21
246.0
  0
CIRCLE
  5
19F
100
AcDbEntity
  8
2
  6
CONTINUOUS
 62
     0
100
AcDbCircle
 10
222.0
 20
234.0
 40
3.0
  0
CIRCLE
  5
1A0
100
AcDbEntity
  8
2
  6
CONTINUOUS
 62
     0
100
AcDbCircle
 10
222.0
 20
220.0
 40
3.0
  0
CIRCLE
  5
1A1
100
AcDbEntity
  8
2
  6
CONTINUOUS
 62
     0
100
AcDbCircle
 10
229.5
 20
227.0
 40
2.75
  0
LWPOLYLINE
  5
1A2
100
AcDbEntity
  8
2
  6
CONTINUOUS
 62
     0
100
AcDbPolyline
 90
        6
 70
     1
 43
0.0
 10
230.654700538379
 20
227.0
 10
230.07735026919
 20
228.0
 10
228.92264973081
 20
228.0
 10
228.345299461621
 20
227.0
 10
228.92264973081
 20
226.0
 10
230.07735026919
 20
226.0
  0
LINE
  5
1A3
100
AcDbEntity
  8
0
  6
CONTINUOUS
 62
     0
100
AcDbLine
 10
411.74451466726
 20
242.730738767055
 11
411.74451466726
 21
211.269261232945
  0
LINE
  5
1A4
100
AcDbEntity
  8
0
  6
CONTINUOUS
 62
     0
100
AcDbLine
 10
472.73072053414
 20
237.596421786895
 11
470.87382189686
 21
238.881788772955
  0
LINE
  5
1A5
100
AcDbEntity
  8
0
  6
CONTINUOUS
 62
     0
100
AcDbLine
 10
475.4
 20
237.596421786895
 11
472.73072053414
 21
237.596421786895
  0
LINE
  5
1A6
100
AcDbEntity
  8
0
  6
CONTINUOUS
 62
     0
100
AcDbLine
 10
472.73072053414
 20
215.447821038305
 11
469.14019992542
 21
213.621617499885
  0
LINE
  5
1A7
100
AcDbEntity
  8
0
  6
CONTINUOUS
 62
     0
100
AcDbLine
 10
475.4
 20
215.447821038305
 11
475.4
 21
237.596421786895
  0
LINE
  5
1A8
100
AcDbEntity
  8
0
  6
CONTINUOUS
 62
     0
100
AcDbLine
 10
475.4
 20
215.447821038305
 11
472.73072053414
 21
215.447821038305
  0
LINE
  5
1A9
100
AcDbEntity
  8
0
  6
CONTINUOUS
 62
     0
100
AcDbLine
 10
463.65101881603
 20
214.649661619675
 11
463.65101881603
 21
213.235603578825
  0
ELLIPSE
  5
1AA
100
AcDbEntity
  8
0
  6
CONTINUOUS
 62
     0
100
AcDbEllipse
 10
460.409364362495
 20
215.300263042005
 30
0.0
 11
-0.395478135704991
 21
0.0
 31
0.0
210
0.0
220
0.0
230
1.0
 40
0.994412670801171
 41
3.40949156654329
 42
4.71238898038469
  0
ELLIPSE
  5
1AB
100
AcDbEntity
  8
0
  6
CONTINUOUS
 62
     0
100
AcDbEllipse
 10
463.65101881603
 20
216.185117097645
 30
0.0
 11
-2.96608601777996
 21
0.0
 31
0.0
210
0.0
220
0.0
230
1.0
 40
0.994412670819287
 41
0.267898912398737
 42
1.5707963267949
  0
ELLIPSE
  5
1AC
100
AcDbEntity
  8
0
  6
CONTINUOUS
 62
     0
100
AcDbEllipse
 10
423.11451106874
 20
226.999999999895
 30
0.0
 11
0.0
 21
6.19865838898011
 31
0.0
210
0.0
220
0.0
230
1.0
 40
0.733400073764667
 41
3.14159265358979
 42
6.28318530717959
  0
ELLIPSE
  5
1AD
100
AcDbEntity
  8
0
  6
CONTINUOUS
 62
     0
100
AcDbEllipse
 10
465.62840949409
 20
236.831711729415
 30
0.0
 11
-2.71891218295997
 21
0.0
 31
0.0
210
0.0
220
0.0
230
1.0
 40
0.994412670819195
 41
1.23152775008236E-016
 42
6.28318530717959
  0
ELLIPSE
  5
1AE
100
AcDbEntity
  8
0
  6
CONTINUOUS
 62
     0
100
AcDbEllipse
 10
466.51823529942
 20
235.946857673765
 30
0.0
 11
-0.494347669630031
 21
0.0
 31
0.0
210
0.0
220
0.0
230
1.0
 40
0.994412670818923
 41
4.71238898038469
 42
6.28318530717959
  0
LINE
  5
1AF
100
AcDbEntity
  8
0
  6
CONTINUOUS
 62
     0
100
AcDbLine
 10
466.02388762979
 20
235.946857673765
 11
466.02388762979
 21
235.207246350905
  0
LINE
  5
1B0
100
AcDbEntity
  8
0
  6
CONTINUOUS
 62
     0
100
AcDbLine
 10
467.26200229331
 20
236.438443260775
 11
466.51823529942
 21
236.438443260775
  0
ELLIPSE
  5
1B1
100
AcDbEntity
  8
0
  6
CONTINUOUS
 62
     0
100
AcDbEllipse
 10
465.62840949409
 20
236.831711729405
 30
0.0
 11
-1.68078207674
 21
0.0
 31
0.0
210
0.0
220
0.0
230
1.0
 40
0.994412670815507
 41
1.23152775008693E-016
 42
3.37911382488576
  0
LINE
  5
1B2
100
AcDbEntity
  8
0
  6
CONTINUOUS
 62
     0
100
AcDbLine
 10
466.51823529942
 20
237.224980198585
 11
467.26200229331
 21
237.224980198585
  0
LINE
  5
1B3
100
AcDbEntity
  8
0
  6
CONTINUOUS
 62
     0
100
AcDbLine
 10
395.82651970518
 20
242.730738767055
 11
411.74451466726
 21
242.730738767055
  0
LINE
  5
1B4
100
AcDbEntity
  8
0
  6
CONTINUOUS
 62
     0
100
AcDbLine
 10
395.82651970518
 20
242.534104532465
 11
411.74451466726
 21
242.534104532465
  0
LINE
  5
1B5
100
AcDbEntity
  8
0
  6
CONTINUOUS
 62
     0
100
AcDbLine
 10
395.82651970518
 20
242.239153180585
 11
411.74451466726
 21
242.239153180585
  0
LINE
  5
1B6
100
AcDbEntity
  8
0
  6
CONTINUOUS
 62
     0
100
AcDbLine
 10
395.82651970518
 20
240.961030655765
 11
411.74451466726
 21
240.961030655765
  0
LINE
  5
1B7
100
AcDbEntity
  8
0
  6
CONTINUOUS
 62
     0
100
AcDbLine
 10
395.82651970518
 20
241.747567594115
 11
411.74451466726
 21
241.747567594115
  0
LINE
  5
1B8
100
AcDbEntity
  8
0
  6
CONTINUOUS
 62
     0
100
AcDbLine
 10
395.82651970518
 20
239.977859482825
 11
411.74451466726
 21
239.977859482825
  0
LINE
  5
1B9
100
AcDbEntity
  8
0
  6
CONTINUOUS
 62
     0
100
AcDbLine
 10
395.82651970518
 20
238.798054074835
 11
411.74451466726
 21
238.798054074835
  0
SPLINE
  5
1BA
100
AcDbEntity
  8
0
  6
CONTINUOUS
 62
     0
100
AcDbSpline
210
0.0
220
0.0
230
1.0
 70
     8
 71
     3
 72
     8
 73
     4
 74
     0
 42
1.00000000000000E-007
 43
1.00000000000000E-007
 40
0.0
 40
0.0
 40
0.0
 40
0.0
 40
1.39432567660155
 40
1.39432567660155
 40
1.39432567660155
 40
1.39432567660155
 10
412.73321000652
 20
241.747567561946
 30
0.0
 10
412.73321000652
 20
242.290558039405
 30
0.0
 10
412.29055602536
 20
242.730738767055
 30
0.0
 10
411.74451466726
 20
242.730738767055
 30
0.0
  0
LINE
  5
1BB
100
AcDbEntity
  8
0
  6
CONTINUOUS
 62
     0
100
AcDbLine
 10
395.82651970518
 20
237.618248667765
 11
411.74451466726
 21
237.618248667765
  0
LINE
  5
1BC
100
AcDbEntity
  8
0
  6
CONTINUOUS
 62
     0
100
AcDbLine
 10
389.69660860178
 20
242.239153180585
 11
395.33217203556
 21
242.239153180585
  0
LINE
  5
1BD
100
AcDbEntity
  8
0
  6
CONTINUOUS
 62
     0
100
AcDbLine
 10
412.73321000652
 20
237.814882902355
 11
415.20494835467
 21
237.814882902355
  0
LINE
  5
1BE
100
AcDbEntity
  8
0
  6
CONTINUOUS
 62
     0
100
AcDbLine
 10
389.69660860178
 20
211.760846819415
 11
389.4
 21
212.055798171005
  0
LINE
  5
1BF
100
AcDbEntity
  8
0
  6
CONTINUOUS
 62
     0
100
AcDbLine
 10
395.82651970518
 20
211.269261232945
 11
411.74451466726
 21
211.269261232945
  0
LINE
  5
1C0
100
AcDbEntity
  8
0
  6
CONTINUOUS
 62
     0
100
AcDbLine
 10
389.69660860178
 20
211.760846819415
 11
395.33217203556
 21
211.760846819415
  0
ELLIPSE
  5
1C1
100
AcDbEntity
  8
0
  6
CONTINUOUS
 62
     0
100
AcDbEllipse
 10
411.74451466726
 20
212.252432405885
 30
0.0
 11
-0.988695339260005
 21
0.0
 31
0.0
210
0.0
220
0.0
230
1.0
 40
0.994412670818923
 41
1.5707963267949
 42
3.14159265358979
  0
LINE
  5
1C2
100
AcDbEntity
  8
0
  6
CONTINUOUS
 62
     0
100
AcDbLine
 10
395.33217203556
 20
211.760846819415
 11
395.82651970518
 21
211.269261232945
  0
LINE
  5
1C3
100
AcDbEntity
  8
0
  6
CONTINUOUS
 62
     0
100
AcDbLine
 10
389.4
 20
212.055798171005
 11
389.4
 21
241.944201828705
  0
LINE
  5
1C4
100
AcDbEntity
  8
0
  6
CONTINUOUS
 62
     0
100
AcDbLine
 10
389.69660860178
 20
242.239153180585
 11
389.4
 21
241.944201828705
  0
ELLIPSE
  5
1C5
100
AcDbEntity
  8
0
  6
CONTINUOUS
 62
     0
100
AcDbEllipse
 10
466.51823529942
 20
237.716565785055
 30
0.0
 11
-0.494347669630031
 21
0.0
 31
0.0
210
0.0
220
0.0
230
1.0
 40
0.994412670818693
 41
1.23152775008298E-016
 42
1.5707963267949
  0
LINE
  5
1C6
100
AcDbEntity
  8
0
  6
CONTINUOUS
 62
     0
100
AcDbLine
 10
466.02388762979
 20
238.456177107915
 11
466.02388762979
 21
237.716565785055
  0
ELLIPSE
  5
1C7
100
AcDbEntity
  8
0
  6
CONTINUOUS
 62
     0
100
AcDbEllipse
 10
465.62840949409
 20
236.831711729415
 30
0.0
 11
-1.68078207674
 21
0.0
 31
0.0
210
0.0
220
0.0
230
1.0
 40
0.994412670821459
 41
4.47486781018572
 42
4.94991015181351
  0
LINE
  5
1C8
100
AcDbEntity
  8
0
  6
CONTINUOUS
 62
     0
100
AcDbLine
 10
465.23293135839
 20
237.716565785055
 11
465.23293135839
 21
238.456177107915
  0
ELLIPSE
  5
1C9
100
AcDbEntity
  8
0
  6
CONTINUOUS
 62
     0
100
AcDbEllipse
 10
464.73858368876
 20
237.716565785055
 30
0.0
 11
-0.494347669629974
 21
0.0
 31
0.0
210
0.0
220
0.0
230
1.0
 40
0.994412670818808
 41
1.5707963267949
 42
3.14159265358979
  0
ELLIPSE
  5
1CA
100
AcDbEntity
  8
0
  6
CONTINUOUS
 62
     0
100
AcDbEllipse
 10
465.62840949409
 20
236.831711729415
 30
0.0
 11
-1.68078207674
 21
0.0
 31
0.0
210
0.0
220
0.0
230
1.0
 40
0.994412670821459
 41
6.0456641371283
 42
0.237521171393031
  0
LINE
  5
1CB
100
AcDbEntity
  8
0
  6
CONTINUOUS
 62
     0
100
AcDbLine
 10
463.99481669487
 20
237.224980198585
 11
464.73858368876
 21
237.224980198585
  0
LINE
  5
1CC
100
AcDbEntity
  8
0
  6
CONTINUOUS
 62
     0
100
AcDbLine
 10
464.73858368876
 20
236.438443260775
 11
463.99481669487
 21
236.438443260775
  0
ELLIPSE
  5
1CD
100
AcDbEntity
  8
0
  6
CONTINUOUS
 62
     0
100
AcDbEllipse
 10
464.73858368876
 20
235.946857673765
 30
0.0
 11
-0.494347669629974
 21
0.0
 31
0.0
210
0.0
220
0.0
230
1.0
 40
0.994412670819038
 41
1.23152775008255E-016
 42
4.71238898038469
  0
LINE
  5
1CE
100
AcDbEntity
  8
0
  6
CONTINUOUS
 62
     0
100
AcDbLine
 10
465.23293135839
 20
235.207246350905
 11
465.23293135839
 21
235.946857673765
  0
ELLIPSE
  5
1CF
100
AcDbEntity
  8
0
  6
CONTINUOUS
 62
     0
100
AcDbEllipse
 10
465.62840949409
 20
236.831711729415
 30
0.0
 11
-3.21325985259
 21
0.0
 31
0.0
210
0.0
220
0.0
230
1.0
 40
0.994412670819153
 41
5.04042805740384
 42
4.38434990458855
  0
ELLIPSE
  5
1D0
100
AcDbEntity
  8
0
  6
CONTINUOUS
 62
     0
100
AcDbEllipse
 10
465.62840949409
 20
217.168288270585
 30
0.0
 11
-3.21325985259
 21
0.0
 31
0.0
210
0.0
220
0.0
230
1.0
 40
0.994412670819135
 41
1.89883540340641
 42
1.24275725059105
  0
LINE
  5
1D1
100
AcDbEntity
  8
0
  6
CONTINUOUS
 62
     0
100
AcDbLine
 10
464.59313801081
 20
239.856631361155
 11
466.66368097737
 21
239.856631361155
  0
LINE
  5
1D2
100
AcDbEntity
  8
0
  6
CONTINUOUS
 62
     0
100
AcDbLine
 10
430.36307078573
 20
238.306468488825
 11
430.36307078573
 21
215.693531511175
  0
LINE
  5
1D3
100
AcDbEntity
  8
0
  6
CONTINUOUS
 62
     0
100
AcDbLine
 10
464.59313801081
 20
214.143368638845
 11
466.66368097737
 21
214.143368638845
  0
LINE
  5
1D4
100
AcDbEntity
  8
0
  6
CONTINUOUS
 62
     0
100
AcDbLine
 10
423.11451106874
 20
220.801341611025
 11
415.20494835467
 21
220.801341611025
  0
LINE
  5
1D5
100
AcDbEntity
  8
0
  6
CONTINUOUS
 62
     0
100
AcDbLine
 10
415.20494835467
 20
233.198658388975
 11
423.11451106874
 21
233.198658388975
  0
LINE
  5
1D6
100
AcDbEntity
  8
0
  6
CONTINUOUS
 62
     0
100
AcDbLine
 10
415.20494835467
 20
233.198658388975
 11
426.11339018783
 21
222.341311826975
  0
LINE
  5
1D7
100
AcDbEntity
  8
0
  6
CONTINUOUS
 62
     0
100
AcDbLine
 10
426.11339018783
 20
231.658688173025
 11
415.20494835467
 21
220.801341611025
  0
LINE
  5
1D8
100
AcDbEntity
  8
0
  6
CONTINUOUS
 62
     0
100
AcDbLine
 10
467.60580017261
 20
213.235603578825
 11
467.60580017261
 21
214.649661619685
  0
ELLIPSE
  5
1D9
100
AcDbEntity
  8
0
  6
CONTINUOUS
 62
     0
100
AcDbEllipse
 10
465.62840949409
 20
236.831711729405
 30
0.0
 11
-1.68078207674
 21
0.0
 31
0.0
210
0.0
220
0.0
230
1.0
 40
0.994412670815507
 41
1.33327515618729
 42
1.80831749781245
  0
LINE
  5
1DA
100
AcDbEntity
  8
0
  6
CONTINUOUS
 62
     0
100
AcDbLine
 10
466.02388762979
 20
218.053142326235
 11
466.02388762979
 21
218.792753649095
  0
ELLIPSE
  5
1DB
100
AcDbEntity
  8
0
  6
CONTINUOUS
 62
     0
100
AcDbEllipse
 10
465.62840949409
 20
217.168288270585
 30
0.0
 11
-2.71891218295997
 21
0.0
 31
0.0
210
0.0
220
0.0
230
1.0
 40
0.994412670819153
 41
1.23152775008241E-016
 42
6.28318530717959
  0
LINE
  5
1DC
100
AcDbEntity
  8
0
  6
CONTINUOUS
 62
     0
100
AcDbLine
 10
412.73321000652
 20
241.747567594115
 11
412.73321000652
 21
212.252432405885
  0
ELLIPSE
  5
1DD
100
AcDbEntity
  8
0
  6
CONTINUOUS
 62
     0
100
AcDbEllipse
 10
466.51823529942
 20
218.053142326235
 30
0.0
 11
-0.494347669630031
 21
0.0
 31
0.0
210
0.0
220
0.0
230
1.0
 40
0.994412670818923
 41
1.23152775008270E-016
 42
1.5707963267949
  0
LINE
  5
1DE
100
AcDbEntity
  8
0
  6
CONTINUOUS
 62
     0
100
AcDbLine
 10
467.26200229331
 20
217.561556739765
 11
466.51823529942
 21
217.561556739765
  0
LINE
  5
1DF
100
AcDbEntity
  8
0
  6
CONTINUOUS
 62
     0
100
AcDbLine
 10
395.33217203556
 20
242.239153180585
 11
395.82651970518
 21
242.730738767055
  0
LINE
  5
1E0
100
AcDbEntity
  8
0
  6
CONTINUOUS
 62
     0
100
AcDbLine
 10
466.51823529942
 20
216.775019801415
 11
467.26200229331
 21
216.775019801415
  0
ELLIPSE
  5
1E1
100
AcDbEntity
  8
0
  6
CONTINUOUS
 62
     0
100
AcDbEllipse
 10
465.62840949409
 20
217.168288270585
 30
0.0
 11
-1.68078207674
 21
0.0
 31
0.0
210
0.0
220
0.0
230
1.0
 40
0.994412670821459
 41
1.23152775007956E-016
 42
3.37911382488429
  0
ELLIPSE
  5
1E2
100
AcDbEntity
  8
0
  6
CONTINUOUS
 62
     0
100
AcDbEllipse
 10
466.51823529942
 20
216.283434214945
 30
0.0
 11
-0.494347669630031
 21
0.0
 31
0.0
210
0.0
220
0.0
230
1.0
 40
0.994412670818923
 41
4.71238898038469
 42
6.28318530717959
  0
ELLIPSE
  5
1E3
100
AcDbEntity
  8
0
  6
CONTINUOUS
 62
     0
100
AcDbEllipse
 10
392.168346950565
 20
226.999999999895
 30
0.0
 11
-1.28530394103501
 21
0.0
 31
0.0
210
0.0
220
0.0
230
1.0
 40
0.994412670819918
 41
1.23152775008146E-016
 42
6.28318530717959
  0
LINE
  5
1E4
100
AcDbEntity
  8
0
  6
CONTINUOUS
 62
     0
100
AcDbLine
 10
395.82651970518
 20
242.730738767055
 11
395.82651970518
 21
211.269261232945
  0
LINE
  5
1E5
100
AcDbEntity
  8
0
  6
CONTINUOUS
 62
     0
100
AcDbLine
 10
395.33217203556
 20
242.239153180585
 11
395.33217203556
 21
211.760846819415
  0
LINE
  5
1E6
100
AcDbEntity
  8
0
  6
CONTINUOUS
 62
     0
100
AcDbLine
 10
466.02388762979
 20
215.543822892085
 11
466.02388762979
 21
216.283434214945
  0
ELLIPSE
  5
1E7
100
AcDbEntity
  8
0
  6
CONTINUOUS
 62
     0
100
AcDbEllipse
 10
465.62840949409
 20
217.168288270585
 30
0.0
 11
-1.68078207674
 21
0.0
 31
0.0
210
0.0
220
0.0
230
1.0
 40
0.994412670821459
 41
1.33327515618591
 42
1.80831749781382
  0
LINE
  5
1E8
100
AcDbEntity
  8
0
  6
CONTINUOUS
 62
     0
100
AcDbLine
 10
470.57188619039
 20
237.814882902355
 11
470.57188619039
 21
216.185117097645
  0
LINE
  5
1E9
100
AcDbEntity
  8
0
  6
CONTINUOUS
 62
     0
100
AcDbLine
 10
460.68493279779
 20
238.417658358085
 11
460.68493279779
 21
215.582341641635
  0
LINE
  5
1EA
100
AcDbEntity
  8
0
  6
CONTINUOUS
 62
     0
100
AcDbLine
 10
415.20494835467
 20
214.218774751765
 11
415.20494835467
 21
239.781225248235
  0
LINE
  5
1EB
100
AcDbEntity
  8
0
  6
CONTINUOUS
 62
     0
100
AcDbLine
 10
416.19364369456
 20
240.764396421175
 11
415.20494835467
 21
239.781225248235
  0
LINE
  5
1EC
100
AcDbEntity
  8
0
  6
CONTINUOUS
 62
     0
100
AcDbLine
 10
467.60580017261
 20
219.686914921935
 11
467.60580017261
 21
234.313085078505
  0
ELLIPSE
  5
1ED
100
AcDbEntity
  8
0
  6
CONTINUOUS
 62
     0
100
AcDbEllipse
 10
463.65101881603
 20
237.814882902355
 30
0.0
 11
-2.96608601777996
 21
0.0
 31
0.0
210
0.0
220
0.0
230
1.0
 40
0.994412670819153
 41
4.71238898038469
 42
6.01528639560394
  0
LINE
  5
1EE
100
AcDbEntity
  8
0
  6
CONTINUOUS
 62
     0
100
AcDbLine
 10
467.60580017261
 20
239.350338380315
 11
467.60580017261
 21
240.764396421175
  0
ELLIPSE
  5
1EF
100
AcDbEntity
  8
0
  6
CONTINUOUS
 62
     0
100
AcDbEllipse
 10
423.11451106874
 20
228.966342345885
 30
0.0
 11
-11.8643440711099
 21
0.0
 31
0.0
210
0.0
220
0.0
230
1.0
 40
0.994412670820837
 41
4.05512482766772
 42
4.71238898038469
  0
LINE
  5
1F0
100
AcDbEntity
  8
0
  6
CONTINUOUS
 62
     0
100
AcDbLine
 10
423.11451106874
 20
240.764396421175
 11
423.11451106874
 21
233.198658388975
  0
ELLIPSE
  5
1F1
100
AcDbEntity
  8
0
  6
CONTINUOUS
 62
     0
100
AcDbEllipse
 10
423.11451106874
 20
225.033657654115
 30
0.0
 11
-11.8643440711099
 21
0.0
 31
0.0
210
0.0
220
0.0
230
1.0
 40
0.994412670820866
 41
1.5707963267949
 42
2.22806048033104
  0
LINE
  5
1F2
100
AcDbEntity
  8
0
  6
CONTINUOUS
 62
     0
100
AcDbLine
 10
423.11451106874
 20
220.801341611025
 11
423.11451106874
 21
213.235603578825
  0
ELLIPSE
  5
1F3
100
AcDbEntity
  8
0
  6
CONTINUOUS
 62
     0
100
AcDbEllipse
 10
460.409364362495
 20
238.699736957995
 30
0.0
 11
-0.395478135704991
 21
0.0
 31
0.0
210
0.0
220
0.0
230
1.0
 40
0.994412670802034
 41
1.5707963267949
 42
2.87369374145636
  0
LINE
  5
1F4
100
AcDbEntity
  8
0
  6
CONTINUOUS
 62
     0
100
AcDbLine
 10
463.65101881603
 20
240.764396421175
 11
463.65101881603
 21
239.350338380325
  0
LINE
  5
1F5
100
AcDbEntity
  8
0
  6
CONTINUOUS
 62
     0
100
AcDbLine
 10
463.65101881603
 20
234.313085078495
 11
463.65101881603
 21
219.686914921935
  0
LINE
  5
1F6
100
AcDbEntity
  8
0
  6
CONTINUOUS
 62
     0
100
AcDbLine
 10
416.19364369456
 20
240.764396421175
 11
423.11451106874
 21
240.764396421175
  0
LINE
  5
1F7
100
AcDbEntity
  8
0
  6
CONTINUOUS
 62
     0
100
AcDbLine
 10
430.36307078573
 20
238.306468488825
 11
460.40936436249
 21
238.306468488825
  0
LINE
  5
1F8
100
AcDbEntity
  8
0
  6
CONTINUOUS
 62
     0
100
AcDbLine
 10
463.65101881603
 20
240.764396421175
 11
467.60580017261
 21
240.764396421175
  0
ELLIPSE
  5
1F9
100
AcDbEntity
  8
0
  6
CONTINUOUS
 62
     0
100
AcDbEllipse
 10
467.60580017261
 20
216.185117097645
 30
0.0
 11
-2.96608601777996
 21
0.0
 31
0.0
210
0.0
220
0.0
230
1.0
 40
0.994412670819287
 41
1.5707963267949
 42
3.14159265358979
  0
LINE
  5
1FA
100
AcDbEntity
  8
0
  6
CONTINUOUS
 62
     0
100
AcDbLine
 10
416.19364369456
 20
213.235603578825
 11
415.20494835467
 21
214.218774751765
  0
LINE
  5
1FB
100
AcDbEntity
  8
0
  6
CONTINUOUS
 62
     0
100
AcDbLine
 10
463.65101881603
 20
213.235603578825
 11
467.60580017261
 21
213.235603578825
  0
LINE
  5
1FC
100
AcDbEntity
  8
0
  6
CONTINUOUS
 62
     0
100
AcDbLine
 10
416.19364369456
 20
213.235603578825
 11
423.11451106874
 21
213.235603578825
  0
LINE
  5
1FD
100
AcDbEntity
  8
0
  6
CONTINUOUS
 62
     0
100
AcDbLine
 10
430.36307078573
 20
215.693531511175
 11
460.40936436249
 21
215.693531511175
  0
LINE
  5
1FE
100
AcDbEntity
  8
0
  6
CONTINUOUS
 62
     0
100
AcDbLine
 10
465.23293135839
 20
216.283434214945
 11
465.23293135839
 21
215.543822892085
  0
LINE
  5
1FF
100
AcDbEntity
  8
0
  6
CONTINUOUS
 62
     0
100
AcDbLine
 10
416.19364369456
 20
240.764396421175
 11
416.19364369456
 21
233.198658388975
  0
LINE
  5
200
100
AcDbEntity
  8
0
  6
CONTINUOUS
 62
     0
100
AcDbLine
 10
463.99481669487
 20
216.775019801415
 11
464.73858368876
 21
216.775019801415
  0
LINE
  5
201
100
AcDbEntity
  8
0
  6
CONTINUOUS
 62
     0
100
AcDbLine
 10
416.19364369456
 20
220.801341611025
 11
416.19364369456
 21
213.235603578825
  0
ELLIPSE
  5
202
100
AcDbEntity
  8
0
  6
CONTINUOUS
 62
     0
100
AcDbEllipse
 10
464.73858368876
 20
216.283434214945
 30
0.0
 11
-0.494347669629974
 21
0.0
 31
0.0
210
0.0
220
0.0
230
1.0
 40
0.994412670819038
 41
1.23152775008255E-016
 42
4.71238898038469
  0
ELLIPSE
  5
203
100
AcDbEntity
  8
0
  6
CONTINUOUS
 62
     0
100
AcDbEllipse
 10
465.62840949409
 20
217.168288270585
 30
0.0
 11
-1.68078207674
 21
0.0
 31
0.0
210
0.0
220
0.0
230
1.0
 40
0.994412670821459
 41
6.04566413712249
 42
0.237521171700587
  0
LINE
  5
204
100
AcDbEntity
  8
0
  6
CONTINUOUS
 62
     0
100
AcDbLine
 10
464.73858368876
 20
217.561556739765
 11
463.99481669487
 21
217.561556739765
  0
LINE
  5
205
100
AcDbEntity
  8
0
  6
CONTINUOUS
 62
     0
100
AcDbLine
 10
465.23293135839
 20
218.792753649095
 11
465.23293135839
 21
218.053142326235
  0
ELLIPSE
  5
206
100
AcDbEntity
  8
0
  6
CONTINUOUS
 62
     0
100
AcDbEllipse
 10
464.73858368876
 20
218.053142326235
 30
0.0
 11
-0.494347669629974
 21
0.0
 31
0.0
210
0.0
220
0.0
230
1.0
 40
0.994412670819038
 41
1.5707963267949
 42
3.14159265358979
  0
ELLIPSE
  5
207
100
AcDbEntity
  8
0
  6
CONTINUOUS
 62
     0
100
AcDbEllipse
 10
465.62840949409
 20
217.168288270585
 30
0.0
 11
-1.68078207674
 21
0.0
 31
0.0
210
0.0
220
0.0
230
1.0
 40
0.994412670815575
 41
4.47486781018848
 42
4.94991015181075
  0
LINE
  5
208
100
AcDbEntity
  8
0
  6
CONTINUOUS
 62
     0
100
AcDbLine
 10
412.73321000652
 20
216.185117097645
 11
415.20494835467
 21
216.185117097645
  0
LINE
  5
209
100
AcDbEntity
  8
0
  6
CONTINUOUS
 62
     0
100
AcDbLine
 10
475.80501061995
 20
232.150641912065
 11
475.4
 21
232.173728809165
  0
SPLINE
  5
20A
100
AcDbEntity
  8
0
  6
CONTINUOUS
 62
     0
100
AcDbSpline
210
0.0
220
0.0
230
1.0
 70
     8
 71
     3
 72
    27
 73
    23
 74
     0
 42
1.00000000000000E-007
 43
1.00000000000000E-007
 40
0.0
 40
0.0
 40
0.0
 40
0.0
 40
1.38798215816357
 40
2.78316046272119
 40
4.20377799019121
 40
5.68854752495436
 40
7.27635816236512
 40
8.85118786305867
 40
10.2685612072611
 40
11.5432525534621
 40
12.9276965472299
 40
14.4703822511305
 40
16.021278561357
 40
17.4905672224834
 40
18.9306905089276
 40
20.3763410549156
 40
21.8340029661351
 40
23.2893399993302
 40
24.723882735155
 40
26.1425404085113
 40
27.5526664756353
 40
28.9591560497458
 40
28.9591560497458
 40
28.9591560497458
 40
28.9591560497458
 10
475.80501061819
 20
232.150641913065
 30
0.0
 10
476.09371288517
 20
232.201510112765
 30
0.0
 10
477.248521924176
 20
232.404982932094
 30
0.0
 10
478.508383376895
 20
232.700304241561
 30
0.0
 10
479.877790896056
 20
233.162614528084
 30
0.0
 10
481.186068629957
 20
233.83214992092
 30
0.0
 10
482.486372973201
 20
234.803735562221
 30
0.0
 10
483.575119785851
 20
235.994844124048
 30
0.0
 10
484.23215656536
 20
237.290018984854
 30
0.0
 10
484.20166183608
 20
238.581928094449
 30
0.0
 10
483.400774950954
 20
239.762643725984
 30
0.0
 10
482.142996354053
 20
240.735304486321
 30
0.0
 10
480.70006627682
 20
241.386796883825
 30
0.0
 10
479.262050033678
 20
241.667084042366
 30
0.0
 10
477.817942674989
 20
241.650301684315
 30
0.0
 10
476.391782677364
 20
241.389014444831
 30
0.0
 10
474.998899267236
 20
240.941925543496
 30
0.0
 10
473.654420143974
 20
240.3647508245
 30
0.0
 10
472.382971189605
 20
239.719002922079
 30
0.0
 10
471.130614888099
 20
238.998184813171
 30
0.0
 10
470.01800824751
 20
238.309425274971
 30
0.0
 10
469.019387643
 20
237.665122634565
 30
0.0
 10
468.76973249876
 20
237.504046969295
 30
0.0
  0
SPLINE
  5
20B
100
AcDbEntity
  8
0
  6
CONTINUOUS
 62
     0
100
AcDbSpline
210
0.0
220
0.0
230
1.0
 70
     8
 71
     3
 72
    35
 73
    31
 74
     0
 42
1.00000000000000E-007
 43
1.00000000000000E-007
 40
0.0
 40
0.0
 40
0.0
 40
0.0
 40
1.30659860743168
 40
2.60308815142781
 40
3.88276558863086
 40
5.14605696922573
 40
6.40473935105575
 40
7.67835783850941
 40
8.98347320892691
 40
10.3317377282635
 40
11.6940433343421
 40
13.000166707559
 40
14.2396661987582
 40
15.5028968939449
 40
16.8375664068608
 40
18.1991118291535
 40
19.5199010556939
 40
20.8112122895442
 40
22.1037105048331
 40
23.4009336099188
 40
24.6993076369482
 40
25.99835245406
 40
27.2961491370534
 40
28.5896543217046
 40
29.875311046574
 40
31.1552320729677
 40
32.4366914567563
 40
33.7231863580174
 40
35.0148674772103
 40
36.3096843383401
 40
36.3096843383401
 40
36.3096843383401
 40
36.3096843383401
 10
475.39999999908
 20
230.331506956975
 30
0.0
 10
475.67197978923
 20
230.381273703735
 30
0.0
 10
476.759898919755
 20
230.580340725586
 30
0.0
 10
477.937032784863
 20
230.834243049359
 30
0.0
 10
479.196328777032
 20
231.180235203948
 30
0.0
 10
480.371843981326
 20
231.626361391343
 30
0.0
 10
481.485504574443
 20
232.215554322868
 30
0.0
 10
482.534112085367
 20
232.938025195528
 30
0.0
 10
483.52482089553
 20
233.785711002597
 30
0.0
 10
484.473894789719
 20
234.751077609503
 30
0.0
 10
485.346215543222
 20
235.822362958233
 30
0.0
 10
485.985270749219
 20
236.977433973172
 30
0.0
 10
486.252889267922
 20
238.196211743045
 30
0.0
 10
486.01113717756
 20
239.456746603155
 30
0.0
 10
485.377755582585
 20
240.657115120424
 30
0.0
 10
484.462375140335
 20
241.701960228534
 30
0.0
 10
483.385461667643
 20
242.476932848981
 30
0.0
 10
482.201919661814
 20
242.996659728439
 30
0.0
 10
480.944675749984
 20
243.315826268152
 30
0.0
 10
479.655279137995
 20
243.484411924512
 30
0.0
 10
478.355599611001
 20
243.523713217218
 30
0.0
 10
477.057104203585
 20
243.435844314258
 30
0.0
 10
475.773904371522
 20
243.22738354803
 30
0.0
 10
474.518618255968
 20
242.903937250594
 30
0.0
 10
473.307185178921
 20
242.470545234361
 30
0.0
 10
472.142538859373
 20
241.936229522899
 30
0.0
 10
471.021750812919
 20
241.328245072547
 30
0.0
 10
469.903034880634
 20
240.64329934898
 30
0.0
 10
468.900390981431
 20
239.9854477783
 30
0.0
 10
467.99581882759
 20
239.368416588295
 30
0.0
 10
467.76967579679
 20
239.214158782325
 30
0.0
  0
ELLIPSE
  5
20C
100
AcDbEntity
  8
0
  6
CONTINUOUS
 62
     0
100
AcDbEllipse
 10
467.60580017261
 20
237.814882902355
 30
0.0
 11
-2.96608601777996
 21
0.0
 31
0.0
210
0.0
220
0.0
230
1.0
 40
0.994412670819153
 41
4.09613525646976
 42
4.71238898038469
  0
ELLIPSE
  5
20D
100
AcDbEntity
  8
0
  6
CONTINUOUS
 62
     0
100
AcDbEllipse
 10
467.60580017261
 20
237.814882902355
 30
0.0
 11
-2.96608601777996
 21
0.0
 31
0.0
210
0.0
220
0.0
230
1.0
 40
0.994412670819153
 41
1.23152775008241E-016
 42
3.43240422553222
  0
LINE
  5
20E
100
AcDbEntity
  8
2
  6
CONTINUOUS
 62
     0
100
AcDbLine
 10
505.4000011628
 20
219.992581022735
 11
475.4
 21
219.992581022735
  0
LINE
  5
20F
100
AcDbEntity
  8
2
  6
CONTINUOUS
 62
     0
100
AcDbLine
 10
505.4000011628
 20
233.992581022735
 11
483.71471320652
 21
233.992581022735
  0
LINE
  5
210
100
AcDbEntity
  8
2
  6
CONTINUOUS
 62
     0
100
AcDbLine
 10
481.355510386
 20
233.992581022735
 11
475.4
 21
233.992581022735
  0
ENDBLK
  5
211
100
AcDbEntity
  8
4
100
AcDbBlockEnd
  0
BLOCK
  5
289
100
AcDbEntity
  8
2
100
AcDbBlockBegin
  2
SUB3
 70
    64
 10
0.0
 20
0.0
  0
LINE
  5
28A
100
AcDbEntity
  8
2
  6
CONTINUOUS
 62
     0
100
AcDbLine
 10
-2.75
 20
0.0
 11
2.75
 21
0.0
  0
LINE
  5
28B
100
AcDbEntity
  8
2
  6
CONTINUOUS
 62
     0
100
AcDbLine
 10
-2.75
 20
0.700000000000102
 11
2.75
 21
0.700000000000102
  0
LINE
  5
28C
100
AcDbEntity
  8
2
  6
CONTINUOUS
 62
     0
100
AcDbLine
 10
2.75
 20
3.5
 11
2.75
 21
0.0
  0
LINE
  5
28D
100
AcDbEntity
  8
2
  6
CONTINUOUS
 62
     0
100
AcDbLine
 10
-2.75
 20
3.5
 11
-2.75
 21
0.0
  0
LINE
  5
28E
100
AcDbEntity
  8
2
  6
CONTINUOUS
 62
     0
100
AcDbLine
 10
-2.40358983848699
 20
3.7000000000001
 11
2.403589838486
 21
3.7000000000001
  0
LINE
  5
28F
100
AcDbEntity
  8
2
  6
CONTINUOUS
 62
     0
100
AcDbLine
 10
-2.75
 20
3.5
 11
2.75
 21
3.5
  0
LINE
  5
290
100
AcDbEntity
  8
2
  6
CONTINUOUS
 62
     0
100
AcDbLine
 10
2.75
 20
3.5
 11
2.403589838486
 21
3.7000000000001
  0
LINE
  5
291
100
AcDbEntity
  8
2
  6
CONTINUOUS
 62
     0
100
AcDbLine
 10
-2.75
 20
3.5
 11
-2.40358983848699
 21
3.7000000000001
  0
LINE
  5
292
100
AcDbEntity
  8
2
  6
CONTINUOUS
 62
     0
100
AcDbLine
 10
0.0
 20
0.700000000000102
 11
-0.885575294494998
 21
0.0
  0
LINE
  5
293
100
AcDbEntity
  8
2
  6
CONTINUOUS
 62
     0
100
AcDbLine
 10
0.0
 20
0.0
 11
0.883089601993021
 21
0.700000000000102
  0
ENDBLK
  5
294
100
AcDbEntity
  8
2
100
AcDbBlockEnd
  0
BLOCK
  5
2FB
100
AcDbEntity
  8
7
100
AcDbBlockBegin
  2
SUB4
 70
    64
 10
0.0
 20
0.0
  0
CIRCLE
  5
2FC
100
AcDbEntity
  8
2
  6
CONTINUOUS
 62
     0
100
AcDbCircle
 10
0.0
 20
0.0
 40
2.75
  0
CIRCLE
  5
2FD
100
AcDbEntity
  8
2
  6
CONTINUOUS
 62
     0
100
AcDbCircle
 10
0.0
 20
0.0
 40
2.41
  0
LWPOLYLINE
  5
2FE
100
AcDbEntity
  8
2
  6
CONTINUOUS
 62
     0
100
AcDbPolyline
 90
        6
 70
     1
 43
0.0
 10
1.44337567297396
 20
0.0
 10
0.721687836486979
 20
1.25
 10
-0.721687836488002
 20
1.25
 10
-1.44337567297504
 20
0.0
 10
-0.721687836488002
 20
-1.25
 10
0.721687836486979
 20
-1.25
  0
ENDBLK
  5
2FF
100
AcDbEntity
  8
2
100
AcDbBlockEnd
  0
BLOCK
  5
302
100
AcDbEntity
  8
7
100
AcDbBlockBegin
  2
SUB5
 70
    64
 10
0.0
 20
0.0
  0
CIRCLE
  5
303
100
AcDbEntity
  8
2
  6
CONTINUOUS
 62
     0
100
AcDbCircle
 10
0.0
 20
0.0
 40
2.75
  0
CIRCLE
  5
304
100
AcDbEntity
  8
2
  6
CONTINUOUS
 62
     0
100
AcDbCircle
 10
0.0
 20
0.0
 40
2.41
  0
LWPOLYLINE
  5
305
100
AcDbEntity
  8
2
  6
CONTINUOUS
 62
     0
100
AcDbPolyline
 90
        6
 70
     1
 43
0.0
 10
1.44337567297396
 20
0.0
 10
0.721687836486979
 20
1.25
 10
-0.721687836488002
 20
1.25
 10
-1.44337567297504
 20
0.0
 10
-0.721687836488002
 20
-1.25
 10
0.721687836486979
 20
-1.25
  0
ENDBLK
  5
306
100
AcDbEntity
  8
2
100
AcDbBlockEnd
  0
BLOCK
  5
309
100
AcDbEntity
  8
7
100
AcDbBlockBegin
  2
SUB6
 70
    64
 10
0.0
 20
0.0
  0
CIRCLE
  5
30A
100
AcDbEntity
  8
2
  6
CONTINUOUS
 62
     0
100
AcDbCircle
 10
0.0
 20
0.0
 40
2.75
  0
CIRCLE
  5
30B
100
AcDbEntity
  8
2
  6
CONTINUOUS
 62
     0
100
AcDbCircle
 10
0.0
 20
0.0
 40
2.41
  0
LWPOLYLINE
  5
30C
100
AcDbEntity
  8
2
  6
CONTINUOUS
 62
     0
100
AcDbPolyline
 90
        6
 70
     1
 43
0.0
 10
1.44337567297401
 20
0.0
 10
0.721687836486979
 20
1.25
 10
-0.721687836488002
 20
1.25
 10
-1.44337567297504
 20
0.0
 10
-0.721687836488002
 20
-1.25
 10
0.721687836486979
 20
-1.25
  0
ENDBLK
  5
30D
100
AcDbEntity
  8
2
100
AcDbBlockEnd
  0
BLOCK
  5
310
100
AcDbEntity
  8
7
100
AcDbBlockBegin
  2
SUB7
 70
    64
 10
0.0
 20
0.0
  0
CIRCLE
  5
311
100
AcDbEntity
  8
2
  6
CONTINUOUS
 62
     0
100
AcDbCircle
 10
0.0
 20
0.0
 40
2.75
  0
CIRCLE
  5
312
100
AcDbEntity
  8
2
  6
CONTINUOUS
 62
     0
100
AcDbCircle
 10
0.0
 20
0.0
 40
2.41
  0
LWPOLYLINE
  5
313
100
AcDbEntity
  8
2
  6
CONTINUOUS
 62
     0
100
AcDbPolyline
 90
        6
 70
     1
 43
0.0
 10
1.44337567297401
 20
0.0
 10
0.721687836486979
 20
1.25
 10
-0.721687836488002
 20
1.25
 10
-1.44337567297504
 20
0.0
 10
-0.721687836488002
 20
-1.25
 10
0.721687836486979
 20
-1.25
  0
ENDBLK
  5
314
100
AcDbEntity
  8
2
100
AcDbBlockEnd
  0
BLOCK
  5
319
100
AcDbEntity
  8
7
100
AcDbBlockBegin
  2
SUB8
 70
    64
 10
0.0
 20
0.0
  0
CIRCLE
  5
31A
100
AcDbEntity
  8
2
  6
CONTINUOUS
 62
     0
100
AcDbCircle
 10
0.0
 20
0.0
 40
2.75
  0
CIRCLE
  5
31B
100
AcDbEntity
  8
2
  6
CONTINUOUS
 62
     0
100
AcDbCircle
 10
0.0
 20
0.0
 40
2.41
  0
LWPOLYLINE
  5
31C
100
AcDbEntity
  8
2
  6
CONTINUOUS
 62
     0
100
AcDbPolyline
 90
        6
 70
     1
 43
0.0
 10
1.44337567297396
 20
0.0
 10
0.721687836486979
 20
1.25
 10
-0.721687836488002
 20
1.25
 10
-1.44337567297504
 20
0.0
 10
-0.721687836488002
 20
-1.25
 10
0.721687836486979
 20
-1.25
  0
ENDBLK
  5
31D
100
AcDbEntity
  8
2
100
AcDbBlockEnd
  0
BLOCK
  5
435
100
AcDbEntity
  8
8
100
AcDbBlockBegin
  2
COMP1
 70
    64
 10
0.0
 20
0.0
  0
LINE
  5
436
100
AcDbEntity
  8
8
  6
HIDDEN
 62
     7
100
AcDbLine
 10
295.7
 20
101.199999999262
 11
310.899999999999
 21
101.199999999262
  0
LINE
  5
437
100
AcDbEntity
  8
8
  6
HIDDEN
 62
     7
100
AcDbLine
 10
311.899999999999
 20
100.199999999262
 11
311.899999999999
 21
74.799999999262
  0
ARC
  5
438
100
AcDbEntity
  8
8
  6
HIDDEN
 62
     7
100
AcDbCircle
 10
310.899999999999
 20
100.199999999262
 40
1.0
100
AcDbArc
 50
0.0
 51
90.0
  0
LINE
  5
439
100
AcDbEntity
  8
8
  6
HIDDEN
 62
     7
100
AcDbLine
 10
310.899999999999
 20
73.799999999262
 11
302.0
 21
73.799999999262
  0
ARC
  5
43A
100
AcDbEntity
  8
8
  6
HIDDEN
 62
     7
100
AcDbCircle
 10
310.899999999999
 20
74.799999999262
 40
0.999999999999886
100
AcDbArc
 50
270.0
 51
0.0
  0
LINE
  5
43B
100
AcDbEntity
  8
8
  6
HIDDEN
 62
     7
100
AcDbLine
 10
297.2
 20
73.799999999262
 11
297.2
 21
75.5999999992621
  0
LINE
  5
43C
100
AcDbEntity
  8
8
  6
HIDDEN
 62
     7
100
AcDbLine
 10
301.999999999999
 20
73.799999999262
 11
301.999999999999
 21
75.5999999992621
  0
LINE
  5
43D
100
AcDbEntity
  8
8
  6
HIDDEN
 62
     7
100
AcDbLine
 10
297.2
 20
75.5999999992621
 11
301.999999999999
 21
75.5999999992621
  0
LINE
  5
43E
100
AcDbEntity
  8
8
  6
HIDDEN
 62
     7
100
AcDbLine
 10
297.2
 20
73.799999999262
 11
295.7
 21
73.799999999262
  0
LINE
  5
43F
100
AcDbEntity
  8
8
  6
HIDDEN
 62
     7
100
AcDbLine
 10
310.899999999999
 20
101.199999999262
 11
310.899999999999
 21
77.7791674234161
  0
LINE
  5
440
100
AcDbEntity
  8
8
  6
HIDDEN
 62
     7
100
AcDbLine
 10
310.899999999999
 20
73.800000000738
 11
310.899999999999
 21
74.519173999124
  0
LINE
  5
441
100
AcDbEntity
  8
8
  6
HIDDEN
 62
     7
100
AcDbLine
 10
310.899999999999
 20
77.7791674234161
 11
311.899999999999
 21
77.7791674234161
  0
LINE
  5
442
100
AcDbEntity
  8
8
  6
HIDDEN
 62
     7
100
AcDbLine
 10
310.899999999999
 20
74.519173999124
 11
311.859758697398
 21
74.519173999124
  0
ELLIPSE
  5
443
100
AcDbEntity
  8
8
  6
HIDDEN
 62
     7
100
AcDbEllipse
 10
299.7
 20
98.98378888039
 30
0.0
 11
2.5
 21
0.0
 31
0.0
210
0.0
220
0.0
230
1.0
 40
0.694817478477597
 41
0.0
 42
3.14159265358979
  0
ELLIPSE
  5
444
100
AcDbEntity
  8
8
  6
HIDDEN
 62
     7
100
AcDbEllipse
 10
310.899999999999
 20
98.98378888039
 30
0.0
 11
0.0
 21
-21.204621456972
 31
0.0
210
0.0
220
0.0
230
1.0
 40
0.410287918492336
 41
4.71238898038469
 42
6.28318530717959
  0
ELLIPSE
  5
445
100
AcDbEntity
  8
8
  6
HIDDEN
 62
     7
100
AcDbEllipse
 10
310.899999999999
 20
100.364741785638
 30
0.0
 11
0.0
 21
-24.4646148812665
 31
0.0
210
0.0
220
0.0
230
1.0
 40
0.55999246530096
 41
4.83381966578049
 42
6.28318530717959
  0
LINE
  5
446
100
AcDbEntity
  8
8
  6
HIDDEN
 62
     7
100
AcDbLine
 10
310.899999999999
 20
75.900126904371
 11
311.859758697398
 21
75.900126904371
  0
ELLIPSE
  5
447
100
AcDbEntity
  8
8
  6
HIDDEN
 62
     7
100
AcDbEllipse
 10
299.7
 20
97.246745184196
 30
0.0
 11
2.5
 21
0.0
 31
0.0
210
0.0
220
0.0
230
1.0
 40
0.694817478477199
 41
0.0
 42
2.62867962644568
  0
ARC
  5
448
100
AcDbEntity
  8
8
  6
HIDDEN
 62
     7
100
AcDbCircle
 10
298.298555222876
 20
97.469459763808
 40
0.999999999999799
100
AcDbArc
 50
140.973249391038
 51
183.909314269294
  0
SPLINE
  5
449
100
AcDbEntity
  8
8
  6
HIDDEN
 62
     7
100
AcDbSpline
210
0.0
220
0.0
230
1.0
 70
     8
 71
     3
 72
     8
 73
     4
 74
     0
 42
1.00000000000000E-007
 43
1.00000000000000E-007
 40
0.0
 40
0.0
 40
0.0
 40
0.0
 40
28.0393898166246
 40
28.0393898166246
 40
28.0393898166246
 40
28.0393898166246
 10
297.2
 20
98.98378888039
 30
0.0
 10
297.2
 20
85.472355170983
 30
0.0
 10
303.333698927318
 20
74.519173999124
 30
0.0
 10
310.899999999999
 20
74.519173999124
 30
0.0
  0
ENDBLK
  5
44A
100
AcDbEntity
  8
8
100
AcDbBlockEnd
  0
BLOCK
  5
44D
100
AcDbEntity
  8
8
100
AcDbBlockBegin
  2
COMP2
 70
    64
 10
0.0
 20
0.0
  0
LINE
  5
44E
100
AcDbEntity
  8
8
  6
HIDDEN
 62
     7
100
AcDbLine
 10
295.7
 20
31.699999999265
 11
310.9
 21
31.699999999265
  0
ARC
  5
44F
100
AcDbEntity
  8
8
  6
HIDDEN
 62
     7
100
AcDbCircle
 10
310.9
 20
30.699999999265
 40
1.0
100
AcDbArc
 50
0.0
 51
90.0
  0
LINE
  5
450
100
AcDbEntity
  8
8
  6
HIDDEN
 62
     7
100
AcDbLine
 10
310.9
 20
4.299999999265
 11
302.000000000001
 21
4.299999999265
  0
ARC
  5
451
100
AcDbEntity
  8
8
  6
HIDDEN
 62
     7
100
AcDbCircle
 10
310.9
 20
5.299999999265
 40
0.999999999999886
100
AcDbArc
 50
270.0
 51
0.0
  0
LINE
  5
452
100
AcDbEntity
  8
8
  6
HIDDEN
 62
     7
100
AcDbLine
 10
297.2
 20
4.299999999265
 11
297.2
 21
6.0999999992651
  0
LINE
  5
453
100
AcDbEntity
  8
8
  6
HIDDEN
 62
     7
100
AcDbLine
 10
302.0
 20
4.299999999265
 11
302.0
 21
6.0999999992651
  0
LINE
  5
454
100
AcDbEntity
  8
8
  6
HIDDEN
 62
     7
100
AcDbLine
 10
297.2
 20
6.0999999992651
 11
302.0
 21
6.0999999992651
  0
LINE
  5
455
100
AcDbEntity
  8
8
  6
HIDDEN
 62
     7
100
AcDbLine
 10
297.200000000001
 20
4.299999999265
 11
295.7
 21
4.299999999265
  0
LINE
  5
456
100
AcDbEntity
  8
8
  6
HIDDEN
 62
     7
100
AcDbLine
 10
310.9
 20
31.699999999265
 11
310.9
 21
8.2791674234191
  0
LINE
  5
457
100
AcDbEntity
  8
8
  6
HIDDEN
 62
     7
100
AcDbLine
 10
310.9
 20
4.300000000741
 11
310.9
 21
5.019173999126
  0
LINE
  5
458
100
AcDbEntity
  8
8
  6
HIDDEN
 62
     7
100
AcDbLine
 10
310.9
 20
8.2791674234191
 11
311.9
 21
8.2791674234191
  0
LINE
  5
459
100
AcDbEntity
  8
8
  6
HIDDEN
 62
     7
100
AcDbLine
 10
310.9
 20
5.019173999126
 11
311.859758697398
 21
5.019173999126
  0
ELLIPSE
  5
45A
100
AcDbEntity
  8
8
  6
HIDDEN
 62
     7
100
AcDbEllipse
 10
299.700000000001
 20
29.483788880393
 30
0.0
 11
2.5
 21
0.0
 31
0.0
210
0.0
220
0.0
230
1.0
 40
0.694817478477199
 41
0.0
 42
3.14159265358979
  0
ELLIPSE
  5
45B
100
AcDbEntity
  8
8
  6
HIDDEN
 62
     7
100
AcDbEllipse
 10
310.9
 20
29.4837888803926
 30
0.0
 11
0.0
 21
-21.2046214569725
 31
0.0
210
0.0
220
0.0
230
1.0
 40
0.410287918492326
 41
4.71238898038469
 42
6.28318530717959
  0
ELLIPSE
  5
45C
100
AcDbEntity
  8
8
  6
HIDDEN
 62
     7
100
AcDbEllipse
 10
310.9
 20
29.4837888803925
 30
0.0
 11
0.0
 21
-24.4646148812665
 31
0.0
210
0.0
220
0.0
230
1.0
 40
0.559992465300959
 41
4.71238898038469
 42
6.28318530717959
  0
ELLIPSE
  5
45D
100
AcDbEntity
  8
8
  6
HIDDEN
 62
     7
100
AcDbEllipse
 10
310.9
 20
30.86474178564
 30
0.0
 11
0.0
 21
-24.464614881266
 31
0.0
210
0.0
220
0.0
230
1.0
 40
0.559992465300971
 41
4.83381966578052
 42
6.28318530717959
  0
LINE
  5
45E
100
AcDbEntity
  8
8
  6
HIDDEN
 62
     7
100
AcDbLine
 10
310.9
 20
6.400126904374
 11
311.859758697398
 21
6.400126904374
  0
ELLIPSE
  5
45F
100
AcDbEntity
  8
8
  6
HIDDEN
 62
     7
100
AcDbEllipse
 10
299.700000000001
 20
27.746745184199
 30
0.0
 11
2.5
 21
0.0
 31
0.0
210
0.0
220
0.0
230
1.0
 40
0.6948174784776
 41
0.0
 42
2.62867962644643
  0
ARC
  5
460
100
AcDbEntity
  8
8
  6
HIDDEN
 62
     7
100
AcDbCircle
 10
298.298555222877
 20
27.969459763811
 40
0.999999999999843
100
AcDbArc
 50
140.973249391083
 51
183.909314269352
  0
LINE
  5
461
100
AcDbEntity
  8
8
  6
HIDDEN
 62
     7
100
AcDbLine
 10
311.9
 20
30.699999999265
 11
311.9
 21
5.299999999265
  0
ENDBLK
  5
462
100
AcDbEntity
  8
8
100
AcDbBlockEnd
  0
ENDSEC
  0
SECTION
  2
ENTITIES
  0
INSERT
  5
25
100
AcDbEntity
  8
4
  6
HIDDEN
 62
     2
100
AcDbBlockReference
  2
SUB1
 10
35.9999999999999
 20
0.0
 41
1.0
 42
1.0
 50
0.0
  0
INSERT
  5
128
100
AcDbEntity
  8
4
  6
HIDDEN
 62
     2
100
AcDbBlockReference
  2
SUB2
 10
-91.5
 20
-139.5
 41
1.0
 42
1.0
 50
0.0
  0
DIMENSION
  5
220
100
AcDbEntity
  8
4
  6
CONTINUOUS
 62
     2
100
AcDbDimension
  2
*D1
 10
-58.2983738762491
 20
24.596747752498
 11
-71.0000000000001
 21
42.0
 70
    35
  3
ISO-25
100
AcDbDiametricDimension
 15
-33.7016261237511
 25
-24.596747752498
1001
ACAD
1000
DSTYLE
1002
{
1070
   280
1070
     1
1002
}
  0
ARC
  5
221
100
AcDbEntity
  8
4
  6
CONTINUOUS
 62
     2
100
AcDbCircle
 10
-46.0000000000001
 20
0.0
 40
27.5
100
AcDbArc
 50
275.702114437357
 51
300.603294608207
  0
ARC
  5
222
100
AcDbEntity
  8
4
  6
CONTINUOUS
 62
     2
100
AcDbCircle
 10
-46.0000000000001
 20
0.0
 40
27.4999999999997
100
AcDbArc
 50
95.7021144373569
 51
119.744881296943
  0
DIMENSION
  5
22D
100
AcDbEntity
  8
4
  6
CONTINUOUS
 62
     2
100
AcDbDimension
  2
*D2
 10
-45.9999901169691
 20
-22.5
 11
-65.3125000000001
 21
-35.0
 70
    36
  3
ISO-25
100
AcDbRadialDimension
 15
-48.2378038025831
 25
-24.498046523101
  0
LINE
  5
22E
100
AcDbEntity
  8
6
  6
CENTER
100
AcDbLine
 10
-26.0000000000001
 20
0.0
 11
-66.0000000000001
 21
0.0
  0
LINE
  5
22F
100
AcDbEntity
  8
6
  6
CENTER
100
AcDbLine
 10
-28.5000000000001
 20
18.0
 11
-35.0385463646211
 21
18.0
  0
LINE
  5
230
100
AcDbEntity
  8
6
  6
CENTER
100
AcDbLine
 10
-57.1362289283371
 20
18.0
 11
-63.5000000000001
 21
18.0
  0
LINE
  5
231
100
AcDbEntity
  8
6
  6
CENTER
100
AcDbLine
 10
-46.0000000000001
 20
31.5
 11
-46.0000000000001
 21
-30.861115664172
  0
LINE
  5
232
100
AcDbEntity
  8
2
  6
CONTINUOUS
100
AcDbLine
 10
-43.2676970447231
 20
-27.363927359949
 11
-27.0000000000001
 21
-6.54222465250295
  0
LINE
  5
233
100
AcDbEntity
  8
2
  6
CONTINUOUS
100
AcDbLine
 10
-27.0000000000001
 20
-6.54222465250295
 11
-27.0000000000001
 21
19.8808953520711
  0
LINE
  5
234
100
AcDbEntity
  8
2
  6
CONTINUOUS
100
AcDbLine
 10
-65.0000000000001
 20
-6.54222465250295
 11
-65.0000000000001
 21
19.8808953520711
  0
LINE
  5
235
100
AcDbEntity
  8
6
  6
CENTER
100
AcDbLine
 10
-31.5000000000001
 20
21.0
 11
-31.5000000000001
 21
14.0
  0
LINE
  5
236
100
AcDbEntity
  8
6
  6
CENTER
100
AcDbLine
 10
-60.5000000000001
 20
21.0
 11
-60.5000000000001
 21
14.0
  0
ARC
  5
237
100
AcDbEntity
  8
2
  6
CONTINUOUS
100
AcDbCircle
 10
-46.0000000000001
 20
0.0
 40
27.5
100
AcDbArc
 50
46.297885562644
 51
54.9031987724152
  0
ARC
  5
238
100
AcDbEntity
  8
2
  6
CONTINUOUS
100
AcDbCircle
 10
-46.0000000000001
 20
0.0
 40
27.5
100
AcDbArc
 50
84.2978855626431
 51
95.7021144373569
  0
ARC
  5
239
100
AcDbEntity
  8
2
  6
CONTINUOUS
100
AcDbCircle
 10
-46.0000000000001
 20
0.0
 40
27.5
100
AcDbArc
 50
125.096801227585
 51
133.702114437356
  0
ARC
  5
23A
100
AcDbEntity
  8
2
  6
CONTINUOUS
100
AcDbCircle
 10
-46.0000000000001
 20
0.0
 40
27.5
100
AcDbArc
 50
264.297885562643
 51
275.702114437357
  0
CIRCLE
  5
23B
100
AcDbEntity
  8
8
  6
CONTINUOUS
 62
     7
100
AcDbCircle
 10
-45.9999923706055
 20
-22.5
 40
3.0
  0
CIRCLE
  5
23D
100
AcDbEntity
  8
2
  6
CONTINUOUS
100
AcDbCircle
 10
-45.9999923706055
 20
-22.5
 40
2.5
  0
CIRCLE
  5
23E
100
AcDbEntity
  8
2
  6
CONTINUOUS
100
AcDbCircle
 10
-45.9999923706055
 20
22.4999942779541
 40
2.5
  0
CIRCLE
  5
23F
100
AcDbEntity
  8
8
  6
CONTINUOUS
 62
     7
100
AcDbCircle
 10
-45.9999923706055
 20
22.4999942779541
 40
3.0
  0
CIRCLE
  5
240
100
AcDbEntity
  8
2
  6
CONTINUOUS
100
AcDbCircle
 10
-46.0000000000001
 20
0.0
 40
17.5
  0
CIRCLE
  5
241
100
AcDbEntity
  8
2
  6
CONTINUOUS
100
AcDbCircle
 10
-46.0000000000001
 20
0.0
 40
6.0
  0
LINE
  5
242
100
AcDbEntity
  8
2
  6
CONTINUOUS
100
AcDbLine
 10
-49.6657195746541
 20
4.75
 11
-42.3342804253461
 21
4.75
  0
LINE
  5
243
100
AcDbEntity
  8
2
  6
CONTINUOUS
100
AcDbLine
 10
-49.6657195746541
 20
-4.75
 11
-42.3342804253461
 21
-4.75
  0
LINE
  5
244
100
AcDbEntity
  8
2
  6
CONTINUOUS
100
AcDbLine
 10
-50.7500000000001
 20
-3.665719574654
 11
-50.7500000000001
 21
3.665719574654
  0
LINE
  5
245
100
AcDbEntity
  8
2
  6
CONTINUOUS
100
AcDbLine
 10
-41.2500000000001
 20
-3.665719574654
 11
-41.2500000000001
 21
3.665719574654
  0
CIRCLE
  5
246
100
AcDbEntity
  8
2
  6
CONTINUOUS
100
AcDbCircle
 10
-46.0000000000001
 20
0.0
 40
15.0
  0
CIRCLE
  5
247
100
AcDbEntity
  8
8
  6
CONTINUOUS
 62
     7
100
AcDbCircle
 10
-46.0000000000001
 20
0.0
 40
14.188
  0
LINE
  5
248
100
AcDbEntity
  8
7
  6
HIDDEN
 62
    40
100
AcDbLine
 10
-50.2500000000001
 20
-1.5999999999999
 11
-50.7500000000001
 21
-2.0999999999999
  0
LINE
  5
249
100
AcDbEntity
  8
7
  6
HIDDEN
 62
    40
100
AcDbLine
 10
-50.2500000000001
 20
-1.5999999999999
 11
-50.2500000000001
 21
1.6
  0
LINE
  5
24A
100
AcDbEntity
  8
7
  6
HIDDEN
 62
    40
100
AcDbLine
 10
-50.2500000000001
 20
1.6
 11
-50.7500000000001
 21
2.1
  0
LINE
  5
24B
100
AcDbEntity
  8
7
  6
HIDDEN
 62
    40
100
AcDbLine
 10
-41.7500000000001
 20
1.6
 11
-50.2500000000001
 21
1.6
  0
LINE
  5
24C
100
AcDbEntity
  8
7
  6
HIDDEN
 62
    40
100
AcDbLine
 10
-41.7500000000001
 20
-1.5999999999999
 11
-50.2500000000001
 21
-1.5999999999999
  0
LINE
  5
24D
100
AcDbEntity
  8
7
  6
HIDDEN
 62
    40
100
AcDbLine
 10
-41.7500000000001
 20
-1.5999999999999
 11
-41.7500000000001
 21
1.6
  0
LINE
  5
24E
100
AcDbEntity
  8
7
  6
HIDDEN
 62
    40
100
AcDbLine
 10
-41.7500000000001
 20
-1.5999999999999
 11
-41.2500000000001
 21
-2.0999999999999
  0
LINE
  5
24F
100
AcDbEntity
  8
7
  6
HIDDEN
 62
    40
100
AcDbLine
 10
-41.7500000000001
 20
1.6
 11
-41.2500000000001
 21
2.1
  0
CIRCLE
  5
250
100
AcDbEntity
  8
2
  6
CONTINUOUS
100
AcDbCircle
 10
-35.0000000000001
 20
0.0
 40
1.75
  0
CIRCLE
  5
251
100
AcDbEntity
  8
2
  6
CONTINUOUS
100
AcDbCircle
 10
-46.0000000000001
 20
-11.0
 40
1.75
  0
CIRCLE
  5
252
100
AcDbEntity
  8
2
  6
CONTINUOUS
100
AcDbCircle
 10
-57.0000000000001
 20
0.0
 40
1.75
  0
CIRCLE
  5
253
100
AcDbEntity
  8
2
  6
CONTINUOUS
100
AcDbCircle
 10
-46.0000000000001
 20
11.0
 40
1.75
  0
LINE
  5
254
100
AcDbEntity
  8
2
  6
CONTINUOUS
100
AcDbLine
 10
-61.8113883008421
 20
22.5
 11
-52.5324194899791
 21
22.5
  0
LINE
  5
255
100
AcDbEntity
  8
2
  6
CONTINUOUS
100
AcDbLine
 10
-39.4675805100231
 20
22.5
 11
-30.1886116991581
 21
22.5
  0
LINE
  5
256
100
AcDbEntity
  8
2
  6
CONTINUOUS
100
AcDbLine
 10
-43.2676970447231
 20
27.363927359949
 11
-27.0000000000001
 21
6.542224652503
  0
LINE
  5
257
100
AcDbEntity
  8
2
  6
CONTINUOUS
100
AcDbLine
 10
-48.7323029552771
 20
27.363927359949
 11
-65.0000000000001
 21
6.54222465251
  0
ARC
  5
258
100
AcDbEntity
  8
6
  6
CENTER
100
AcDbCircle
 10
-46.0000000000001
 20
0.0
 40
22.5
100
AcDbArc
 50
59.8391533975304
 51
105.536242588094
  0
ARC
  5
259
100
AcDbEntity
  8
6
  6
CENTER
100
AcDbCircle
 10
-46.0000000000001
 20
0.0
 40
22.5
100
AcDbArc
 50
238.645305877263
 51
282.991482174831
  0
DIMENSION
  5
268
100
AcDbEntity
  8
4
  6
CONTINUOUS
 62
     2
100
AcDbDimension
  2
*D3
 10
-56.0623058987491
 20
-20.124611797498
 11
-64.0000000000001
 21
-28.0
 70
    35
  3
ISO-25
100
AcDbDiametricDimension
 15
-35.9376941012511
 25
20.124611797498
1001
ACAD
1000
DSTYLE
1002
{
1070
   280
1070
     1
1002
}
  0
DIMENSION
  5
278
100
AcDbEntity
  8
4
  6
CONTINUOUS
 62
     2
100
AcDbDimension
  2
*D4
 10
-46.0000000000016
 20
-52.5000000000005
 11
-46.0000000000011
 21
-52.5
 70
    37
  3
ISO-25
100
AcDb3PointAngularDimension
 13
-46.0000000000001
 23
-30.861115664173
 14
-46.0000000000001
 24
-30.861115664173
 15
-46.0000000000001
 25
-30.861115664173
  0
LINE
  5
279
100
AcDbEntity
  8
4
  6
CONTINUOUS
 62
     2
100
AcDbLine
 10
-48.7323029552771
 20
-27.363927359949
 11
-45.6921692623371
 21
-31.2551210409759
  0
LINE
  5
27A
100
AcDbEntity
  8
4
  6
CONTINUOUS
 62
     2
100
AcDbLine
 10
-43.2676970447231
 20
-27.363927359949
 11
-46.3078307376631
 21
-31.2551210409759
  0
ARC
  5
27B
100
AcDbEntity
  8
7
  6
CENTER2
 62
    40
100
AcDbCircle
 10
-46.0000000000001
 20
0.0
 40
11.0
100
AcDbArc
 50
345.341195164516
 51
285.099647538036
  0
MTEXT
  5
27C
100
AcDbEntity
  8
4
  6
CONTINUOUS
 62
     2
100
AcDbMText
 10
-36.9276342296031
 20
-2.8668107834899
 40
3.5
 41
0.0
 11
-0.5
 21
-0.866025403784438
 71
     7
 72
     5
  7
STANDARD
  1
{\T1.60714;\W0.666667;O}
  0
MTEXT
  5
27D
100
AcDbEntity
  8
4
  6
CONTINUOUS
 62
     2
100
AcDbMText
 10
-38.0050490624491
 20
-5.032823174395
 40
3.5
 41
0.0
 11
-0.642787609686539
 21
-0.766044443118978
 71
     7
 72
     5
  7
STANDARD
  1
{\T1.60714;\W0.666667;F}
  0
MTEXT
  5
27E
100
AcDbEntity
  8
4
  6
CONTINUOUS
 62
     2
100
AcDbMText
 10
-39.2910457511561
 20
-6.55730431797695
 40
3.5
 41
0.0
 11
-0.766044443118978
 21
-0.642787609686539
 71
     7
 72
     5
  7
STANDARD
  1
{\T1.60714;\W0.666667;F}
  0
MTEXT
  5
27F
100
AcDbEntity
  8
4
  6
CONTINUOUS
 62
     2
100
AcDbMText
 10
-40.6785245454081
 20
-7.46609287768595
 40
3.5
 41
0.0
 11
-0.866025403784439
 21
-0.5
 71
     7
 72
     5
  7
BIGFONT
  1
{\T1.25;\W1.05263;→}
  0
LINE
  5
280
100
AcDbEntity
  8
2
  6
CONTINUOUS
100
AcDbLine
 10
-56.5000000000001
 20
33.0
 11
-35.5000000000001
 21
33.0
  0
LINE
  5
281
100
AcDbEntity
  8
2
  6
CONTINUOUS
100
AcDbLine
 10
-34.5000000000001
 20
32.0
 11
-34.5000000000001
 21
22.5
  0
LINE
  5
282
100
AcDbEntity
  8
2
  6
CONTINUOUS
100
AcDbLine
 10
-34.5000000000001
 20
32.0
 11
-35.5000000000001
 21
33.0
  0
LINE
  5
283
100
AcDbEntity
  8
2
  6
CONTINUOUS
100
AcDbLine
 10
-49.0000000000001
 20
28.5
 11
-43.0000000000001
 21
28.5
  0
LINE
  5
284
100
AcDbEntity
  8
2
  6
CONTINUOUS
100
AcDbLine
 10
-43.0000000000001
 20
33.0
 11
-43.0000000000001
 21
28.5
  0
LINE
  5
285
100
AcDbEntity
  8
2
  6
CONTINUOUS
100
AcDbLine
 10
-34.5000000000001
 20
32.0
 11
-43.0000000000001
 21
32.0
  0
LINE
  5
286
100
AcDbEntity
  8
2
  6
CONTINUOUS
100
AcDbLine
 10
-49.0000000000001
 20
32.0
 11
-57.5000000000001
 21
32.0
  0
INSERT
  5
288
100
AcDbEntity
  8
2
  6
CONTINUOUS
100
AcDbBlockReference
  2
SUB3
 10
-46.0000000000001
 20
28.5
 41
1.0
 42
1.0
 50
0.0
  0
LINE
  5
295
100
AcDbEntity
  8
2
  6
CONTINUOUS
100
AcDbLine
 10
-43.5000000000001
 20
33.5
 11
-43.5000000000001
 21
33.0
  0
ARC
  5
296
100
AcDbEntity
  8
2
  6
CONTINUOUS
100
AcDbCircle
 10
-45.0000000000001
 20
33.5
 40
1.5
100
AcDbArc
 50
0.0
 51
90.0
  0
LINE
  5
297
100
AcDbEntity
  8
2
  6
CONTINUOUS
100
AcDbLine
 10
-47.0000000000001
 20
35.0000000000001
 11
-45.0000000000001
 21
35.0000000000001
  0
LINE
  5
298
100
AcDbEntity
  8
2
  6
CONTINUOUS
100
AcDbLine
 10
-57.5000000000001
 20
32.0
 11
-57.5000000000001
 21
22.5
  0
LINE
  5
299
100
AcDbEntity
  8
2
  6
CONTINUOUS
100
AcDbLine
 10
-56.5000000000001
 20
33.0
 11
-57.5000000000001
 21
32.0
  0
LINE
  5
29A
100
AcDbEntity
  8
2
  6
CONTINUOUS
100
AcDbLine
 10
-49.0000000000001
 20
33.0
 11
-49.0000000000001
 21
28.5
  0
ARC
  5
29B
100
AcDbEntity
  8
2
  6
CONTINUOUS
100
AcDbCircle
 10
-47.0000000000001
 20
33.5
 40
1.5
100
AcDbArc
 50
90.0
 51
180.0
  0
LINE
  5
29C
100
AcDbEntity
  8
2
  6
CONTINUOUS
100
AcDbLine
 10
-48.5000000000001
 20
33.5
 11
-48.5000000000001
 21
33.0
  0
DIMENSION
  5
2AC
100
AcDbEntity
  8
4
  6
CONTINUOUS
 62
     2
100
AcDbDimension
  2
*D5
 10
-73.4055092479971
 20
0.0
 11
-73.4055092479971
 21
16.5
 70
    32
  3
ISO-25
100
AcDbAlignedDimension
 13
-56.5000000000001
 23
33.0
 14
-66.0000000000001
 24
0.0
 50
270.0
100
AcDbRotatedDimension
  0
DIMENSION
  5
2BC
100
AcDbEntity
  8
4
  6
CONTINUOUS
 62
     2
100
AcDbDimension
  2
*D6
 10
-34.5000000000001
 20
47.0
 11
-46.0000000000001
 21
47.0
 70
    32
  3
ISO-25
100
AcDbAlignedDimension
 13
-57.5000000000001
 23
32.0
 14
-34.5000000000001
 24
32.0
 50
0.0
100
AcDbRotatedDimension
  0
DIMENSION
  5
2CC
100
AcDbEntity
  8
4
  6
CONTINUOUS
 62
     2
100
AcDbDimension
  2
*D7
 10
-27.0000000000001
 20
56.0
 11
-46.0000000000001
 21
56.0
 70
    32
  3
ISO-25
100
AcDbAlignedDimension
 13
-65.0000000000001
 23
19.8808953520711
 14
-27.0000000000001
 24
19.8808953520711
 50
0.0
100
AcDbRotatedDimension
  0
DIMENSION
  5
2DD
100
AcDbEntity
  8
4
  6
CONTINUOUS
 62
     2
100
AcDbDimension
  2
*D8
 10
-41.2500000000001
 20
-31.3496993197981
 11
-32.9375000000001
 21
-31.3496993197981
 70
    32
  3
ISO-25
100
AcDbAlignedDimension
 13
-50.7500000000001
 23
-3.6657195746539
 14
-41.2500000000001
 24
-3.6657195746539
 50
0.0
100
AcDbRotatedDimension
1001
ACAD
1000
DSTYLE
1002
{
1070
   280
1070
     2
1002
}
  0
LINE
  5
2DE
100
AcDbEntity
  8
2
  6
CONTINUOUS
100
AcDbLine
 10
-48.7323029552771
 20
-27.363927359949
 11
-49.3659425639991
 21
-26.552905644939
  0
LINE
  5
2DF
100
AcDbEntity
  8
2
  6
CONTINUOUS
100
AcDbLine
 10
-49.3659425639991
 20
-26.552905644939
 11
-50.3214964042941
 21
-25.3298525029429
  0
LINE
  5
2E0
100
AcDbEntity
  8
2
  6
CONTINUOUS
100
AcDbLine
 10
-50.3214964042941
 20
-25.3298525029429
 11
-64.9999999999981
 21
-6.54222465250096
  0
ARC
  5
2E1
100
AcDbEntity
  8
2
  6
CONTINUOUS
100
AcDbCircle
 10
-30.0000000000001
 20
34.0
 40
2.0
100
AcDbArc
 50
0.0
 51
90.0
  0
LINE
  5
2E2
100
AcDbEntity
  8
2
  6
CONTINUOUS
100
AcDbLine
 10
-62.0000000000001
 20
36.0
 11
-30.0000000000001
 21
36.0
  0
ARC
  5
2E3
100
AcDbEntity
  8
2
  6
CONTINUOUS
100
AcDbCircle
 10
-62.0000000000001
 20
34.0
 40
2.0
100
AcDbArc
 50
90.0
 51
180.0
  0
LINE
  5
2E4
100
AcDbEntity
  8
2
  6
CONTINUOUS
100
AcDbLine
 10
-28.0000000000001
 20
34.0
 11
-28.0000000000001
 21
20.7906228862918
  0
LINE
  5
2E5
100
AcDbEntity
  8
2
  6
CONTINUOUS
100
AcDbLine
 10
-64.0000000000001
 20
34.0
 11
-64.0000000000001
 21
20.7906228862918
  0
LINE
  5
2E6
100
AcDbEntity
  8
2
  6
CONTINUOUS
100
AcDbLine
 10
451.267697044723
 20
-27.3639273599489
 11
450.634057436002
 21
-26.552905644939
  0
LINE
  5
2E7
100
AcDbEntity
  8
2
  6
CONTINUOUS
100
AcDbLine
 10
450.634057436002
 20
-26.552905644939
 11
449.678503595706
 21
-25.329852502943
  0
LINE
  5
2E8
100
AcDbEntity
  8
2
  6
CONTINUOUS
100
AcDbLine
 10
449.678503595706
 20
-25.329852502943
 11
435.000000000003
 21
-6.54222465250099
  0
ARC
  5
2E9
100
AcDbEntity
  8
2
  6
CONTINUOUS
100
AcDbCircle
 10
454.0
 20
0.0
 40
18.0
100
AcDbArc
 50
180.0
 51
220.000000000001
  0
ARC
  5
2EA
100
AcDbEntity
  8
2
  6
CONTINUOUS
100
AcDbCircle
 10
454.0
 20
0.0
 40
18.0
100
AcDbArc
 50
320.000000000001
 51
0.0
  0
ARC
  5
2EB
100
AcDbEntity
  8
6
  6
CENTER
100
AcDbCircle
 10
454.0
 20
0.0
 40
22.5
100
AcDbArc
 50
256.615700447941
 51
282.991482174831
  0
ARC
  5
2EC
100
AcDbEntity
  8
2
  6
CONTINUOUS
100
AcDbCircle
 10
454.0
 20
0.0
 40
19.9999999999996
100
AcDbArc
 50
245.841932763167
 51
294.158067236836
  0
LINE
  5
2ED
100
AcDbEntity
  8
2
  6
CONTINUOUS
100
AcDbLine
 10
445.814892489426
 20
-18.2483976019901
 11
440.211200023859
 21
-11.5701769743577
  0
ARC
  5
2EE
100
AcDbEntity
  8
2
  6
CONTINUOUS
100
AcDbCircle
 10
454.0
 20
0.0
 40
27.4999999999997
100
AcDbArc
 50
264.297885562645
 51
275.702114437357
  0
LINE
  5
2EF
100
AcDbEntity
  8
2
  6
CONTINUOUS
100
AcDbLine
 10
456.732302955277
 20
-27.3639273599489
 11
473.0
 21
-6.54222465250292
  0
LINE
  5
2F0
100
AcDbEntity
  8
2
  6
CONTINUOUS
100
AcDbLine
 10
462.185107510575
 20
-18.2483976019901
 11
467.788799976142
 21
-11.5701769743577
  0
LINE
  5
2F1
100
AcDbEntity
  8
2
  6
CONTINUOUS
100
AcDbLine
 10
472.0
 20
34.0
 11
472.0
 21
0.0
  0
LINE
  5
2F2
100
AcDbEntity
  8
2
  6
CONTINUOUS
100
AcDbLine
 10
436.0
 20
34.0
 11
436.0
 21
0.0
  0
ARC
  5
2F3
100
AcDbEntity
  8
2
  6
CONTINUOUS
100
AcDbCircle
 10
438.0
 20
34.0
 40
2.0
100
AcDbArc
 50
90.0
 51
180.0
  0
LINE
  5
2F4
100
AcDbEntity
  8
2
  6
CONTINUOUS
100
AcDbLine
 10
438.0
 20
36.0
 11
470.0
 21
36.0
  0
ARC
  5
2F5
100
AcDbEntity
  8
2
  6
CONTINUOUS
100
AcDbCircle
 10
470.0
 20
34.0
 40
2.0
100
AcDbArc
 50
0.0
 51
90.0
  0
CIRCLE
  5
2F6
100
AcDbEntity
  8
2
  6
CONTINUOUS
100
AcDbCircle
 10
454.0
 20
18.0
 40
13.7
  0
LINE
  5
2F7
100
AcDbEntity
  8
7
  6
CENTER2
 62
    40
100
AcDbLine
 10
474.0
 20
30.299998287199
 11
434.0
 21
30.299998287199
  0
LINE
  5
2F8
100
AcDbEntity
  8
7
  6
CENTER2
 62
    40
100
AcDbLine
 10
474.0
 20
5.700001712801
 11
434.0
 21
5.700001712801
  0
INSERT
  5
2FA
100
AcDbEntity
  8
7
  6
CENTER2
 62
    40
100
AcDbBlockReference
  2
SUB4
 10
466.299998287199
 20
30.299998287199
 41
1.0
 42
1.0
 50
0.0
  0
INSERT
  5
301
100
AcDbEntity
  8
7
  6
CENTER2
 62
    40
100
AcDbBlockReference
  2
SUB5
 10
466.299998287199
 20
5.700001712801
 41
1.0
 42
1.0
 50
0.0
  0
INSERT
  5
308
100
AcDbEntity
  8
7
  6
CENTER2
 62
    40
100
AcDbBlockReference
  2
SUB6
 10
441.700001712801
 20
5.700001712801
 41
1.0
 42
1.0
 50
0.0
  0
INSERT
  5
30F
100
AcDbEntity
  8
7
  6
CENTER2
 62
    40
100
AcDbBlockReference
  2
SUB7
 10
441.700001712801
 20
30.299998287199
 41
1.0
 42
1.0
 50
0.0
  0
LINE
  5
315
100
AcDbEntity
  8
7
  6
CENTER2
 62
    40
100
AcDbLine
 10
466.299998287199
 20
37.6974590512049
 11
466.299998287199
 21
-1.5340498165673
  0
LINE
  5
316
100
AcDbEntity
  8
7
  6
CENTER2
 62
    40
100
AcDbLine
 10
441.700001712801
 20
37.6974590512049
 11
441.700001712801
 21
-1.5340498165673
  0
INSERT
  5
318
100
AcDbEntity
  8
7
  6
CENTER2
 62
    40
100
AcDbBlockReference
  2
SUB8
 10
454.0
 20
-16.0
 41
1.0
 42
1.0
 50
0.0
  0
LINE
  5
31E
100
AcDbEntity
  8
7
  6
CENTER2
 62
    40
100
AcDbLine
 10
461.313912575937
 20
-16.0
 11
446.574995866013
 21
-16.0
  0
ARC
  5
31F
100
AcDbEntity
  8
2
  6
CONTINUOUS
100
AcDbCircle
 10
468.270000000738
 20
3.729999999262
 40
2.0
100
AcDbArc
 50
270.0
 51
0.0
  0
LINE
  5
320
100
AcDbEntity
  8
2
  6
CONTINUOUS
100
AcDbLine
 10
470.270000000738
 20
32.269999999262
 11
470.270000000738
 21
3.729999999262
  0
ARC
  5
321
100
AcDbEntity
  8
2
  6
CONTINUOUS
100
AcDbCircle
 10
468.270000000738
 20
32.269999999262
 40
2.0
100
AcDbArc
 50
0.0
 51
90.0
  0
LINE
  5
322
100
AcDbEntity
  8
2
  6
CONTINUOUS
100
AcDbLine
 10
439.729999999262
 20
34.269999999262
 11
468.270000000738
 21
34.269999999262
  0
ARC
  5
323
100
AcDbEntity
  8
2
  6
CONTINUOUS
100
AcDbCircle
 10
439.729999999262
 20
32.269999999262
 40
2.0
100
AcDbArc
 50
90.0
 51
180.0
  0
LINE
  5
324
100
AcDbEntity
  8
2
  6
CONTINUOUS
100
AcDbLine
 10
437.729999999262
 20
32.269999999262
 11
437.729999999262
 21
3.729999999262
  0
LINE
  5
325
100
AcDbEntity
  8
2
  6
CONTINUOUS
100
AcDbLine
 10
439.729999999262
 20
1.729999999262
 11
468.270000000738
 21
1.729999999262
  0
ARC
  5
326
100
AcDbEntity
  8
2
  6
CONTINUOUS
100
AcDbCircle
 10
439.729999999262
 20
3.729999999262
 40
2.0
100
AcDbArc
 50
180.0
 51
270.0
  0
CIRCLE
  5
327
100
AcDbEntity
  8
2
  6
CONTINUOUS
100
AcDbCircle
 10
454.0
 20
18.0
 40
11.7
  0
LINE
  5
328
100
AcDbEntity
  8
7
  6
CENTER2
 62
    40
100
AcDbLine
 10
472.7
 20
18.0
 11
435.3
 21
18.0
  0
ARC
  5
329
100
AcDbEntity
  8
2
  6
CONTINUOUS
100
AcDbCircle
 10
454.0
 20
-22.5
 40
4.24999999999999
100
AcDbArc
 50
139.458398126493
 51
40.5416018735156
  0
ARC
  5
32A
100
AcDbEntity
  8
2
  6
CONTINUOUS
100
AcDbCircle
 10
454.0
 20
-22.5
 40
3.74999999999999
100
AcDbArc
 50
134.523495637218
 51
45.476504362783
  0
LWPOLYLINE
  5
32B
100
AcDbEntity
  8
2
  6
CONTINUOUS
100
AcDbPolyline
 90
        6
 70
     1
 43
0.0
 10
454.0
 20
-20.1905989232414
 10
452.0
 20
-21.3452994616207
 10
452.0
 20
-23.6547005383792
 10
454.0
 20
-24.8094010767585
 10
456.0
 20
-23.6547005383792
 10
456.0
 20
-21.3452994616207
  0
LINE
  5
32C
100
AcDbEntity
  8
7
  6
CENTER2
 62
    40
100
AcDbLine
 10
431.075466674163
 20
0.0
 11
477.14359211829
 21
0.0
  0
LINE
  5
32D
100
AcDbEntity
  8
7
  6
CENTER2
 62
    40
100
AcDbLine
 10
454.0
 20
-31.3172012779628
 11
454.0
 21
39.7370261019628
  0
DIMENSION
  5
33D
100
AcDbEntity
  8
4
  6
CONTINUOUS
 62
     2
100
AcDbDimension
  2
*D9
 10
419.218990017395
 20
0.0
 11
419.218990017395
 21
18.0
 70
    32
  3
ISO-25
100
AcDbAlignedDimension
 13
438.0
 23
36.0
 14
431.075466674163
 24
0.0
 50
270.0
100
AcDbRotatedDimension
  0
DIMENSION
  5
34D
100
AcDbEntity
  8
4
  6
CONTINUOUS
 62
     2
100
AcDbDimension
  2
*D10
 10
472.0
 20
47.0
 11
454.0
 21
47.0
 70
    32
  3
ISO-25
100
AcDbAlignedDimension
 13
436.0
 23
34.0
 14
472.0
 24
34.0
 50
0.0
100
AcDbRotatedDimension
  0
ARC
  5
34E
100
AcDbEntity
  8
2
  6
CONTINUOUS
100
AcDbCircle
 10
454.0
 20
0.0
 40
27.5
100
AcDbArc
 50
46.297885562644
 51
49.1148071073165
  0
ARC
  5
34F
100
AcDbEntity
  8
2
  6
CONTINUOUS
100
AcDbCircle
 10
454.0
 20
0.0
 40
27.4999999999999
100
AcDbArc
 50
130.885192892684
 51
133.702114437356
  0
LINE
  5
350
100
AcDbEntity
  8
2
  6
CONTINUOUS
100
AcDbLine
 10
473.0
 20
-6.54222465250292
 11
473.0
 21
19.8808953520711
  0
LINE
  5
351
100
AcDbEntity
  8
2
  6
CONTINUOUS
100
AcDbLine
 10
435.0
 20
-6.54222465250292
 11
435.0
 21
19.880895352071
  0
DIMENSION
  5
361
100
AcDbEntity
  8
4
  6
CONTINUOUS
 62
     2
100
AcDbDimension
  2
*D11
 10
427.805626844769
 20
0.0
 11
427.805626844769
 21
9.0
 70
    32
  3
ISO-25
100
AcDbAlignedDimension
 13
435.3
 23
18.0
 14
431.075466674163
 24
0.0
 50
270.0
100
AcDbRotatedDimension
  0
INSERT
  5
363
100
AcDbEntity
  8
2
  6
CONTINUOUS
100
AcDbBlockReference
  2
M5_0001
 10
-31.5000000000001
 20
18.0
 41
1.0
 42
1.0
 50
0.0
  0
INSERT
  5
369
100
AcDbEntity
  8
2
  6
CONTINUOUS
100
AcDbBlockReference
  2
M5_0002
 10
-60.5000000000001
 20
18.0
 41
1.0
 42
1.0
 50
0.0
  0
DIMENSION
  5
37D
100
AcDbEntity
  8
4
  6
CONTINUOUS
 62
     2
100
AcDbDimension
  2
*D12
 10
0.0
 20
38.0
 11
6.0
 21
38.0
 70
    32
  3
ISO-25
100
AcDbAlignedDimension
 13
12.0
 23
6.0
 14
0.0
 24
4.25
 50
180.0
100
AcDbRotatedDimension
  0
DIMENSION
  5
38D
100
AcDbEntity
  8
4
  6
CONTINUOUS
 62
     2
100
AcDbDimension
  2
*D13
 10
-1.77635683940025E-015
 20
47.0
 11
16.0
 21
47.0
 70
    32
  3
ISO-25
100
AcDbAlignedDimension
 13
32.0
 23
17.0
 14
0.0
 24
4.25
 50
180.0
100
AcDbRotatedDimension
  0
DIMENSION
  5
39F
100
AcDbEntity
  8
4
  6
CONTINUOUS
 62
     2
100
AcDbDimension
  2
*D14
 10
-14.7560938647571
 20
-17.5
 11
-15.7560938647571
 21
-4.87499999999998
 70
    32
  3
ISO-25
100
AcDbAlignedDimension
 13
32.5
 23
17.5
 14
32.5
 24
-17.5
 50
270.0
100
AcDbRotatedDimension
1001
ACAD
1000
DSTYLE
1002
{
1070
    47
1040
-0.05
1070
    48
1040
0.1
1070
    71
1070
     1
1070
   146
1040
0.714285714285714
1070
   272
1070
     2
1002
}
  0
DIMENSION
  5
3AF
100
AcDbEntity
  8
4
  6
CONTINUOUS
 62
     2
100
AcDbDimension
  2
*D15
 10
36.0
 20
47.0
 11
173.95
 21
47.0
 70
    32
  3
ISO-25
100
AcDbAlignedDimension
 13
311.9
 23
43.5554033409044
 14
36.0
 24
27.5
 50
180.0
100
AcDbRotatedDimension
  0
DIMENSION
  5
3BF
100
AcDbEntity
  8
4
  6
CONTINUOUS
 62
     2
100
AcDbDimension
  2
*D16
 10
311.9
 20
56.0
 11
155.95
 21
56.0
 70
    32
  3
ISO-25
100
AcDbAlignedDimension
 13
0.0
 23
4.25
 14
311.9
 24
30.699999999265
 50
0.0
100
AcDbRotatedDimension
  0
DIMENSION
  5
3D1
100
AcDbEntity
  8
4
  6
CONTINUOUS
 62
     2
100
AcDbDimension
  2
*D17
 10
36.0
 20
47.0
 11
34.0
 21
47.0
 70
    32
  3
ISO-25
100
AcDbAlignedDimension
 13
32.0
 23
17.0
 14
36.0
 24
27.5
 50
0.0
100
AcDbRotatedDimension
  0
LINE
  5
3D2
100
AcDbEntity
  8
9
  6
PHANTOM
 62
    10
100
AcDbLine
 10
97.5
 20
29.5
 11
97.25
 21
29.5
  0
LINE
  5
3D4
100
AcDbEntity
  8
9
  6
PHANTOM
 62
    10
100
AcDbLine
 10
97.5
 20
30.5
 11
97.25
 21
30.5
  0
DIMENSION
  5
3E6
100
AcDbEntity
  8
4
  6
CONTINUOUS
 62
     2
100
AcDbDimension
  2
*D18
 10
5.0
 20
29.0
 11
2.5
 21
29.0
 70
    32
  3
ISO-25
100
AcDbAlignedDimension
 13
0.0
 23
4.25
 14
5.0
 24
4.75
 50
0.0
100
AcDbRotatedDimension
  0
DIMENSION
  5
3F8
100
AcDbEntity
  8
4
  6
CONTINUOUS
 62
     2
100
AcDbDimension
  2
*D19
 10
0.0
 20
29.039520609652
 11
2.5
 21
29.039520609652
 70
    32
  3
ISO-25
100
AcDbAlignedDimension
 13
5.0
 23
4.75
 14
0.0
 24
4.25
 50
180.0
100
AcDbRotatedDimension
  0
DIMENSION
  5
408
100
AcDbEntity
  8
4
  6
CONTINUOUS
 62
     2
100
AcDbDimension
  2
*D20
 10
-7.7560938647572
 20
-6.0
 11
-7.7560938647572
 21
0.0
 70
    32
  3
ISO-25
100
AcDbAlignedDimension
 13
12.0
 23
6.0
 14
12.0
 24
-6.0
 50
270.0
100
AcDbRotatedDimension
  0
DIMENSION
  5
418
100
AcDbEntity
  8
4
  6
CONTINUOUS
 62
     2
100
AcDbDimension
  2
*D21
 10
5.62571858945249
 20
-1.4725746999089
 11
16.901871579462
 21
-15.5075173405169
 70
    35
  3
ISO-25
100
AcDbDiametricDimension
 15
4.3742814105475
 25
1.4725746999101
1001
ACAD
1000
DSTYLE
1002
{
1070
   280
1070
     1
1002
}
  0
LINE
  5
419
100
AcDbEntity
  8
2
  6
CONTINUOUS
100
AcDbLine
 10
51.2501940670187
 20
-69.7720135500586
 11
251.250194067019
 21
-69.7720135500586
  0
LINE
  5
41A
100
AcDbEntity
  8
2
  6
CONTINUOUS
100
AcDbLine
 10
251.250194067019
 20
-79.7720135500586
 11
251.250194067019
 21
-57.2720135500586
  0
LINE
  5
41B
100
AcDbEntity
  8
2
  6
CONTINUOUS
100
AcDbLine
 10
51.2501940670187
 20
-57.2720135500586
 11
251.250194067019
 21
-57.2720135500586
  0
LINE
  5
41C
100
AcDbEntity
  8
2
  6
CONTINUOUS
100
AcDbLine
 10
51.2501940670187
 20
-79.7720135500586
 11
251.250194067019
 21
-79.7720135500586
  0
MTEXT
  5
41D
100
AcDbEntity
  8
4
  6
CONTINUOUS
 62
     2
100
AcDbMText
 10
231.250194067019
 20
-63.5220135500586
 40
3.5
 41
0.0
 11
1.0
 21
0.0
 71
     5
 72
     5
  7
BIGFONT
  1
{\T1.38889;\W0.676692;備　　　　　考}
  0
LINE
  5
41E
100
AcDbEntity
  8
2
  6
CONTINUOUS
100
AcDbLine
 10
181.250194067019
 20
-79.7720135500586
 11
181.250194067019
 21
-57.2720135500586
  0
LINE
  5
41F
100
AcDbEntity
  8
2
  6
CONTINUOUS
100
AcDbLine
 10
151.250194067019
 20
-79.7720135500586
 11
151.250194067019
 21
-57.2720135500586
  0
LINE
  5
420
100
AcDbEntity
  8
2
  6
CONTINUOUS
100
AcDbLine
 10
121.250194067019
 20
-79.7720135500586
 11
121.250194067019
 21
-57.2720135500586
  0
LINE
  5
421
100
AcDbEntity
  8
2
  6
CONTINUOUS
100
AcDbLine
 10
91.2501940670187
 20
-79.7720135500586
 11
91.2501940670187
 21
-57.2720135500586
  0
LINE
  5
422
100
AcDbEntity
  8
2
  6
CONTINUOUS
100
AcDbLine
 10
91.2501940670187
 20
-64.7720135500586
 11
211.250194067019
 21
-64.7720135500586
  0
MTEXT
  5
423
100
AcDbEntity
  8
4
  6
CONTINUOUS
 62
     2
100
AcDbMText
 10
71.2501940670187
 20
-74.7720135500586
 40
3.5
 41
0.0
 11
1.0
 21
0.0
 71
     5
 72
     5
  7
STANDARD
  1
{\T1.60714;\W0.666667;UNR-G613-200NT}
  0
MTEXT
  5
424
100
AcDbEntity
  8
4
  6
CONTINUOUS
 62
     2
100
AcDbMText
 10
71.2501940670187
 20
-63.5220135500586
 40
3.5
 41
0.0
 11
1.0
 21
0.0
 71
     5
 72
     5
  7
BIGFONT
  1
{\T1.375;\W0.701754;型　　　　式}
  0
MTEXT
  5
425
100
AcDbEntity
  8
4
  6
CONTINUOUS
 62
     2
100
AcDbMText
 10
106.250194067019
 20
-74.7720135500586
 40
3.5
 41
0.0
 11
1.0
 21
0.0
 71
     5
 72
     5
  7
STANDARD
  1
{\T1.60714;\W0.666667;20}
  0
MTEXT
  5
426
100
AcDbEntity
  8
4
  6
CONTINUOUS
 62
     2
100
AcDbMText
 10
136.250194067019
 20
-74.7720135500586
 40
3.5
 41
0.0
 11
1.0
 21
0.0
 71
     5
 72
     5
  7
STANDARD
  1
{\T1.60714;\W0.666667;1220}
  0
MTEXT
  5
427
100
AcDbEntity
  8
4
  6
CONTINUOUS
 62
     2
100
AcDbMText
 10
166.250194067019
 20
-74.7720135500586
 40
3.5
 41
0.0
 11
1.0
 21
0.0
 71
     5
 72
     5
  7
STANDARD
  1
{\T1.60714;\W0.666667;312}
  0
MTEXT
  5
428
100
AcDbEntity
  8
4
  6
CONTINUOUS
 62
     2
100
AcDbMText
 10
196.250194067019
 20
-74.7720135500586
 40
3.5
 41
0.0
 11
1.0
 21
0.0
 71
     5
 72
     5
  7
STANDARD
  1
{\T1.60714;\W0.666667;1.55}
  0
MTEXT
  5
429
100
AcDbEntity
  8
4
  6
CONTINUOUS
 62
     2
100
AcDbMText
 10
106.250194067019
 20
-61.0220135500586
 40
2.5
 41
0.0
 11
1.0
 21
0.0
 71
     5
 72
     5
  7
BIGFONT
  1
{\T1.25;\W1.05263;フルスケールトルク}
  0
MTEXT
  5
42A
100
AcDbEntity
  8
4
  6
CONTINUOUS
 62
     2
100
AcDbMText
 10
106.250194067019
 20
-67.2720135500586
 40
2.5
 41
0.0
 11
1.0
 21
0.0
 71
     5
 72
     5
  7
BIGFONT
  1
{\T1.35714;\W0.736842;約　Ｎ・ｍ}
  0
MTEXT
  5
42B
100
AcDbEntity
  8
4
  6
CONTINUOUS
 62
     2
100
AcDbMText
 10
136.250194067019
 20
-67.2720135500586
 40
2.5
 41
0.0
 11
1.0
 21
0.0
 71
     5
 72
     5
  7
BIGFONT
  1
{\T1.42857;\W0.614035;約　　ｒｐｍ}
  0
MTEXT
  5
42C
100
AcDbEntity
  8
4
  6
CONTINUOUS
 62
     2
100
AcDbMText
 10
136.250200170535
 20
-61.022007446543
 40
3.3
 41
0.0
 11
1.0
 21
0.0
 71
     5
 72
     5
  7
BIGFONT
  1
{\T1.34615;\W0.760234;回転速度（ＭＡＸ）}
  0
MTEXT
  5
42D
100
AcDbEntity
  8
4
  6
CONTINUOUS
 62
     2
100
AcDbMText
 10
166.250194067019
 20
-61.0220135500586
 40
3.5
 41
0.0
 11
1.0
 21
0.0
 71
     5
 72
     5
  7
BIGFONT
  1
{\T1.375;\W0.701754;全　　　　長}
  0
MTEXT
  5
42E
100
AcDbEntity
  8
4
  6
CONTINUOUS
 62
     2
100
AcDbMText
 10
166.250194067019
 20
-67.2720135500586
 40
2.5
 41
0.0
 11
1.0
 21
0.0
 71
     5
 72
     5
  7
BIGFONT
  1
{\T1.4;\W0.657895;約　ｍｍ}
  0
MTEXT
  5
42F
100
AcDbEntity
  8
4
  6
CONTINUOUS
 62
     2
100
AcDbMText
 10
196.250194067019
 20
-61.0220135500586
 40
3.5
 41
0.0
 11
1.0
 21
0.0
 71
     5
 72
     5
  7
BIGFONT
  1
{\T1.375;\W0.701754;質　　　　量}
  0
MTEXT
  5
430
100
AcDbEntity
  8
4
  6
CONTINUOUS
 62
     2
100
AcDbMText
 10
196.250194067019
 20
-67.2720135500586
 40
2.5
 41
0.0
 11
1.0
 21
0.0
 71
     5
 72
     5
  7
BIGFONT
  1
{\T1.4;\W0.657895;約　ｋｇ}
  0
LINE
  5
431
100
AcDbEntity
  8
2
  6
CONTINUOUS
100
AcDbLine
 10
211.250194067019
 20
-79.7720135500586
 11
211.250194067019
 21
-57.2720135500586
  0
LINE
  5
432
100
AcDbEntity
  8
2
  6
CONTINUOUS
100
AcDbLine
 10
51.2501940670187
 20
-79.7720135500586
 11
51.2501940670187
 21
-57.2720135500586
  0
INSERT
  5
434
100
AcDbEntity
  8
8
  6
HIDDEN
 62
     7
100
AcDbBlockReference
  2
COMP1
 10
0.0
 20
0.0
 41
1.0
 42
1.0
 50
0.0
  0
INSERT
  5
44C
100
AcDbEntity
  8
8
  6
HIDDEN
 62
     7
100
AcDbBlockReference
  2
COMP2
 10
0.0
 20
0.0
 41
1.0
 42
1.0
 50
0.0
  0
DIMENSION
  5
472
100
AcDbEntity
  8
4
  6
CONTINUOUS
 62
     2
100
AcDbDimension
  2
*D22
 10
383.9
 20
56.0
 11
347.9
 21
56.0
 70
    32
  3
ISO-25
100
AcDbAlignedDimension
 13
311.9
 23
33.7307387670581
 14
383.9
 24
28.596421786898
 50
0.0
100
AcDbRotatedDimension
1001
ACAD
1000
DSTYLE
1002
{
1070
     3
1000
(<>)
1002
}
  0
ENDSEC
  0
SECTION
  2
OBJECTS
  0
DICTIONARY
  5
C
100
AcDbDictionary
  3
ACAD_GROUP
350
D
  3
ACAD_MLINESTYLE
350
E
  3
ACDBVARIABLEDICTIONARY
350
473
  0
DICTIONARY
  5
D
102
{ACAD_REACTORS
330
C
102
}
100
AcDbDictionary
  0
DICTIONARY
  5
E
102
{ACAD_REACTORS
330
C
102
}
100
AcDbDictionary
  3
STANDARD
350
13
  0
DICTIONARY
  5
473
102
{ACAD_REACTORS
330
C
102
}
330
C
100
AcDbDictionary
  3
SORTENTS
350
474
  0
MLINESTYLE
  5
13
102
{ACAD_REACTORS
330
E
102
}
100
AcDbMlineStyle
  2
STANDARD
 70
     0
  3

 62
   256
 51
90.0
 52
90.0
 71
     2
 49
0.5
 62
   256
  6
BYLAYER
 49
-0.5
 62
   256
  6
BYLAYER
  0
DICTIONARYVAR
  5
474
102
{ACAD_REACTORS
330
473
102
}
100
DictionaryVariables
280
     0
  1
96
  0
ENDSEC
  0
EOF
