  0
SECTION
  2
HEADER
  9
$ACADVER
  1
AC1014
  9
$ACADMAINTVER
 70
     0
  9
$DWGCODEPAGE
  3
ANSI_932
  9
$INSBASE
 10
0.0
 20
0.0
 30
0.0
  9
$EXTMIN
 10
-81.33580931345
 20
-79.7720135500587
  9
$EXTMAX
 10
453.737179802359
 20
106.5
  9
$LIMMIN
 10
-81.33580931345
 20
-79.7720135500587
  9
$LIMMAX
 10
453.737179802359
 20
106.5
  9
$ORTHOMODE
 70
     0
  9
$REGENMODE
 70
     1
  9
$FILLMODE
 70
     1
  9
$QTEXTMODE
 70
     0
  9
$MIRRTEXT
 70
     1
  9
$DRAGMODE
 70
     2
  9
$LTSCALE
 40
1.0
  9
$OSMODE
 70
     0
  9
$ATTMODE
 70
     1
  9
$TEXTSIZE
 40
3.0
  9
$TRACEWID
 40
0.5
  9
$TEXTSTYLE
  7
STANDARD
  9
$CLAYER
  8
0
  9
$CELTYPE
  6
BYLAYER
  9
$CECOLOR
 62
   256
  9
$CELTSCALE
 40
1.0
  9
$DELOBJ
 70
     1
  9
$DISPSILH
 70
     0
  9
$DIMSCALE
 40
1.0
  9
$DIMASZ
 40
2.0
  9
$DIMEXO
 40
1.0
  9
$DIMDLI
 40
5.0
  9
$DIMRND
 40
0.0
  9
$DIMDLE
 40
3.0
  9
$DIMEXE
 40
1.0
  9
$DIMTP
 40
0.0
  9
$DIMTM
 40
0.0
  9
$DIMTXT
 40
3.5
  9
$DIMCEN
 40
2.0
  9
$DIMTSZ
 40
0.0
  9
$DIMTOL
 70
     0
  9
$DIMLIM
 70
     0
  9
$DIMTIH
 70
     0
  9
$DIMTOH
 70
     0
  9
$DIMSE1
 70
     0
  9
$DIMSE2
 70
     0
  9
$DIMTAD
 70
     1
  9
$DIMZIN
 70
     8
  9
$DIMBLK
  1

  9
$DIMASO
 70
     1
  9
$DIMSHO
 70
     1
  9
$DIMPOST
  1

  9
$DIMAPOST
  1

  9
$DIMALT
 70
     0
  9
$DIMALTD
 70
     4
  9
$DIMALTF
 40
0.0393700787401575
  9
$DIMLFAC
 40
1.0
  9
$DIMTOFL
 70
     1
  9
$DIMTVP
 40
1.0
  9
$DIMTIX
 70
     0
  9
$DIMSOXD
 70
     0
  9
$DIMSAH
 70
     0
  9
$DIMBLK1
  1

  9
$DIMBLK2
  1

  9
$DIMSTYLE
  2
ISO-25
  9
$DIMCLRD
 70
     0
  9
$DIMCLRE
 70
     0
  9
$DIMCLRT
 70
     0
  9
$DIMTFAC
 40
1.0
  9
$DIMGAP
 40
0.5
  9
$DIMJUST
 70
     0
  9
$DIMSD1
 70
     0
  9
$DIMSD2
 70
     0
  9
$DIMTOLJ
 70
     1
  9
$DIMTZIN
 70
     1
  9
$DIMALTZ
 70
     0
  9
$DIMALTTZ
 70
     0
  9
$DIMFIT
 70
     3
  9
$DIMUPT
 70
     0
  9
$DIMUNIT
 70
     2
  9
$DIMDEC
 70
     3
  9
$DIMTDEC
 70
     3
  9
$DIMALTU
 70
     8
  9
$DIMALTTD
 70
     4
  9
$DIMTXSTY
  7
STANDARD
  9
$DIMAUNIT
 70
     0
  9
$LUNITS
 70
     2
  9
$LUPREC
 70
     4
  9
$AXISMODE
 70
     0
  9
$AXISUNIT
 10
0.0
 20
0.0
  9
$SKETCHINC
 40
1.0
  9
$FILLETRAD
 40
0.0
  9
$AUNITS
 70
     0
  9
$AUPREC
 70
     0
  9
$MENU
  1
.
  9
$ELEVATION
 40
0.0
  9
$PELEVATION
 40
0.0
  9
$THICKNESS
 40
0.0
  9
$LIMCHECK
 70
     0
  9
$BLIPMODE
 70
     1
  9
$CHAMFERA
 40
0.0
  9
$CHAMFERB
 40
0.0
  9
$CHAMFERC
 40
0.0
  9
$CHAMFERD
 40
0.0
  9
$SKPOLY
 70
     0
  9
$TDCREATE
 40
2459662.68469907
  9
$TDUPDATE
 40
2459662.68469907
  9
$TDINDWG
 40
0.0
  9
$TDUSRTIMER
 40
0.0
  9
$USRTIMER
 70
     1
  9
$ANGBASE
 50
0.0
  9
$ANGDIR
 70
     0
  9
$PDMODE
 70
     0
  9
$PDSIZE
 40
0.0
  9
$PLINEWID
 40
0.0
  9
$COORDS
 70
     0
  9
$SPLFRAME
 70
     0
  9
$SPLINETYPE
 70
     6
  9
$SPLINESEGS
 70
     8
  9
$ATTDIA
 70
     0
  9
$ATTREQ
 70
     1
  9
$HANDLING
 70
     1
  9
$HANDSEED
  5
472
  9
$SURFTAB1
 70
     6
  9
$SURFTAB2
 70
     6
  9
$SURFTYPE
 70
     6
  9
$SURFU
 70
     6
  9
$SURFV
 70
     6
  9
$UCSNAME
  2

  9
$UCSORG
 10
0.0
 20
0.0
 30
0.0
  9
$UCSXDIR
 10
1.0
 20
0.0
 30
0.0
  9
$UCSYDIR
 10
0.0
 20
1.0
 30
0.0
  9
$PUCSNAME
  2

  9
$PUCSORG
 10
0.0
 20
1.0
 30
0.0
  9
$PUCSXDIR
 10
1.0
 20
0.0
 30
0.0
  9
$PUCSYDIR
 10
0.0
 20
1.0
 30
0.0
  9
$USERI1
 70
     0
  9
$USERI2
 70
     0
  9
$USERI3
 70
     0
  9
$USERI4
 70
     0
  9
$USERI5
 70
     0
  9
$USERR1
 40
0.0
  9
$USERR2
 40
0.0
  9
$USERR3
 40
0.0
  9
$USERR4
 40
0.0
  9
$USERR5
 40
0.0
  9
$WORLDVIEW
 70
     1
  9
$SHADEDGE
 70
     3
  9
$SHADEDIF
 70
    70
  9
$TILEMODE
 70
     1
  9
$MAXACTVP
 70
    16
  9
$PINSBASE
 10
0.0
 20
1.0
 30
0.0
  9
$PLIMCHECK
 70
     0
  9
$PEXTMIN
 10
1.00000000000000E+020
 20
1.00000000000000E+020
 30
1.00000000000000E+020
  9
$PEXTMAX
 10
-1.00000000000000E+020
 20
-1.00000000000000E+020
 30
-1.00000000000000E+020
  9
$PLIMMIN
 10
-81.33580931345
 20
-79.7720135500587
  9
$PLIMMAX
 10
453.737179802359
 20
106.5
  9
$UNITMODE
 70
     0
  9
$VISRETAIN
 70
     0
  9
$PLINEGEN
 70
     0
  9
$PSLTSCALE
 70
     0
  9
$TREEDEPTH
 70
  3020
  9
$PICKSTYLE
 70
     1
  9
$CMLSTYLE
  2
STANDARD
  9
$CMLJUST
 70
     0
  9
$CMLSCALE
 40
1.0
  9
$PROXYGRAPHICS
 70
     1
  9
$MEASUREMENT
 70
     1
  0
ENDSEC
  0
SECTION
  2
CLASSES
  0
CLASS
  1
LWPOLYLINE
  2
AcDbPolyline
  3
"AutoCAD"
 90
        0
280
     0
281
     1
  0
CLASS
  1
DICTIONARYVAR
  2
AcDbDictionaryVar
  3
"AutoCAD"
 90
        0
280
     0
281
     1
  0
CLASS
  1
HATCH
  2
AcDbHatch
  3
"AutoCAD"
 90
        0
280
     0
281
     1
  0
ENDSEC
  0
SECTION
  2
TABLES
  0
TABLE
  2
VPORT
  5
8
100
AcDbSymbolTable
 70
     1
  0
VPORT
  5
464
100
AcDbSymbolTableRecord
100
AcDbViewportTableRecord
  2
*ACTIVE
 70
     0
 10
0.0
 20
0.0
 11
1.0
 21
1.0
 12
186.200685244455
 22
13.3639932249706
 13
0.0
 23
0.0
 14
0.0
 24
0.0
 15
0.0
 25
0.0
 16
0.0
 26
0.0
 36
1.0
 17
0.0
 27
0.0
 37
0.0
 40
535.072989115809
 41
1.5
 42
50.0
 43
0.0
 44
0.0
 50
0.0
 51
0.0
 71
     0
 72
   100
 73
     1
 74
     1
 75
     0
 76
     0
 77
     0
 78
     0
  0
ENDTAB
  0
TABLE
  2
LTYPE
  5
5
100
AcDbSymbolTable
 70
    20
  0
LTYPE
  5
465
100
AcDbSymbolTableRecord
100
AcDbLinetypeTableRecord
  2
BYBLOCK
 70
     0
  3

 72
    65
 73
     0
 40
0.0
  0
LTYPE
  5
466
100
AcDbSymbolTableRecord
100
AcDbLinetypeTableRecord
  2
BYLAYER
 70
     0
  3

 72
    65
 73
     0
 40
0.0
  0
LTYPE
  5
467
100
AcDbSymbolTableRecord
100
AcDbLinetypeTableRecord
  2
CONTINUOUS
 70
    64
  3
solid line
 72
    65
 73
     0
 40
0.0
  0
LTYPE
  5
468
100
AcDbSymbolTableRecord
100
AcDbLinetypeTableRecord
  2
HIDDEN
 70
    64
  3
HIDDEN
 72
    65
 73
     0
 40
0.0
  0
LTYPE
  5
469
100
AcDbSymbolTableRecord
100
AcDbLinetypeTableRecord
  2
CENTER
 70
    64
  3
--- - --- - --- - --- - --- -
 72
    65
 73
     4
 40
6.0
 49
3.0
 74
     0
 49
-1.0
 74
     0
 49
1.0
 74
     0
 49
-1.0
 74
     0
  0
LTYPE
  5
46A
100
AcDbSymbolTableRecord
100
AcDbLinetypeTableRecord
  2
CENTER2
 70
    64
  3
CENTER2
 72
    65
 73
     0
 40
0.0
  0
LTYPE
  5
46B
100
AcDbSymbolTableRecord
100
AcDbLinetypeTableRecord
  2
PHANTOM
 70
    64
  3
----- - - ----- - - ----- - -
 72
    65
 73
     6
 40
12.0
 49
7.0
 74
     0
 49
-1.0
 74
     0
 49
1.0
 74
     0
 49
-1.0
 74
     0
 49
1.0
 74
     0
 49
-1.0
 74
     0
  0
ENDTAB
  0
TABLE
  2
LAYER
  5
2
100
AcDbSymbolTable
 70
    20
  0
LAYER
  5
46C
100
AcDbSymbolTableRecord
100
AcDbLayerTableRecord
  2
0
 70
    64
 62
     7
  6
CONTINUOUS
  0
LAYER
  5
26
100
AcDbSymbolTableRecord
100
AcDbLayerTableRecord
  2
2
 70
    64
 62
     7
  6
CONTINUOUS
  0
LAYER
  5
33
100
AcDbSymbolTableRecord
100
AcDbLayerTableRecord
  2
6
 70
    64
 62
     7
  6
CONTINUOUS
  0
LAYER
  5
5A
100
AcDbSymbolTableRecord
100
AcDbLayerTableRecord
  2
7
 70
    64
 62
     7
  6
CONTINUOUS
  0
LAYER
  5
88
100
AcDbSymbolTableRecord
100
AcDbLayerTableRecord
  2
4
 70
    64
 62
     7
  6
CONTINUOUS
  0
LAYER
  5
2B4
100
AcDbSymbolTableRecord
100
AcDbLayerTableRecord
  2
8
 70
    64
 62
     7
  6
CONTINUOUS
  0
LAYER
  5
46D
100
AcDbSymbolTableRecord
100
AcDbLayerTableRecord
  2
DEFPOINTS
 70
     0
 62
    -7
  6
CONTINUOUS
  0
ENDTAB
  0
TABLE
  2
STYLE
  5
3
100
AcDbSymbolTable
 70
     4
  0
STYLE
  5
46E
100
AcDbSymbolTableRecord
100
AcDbTextStyleTableRecord
  2
STANDARD
 70
    64
 40
0.0
 41
1.0
 50
0.0
 71
     0
 42
3.0
  3
monotxt
  4

  0
STYLE
  5
46F
100
AcDbSymbolTableRecord
100
AcDbTextStyleTableRecord
  2
BIGFONT
 70
    64
 40
0.0
 41
1.0
 50
0.0
 71
     0
 42
3.0
  3
monotxt
  4
bigfont
  0
ENDTAB
  0
TABLE
  2
VIEW
  5
6
100
AcDbSymbolTable
 70
     0
  0
ENDTAB
  0
TABLE
  2
UCS
  5
7
100
AcDbSymbolTable
 70
     0
  0
ENDTAB
  0
TABLE
  2
APPID
  5
9
100
AcDbSymbolTable
 70
     1
  0
APPID
  5
470
100
AcDbSymbolTableRecord
100
AcDbRegAppTableRecord
  2
ACAD
 70
     0
  0
ENDTAB
  0
TABLE
  2
DIMSTYLE
  5
A
100
AcDbSymbolTable
 70
     8
  0
DIMSTYLE
105
471
100
AcDbSymbolTableRecord
100
AcDbDimStyleTableRecord
  2
ISO-25
 70
     0
  3

  4

  5

  6

  7

 40
1.0
 41
2.0
 42
1.0
 43
5.0
 44
1.0
 45
0.0
 46
3.0
 47
0.0
 48
0.0
140
3.5
141
2.0
142
0.0
143
0.0393700787401575
144
1.0
145
1.0
146
1.0
147
0.5
 71
     0
 72
     0
 73
     0
 74
     0
 75
     0
 76
     0
 77
     1
 78
     8
170
     0
171
     0
172
     1
173
     0
174
     0
175
     0
176
     0
177
     0
178
     0
270
     2
271
     3
272
     3
273
     8
274
     4
340
46E
275
     0
280
     0
281
     0
282
     0
283
     1
284
     1
285
     0
286
     0
287
     3
288
     0
  0
ENDTAB
  0
TABLE
  2
BLOCK_RECORD
  5
1
100
AcDbSymbolTable
 70
     2
  0
BLOCK_RECORD
  5
20
100
AcDbSymbolTableRecord
100
AcDbBlockTableRecord
  2
*MODEL_SPACE
  0
BLOCK_RECORD
  5
22
100
AcDbSymbolTableRecord
100
AcDbBlockTableRecord
  2
*PAPER_SPACE
  0
BLOCK_RECORD
  5
201
100
AcDbSymbolTableRecord
100
AcDbBlockTableRecord
  2
*D1
  0
BLOCK_RECORD
  5
211
100
AcDbSymbolTableRecord
100
AcDbBlockTableRecord
  2
*D2
  0
BLOCK_RECORD
  5
221
100
AcDbSymbolTableRecord
100
AcDbBlockTableRecord
  2
*D3
  0
BLOCK_RECORD
  5
233
100
AcDbSymbolTableRecord
100
AcDbBlockTableRecord
  2
*D4
  0
BLOCK_RECORD
  5
244
100
AcDbSymbolTableRecord
100
AcDbBlockTableRecord
  2
*D5
  0
BLOCK_RECORD
  5
256
100
AcDbSymbolTableRecord
100
AcDbBlockTableRecord
  2
*D6
  0
BLOCK_RECORD
  5
266
100
AcDbSymbolTableRecord
100
AcDbBlockTableRecord
  2
*D7
  0
BLOCK_RECORD
  5
276
100
AcDbSymbolTableRecord
100
AcDbBlockTableRecord
  2
*D8
  0
BLOCK_RECORD
  5
287
100
AcDbSymbolTableRecord
100
AcDbBlockTableRecord
  2
*D9
  0
BLOCK_RECORD
  5
298
100
AcDbSymbolTableRecord
100
AcDbBlockTableRecord
  2
*D10
  0
BLOCK_RECORD
  5
2D2
100
AcDbSymbolTableRecord
100
AcDbBlockTableRecord
  2
*D11
  0
BLOCK_RECORD
  5
2E1
100
AcDbSymbolTableRecord
100
AcDbBlockTableRecord
  2
*D12
  0
BLOCK_RECORD
  5
35D
100
AcDbSymbolTableRecord
100
AcDbBlockTableRecord
  2
*D13
  0
BLOCK_RECORD
  5
36D
100
AcDbSymbolTableRecord
100
AcDbBlockTableRecord
  2
*D14
  0
BLOCK_RECORD
  5
37D
100
AcDbSymbolTableRecord
100
AcDbBlockTableRecord
  2
*D15
  0
BLOCK_RECORD
  5
38D
100
AcDbSymbolTableRecord
100
AcDbBlockTableRecord
  2
*D16
  0
BLOCK_RECORD
  5
3A4
100
AcDbSymbolTableRecord
100
AcDbBlockTableRecord
  2
*D17
  0
BLOCK_RECORD
  5
3B4
100
AcDbSymbolTableRecord
100
AcDbBlockTableRecord
  2
*D18
  0
BLOCK_RECORD
  5
3C4
100
AcDbSymbolTableRecord
100
AcDbBlockTableRecord
  2
*D19
  0
BLOCK_RECORD
  5
3D6
100
AcDbSymbolTableRecord
100
AcDbBlockTableRecord
  2
*D20
  0
BLOCK_RECORD
  5
3E6
100
AcDbSymbolTableRecord
100
AcDbBlockTableRecord
  2
*D21
  0
BLOCK_RECORD
  5
426
100
AcDbSymbolTableRecord
100
AcDbBlockTableRecord
  2
*D22
  0
BLOCK_RECORD
  5
436
100
AcDbSymbolTableRecord
100
AcDbBlockTableRecord
  2
*D23
  0
BLOCK_RECORD
  5
24
100
AcDbSymbolTableRecord
100
AcDbBlockTableRecord
  2
SUB1
  0
BLOCK_RECORD
  5
12F
100
AcDbSymbolTableRecord
100
AcDbBlockTableRecord
  2
SUB2
  0
BLOCK_RECORD
  5
30D
100
AcDbSymbolTableRecord
100
AcDbBlockTableRecord
  2
SUB3
  0
BLOCK_RECORD
  5
314
100
AcDbSymbolTableRecord
100
AcDbBlockTableRecord
  2
SUB4
  0
BLOCK_RECORD
  5
31B
100
AcDbSymbolTableRecord
100
AcDbBlockTableRecord
  2
SUB5
  0
BLOCK_RECORD
  5
322
100
AcDbSymbolTableRecord
100
AcDbBlockTableRecord
  2
SUB6
  0
BLOCK_RECORD
  5
32B
100
AcDbSymbolTableRecord
100
AcDbBlockTableRecord
  2
SUB7
  0
BLOCK_RECORD
  5
34A
100
AcDbSymbolTableRecord
100
AcDbBlockTableRecord
  2
SUB8
  0
BLOCK_RECORD
  5
3F6
100
AcDbSymbolTableRecord
100
AcDbBlockTableRecord
  2
COMP1
  0
BLOCK_RECORD
  5
40E
100
AcDbSymbolTableRecord
100
AcDbBlockTableRecord
  2
COMP2
  0
ENDTAB
  0
ENDSEC
  0
SECTION
  2
BLOCKS
  0
BLOCK
  5
21
100
AcDbEntity
  8
0
100
AcDbBlockBegin
  2
*MODEL_SPACE
 70
     0
 10
0.0
 20
0.0
 30
0.0
  3
*MODEL_SPACE
  1

  0
ENDBLK
  5
462
100
AcDbEntity
  8
0
100
AcDbBlockEnd
  0
BLOCK
  5
23
100
AcDbEntity
 67
     1
  8
0
100
AcDbBlockBegin
  2
*PAPER_SPACE
 70
     0
 10
0.0
 20
0.0
 30
0.0
  3
*PAPER_SPACE
  1

  0
ENDBLK
  5
463
100
AcDbEntity
 67
     1
  8
0
100
AcDbBlockEnd
  0
BLOCK
  5
202
100
AcDbEntity
  8
0
100
AcDbBlockBegin
  2
*D1
 70
    65
 10
0.0
 20
0.0
  0
LINE
  5
203
100
AcDbEntity
  8
0
  6
CONTINUOUS
 62
     2
100
AcDbLine
 10
12.0
 20
38.0
 11
6.0
 21
38.0
  0
LINE
  5
204
100
AcDbEntity
  8
0
  6
CONTINUOUS
 62
     2
100
AcDbLine
 10
9.99999999999999
 20
37.5
 11
12.0
 21
38.0
  0
LINE
  5
205
100
AcDbEntity
  8
0
  6
CONTINUOUS
 62
     2
100
AcDbLine
 10
12.0
 20
38.0
 11
9.99999999999999
 21
38.5
  0
LINE
  5
206
100
AcDbEntity
  8
0
  6
CONTINUOUS
 62
     2
100
AcDbLine
 10
0.0
 20
38.0
 11
6.0
 21
38.0
  0
LINE
  5
207
100
AcDbEntity
  8
0
  6
CONTINUOUS
 62
     2
100
AcDbLine
 10
2.0
 20
38.5
 11
0.0
 21
38.0
  0
LINE
  5
208
100
AcDbEntity
  8
0
  6
CONTINUOUS
 62
     2
100
AcDbLine
 10
0.0
 20
38.0
 11
2.0
 21
37.5
  0
LINE
  5
209
100
AcDbEntity
  8
0
  6
CONTINUOUS
 62
     2
100
AcDbLine
 10
12.0
 20
6.5
 11
12.0
 21
39.0
  0
LINE
  5
20A
100
AcDbEntity
  8
0
  6
CONTINUOUS
 62
     2
100
AcDbLine
 10
0.0
 20
4.75
 11
0.0
 21
39.0
  0
MTEXT
  5
20B
100
AcDbEntity
  8
0
  6
CONTINUOUS
 62
     2
100
AcDbMText
 10
3.8125
 20
38.5
 40
3.5
 41
0.0
 11
1.0
 21
0.0
 71
     7
 72
     5
  7
STANDARD
  1
{\T1.60714;\W0.666667;12}
 73
     1
 44
1.0
  0
POINT
  5
20C
100
AcDbEntity
  8
DEFPOINTS
  6
BYBLOCK
 62
     0
100
AcDbPoint
 10
12.0
 20
6.0
  0
POINT
  5
20D
100
AcDbEntity
  8
DEFPOINTS
  6
BYBLOCK
 62
     0
100
AcDbPoint
 10
0.0
 20
4.25
  0
POINT
  5
20E
100
AcDbEntity
  8
DEFPOINTS
  6
BYBLOCK
 62
     0
100
AcDbPoint
 10
0.0
 20
38.0
  0
ENDBLK
  5
20F
100
AcDbEntity
  8
4
100
AcDbBlockEnd
  0
BLOCK
  5
212
100
AcDbEntity
  8
0
100
AcDbBlockBegin
  2
*D2
 70
    65
 10
0.0
 20
0.0
  0
LINE
  5
213
100
AcDbEntity
  8
0
  6
CONTINUOUS
 62
     2
100
AcDbLine
 10
32.0
 20
47.0
 11
16.0
 21
47.0
  0
LINE
  5
214
100
AcDbEntity
  8
0
  6
CONTINUOUS
 62
     2
100
AcDbLine
 10
30.0
 20
46.5
 11
32.0
 21
47.0
  0
LINE
  5
215
100
AcDbEntity
  8
0
  6
CONTINUOUS
 62
     2
100
AcDbLine
 10
32.0
 20
47.0
 11
30.0
 21
47.5
  0
LINE
  5
216
100
AcDbEntity
  8
0
  6
CONTINUOUS
 62
     2
100
AcDbLine
 10
0.0
 20
47.0
 11
16.0
 21
47.0
  0
LINE
  5
217
100
AcDbEntity
  8
0
  6
CONTINUOUS
 62
     2
100
AcDbLine
 10
2.0
 20
47.5
 11
0.0
 21
47.0
  0
LINE
  5
218
100
AcDbEntity
  8
0
  6
CONTINUOUS
 62
     2
100
AcDbLine
 10
0.0
 20
47.0
 11
2.0
 21
46.5
  0
LINE
  5
219
100
AcDbEntity
  8
0
  6
CONTINUOUS
 62
     2
100
AcDbLine
 10
32.0
 20
17.5
 11
32.0
 21
48.0
  0
LINE
  5
21A
100
AcDbEntity
  8
0
  6
CONTINUOUS
 62
     2
100
AcDbLine
 10
0.0
 20
4.75
 11
0.0
 21
48.0
  0
MTEXT
  5
21B
100
AcDbEntity
  8
0
  6
CONTINUOUS
 62
     2
100
AcDbMText
 10
13.8125
 20
47.5
 40
3.5
 41
0.0
 11
1.0
 21
0.0
 71
     7
 72
     5
  7
STANDARD
  1
{\T1.60714;\W0.666667;32}
 73
     1
 44
1.0
  0
POINT
  5
21C
100
AcDbEntity
  8
DEFPOINTS
  6
BYBLOCK
 62
     0
100
AcDbPoint
 10
32.0
 20
17.0
  0
POINT
  5
21D
100
AcDbEntity
  8
DEFPOINTS
  6
BYBLOCK
 62
     0
100
AcDbPoint
 10
0.0
 20
4.25
  0
POINT
  5
21E
100
AcDbEntity
  8
DEFPOINTS
  6
BYBLOCK
 62
     0
100
AcDbPoint
 10
0.0
 20
47.0
  0
ENDBLK
  5
21F
100
AcDbEntity
  8
4
100
AcDbBlockEnd
  0
BLOCK
  5
222
100
AcDbEntity
  8
0
100
AcDbBlockBegin
  2
*D3
 70
    65
 10
0.0
 20
0.0
  0
LINE
  5
223
100
AcDbEntity
  8
0
  6
CONTINUOUS
 62
     2
100
AcDbLine
 10
-12.3910825315194
 20
17.5
 11
-12.3910825315194
 21
0.0
  0
LINE
  5
224
100
AcDbEntity
  8
0
  6
CONTINUOUS
 62
     2
100
AcDbLine
 10
-11.8910825315194
 20
15.5
 11
-12.3910825315194
 21
17.5
  0
LINE
  5
225
100
AcDbEntity
  8
0
  6
CONTINUOUS
 62
     2
100
AcDbLine
 10
-12.3910825315194
 20
17.5
 11
-12.8910825315194
 21
15.5
  0
LINE
  5
226
100
AcDbEntity
  8
0
  6
CONTINUOUS
 62
     2
100
AcDbLine
 10
-12.3910825315194
 20
-17.5
 11
-12.3910825315194
 21
0.0
  0
LINE
  5
227
100
AcDbEntity
  8
0
  6
CONTINUOUS
 62
     2
100
AcDbLine
 10
-12.8910825315194
 20
-15.5
 11
-12.3910825315194
 21
-17.5
  0
LINE
  5
228
100
AcDbEntity
  8
0
  6
CONTINUOUS
 62
     2
100
AcDbLine
 10
-12.3910825315194
 20
-17.5
 11
-11.8910825315194
 21
-15.5
  0
LINE
  5
229
100
AcDbEntity
  8
0
  6
CONTINUOUS
 62
     2
100
AcDbLine
 10
32.0
 20
17.5
 11
-13.3910825315194
 21
17.5
  0
LINE
  5
22A
100
AcDbEntity
  8
0
  6
CONTINUOUS
 62
     2
100
AcDbLine
 10
32.0
 20
-17.5
 11
-13.3910825315194
 21
-17.5
  0
MTEXT
  5
22B
100
AcDbEntity
  8
0
  6
CONTINUOUS
 62
     2
100
AcDbMText
 10
-13.8910825315194
 20
-8.375
 40
3.5
 41
0.0
 11
6.12323399573677E-017
 21
1.0
 71
     7
 72
     5
  7
STANDARD
  1
{\T1.60714;\W0.666667;%%c35}
 73
     1
 44
1.0
  0
MTEXT
  5
22C
100
AcDbEntity
  8
0
  6
CONTINUOUS
 62
     2
100
AcDbMText
 10
-15.8910825315194
 20
-0.375
 40
2.5
 41
0.0
 11
6.12323399573677E-017
 21
1.0
 71
     7
 72
     5
  7
STANDARD
  1
{\T1.60714;\W0.666667;-0.05}
 73
     1
 44
1.0
  0
MTEXT
  5
22D
100
AcDbEntity
  8
0
  6
CONTINUOUS
 62
     2
100
AcDbMText
 10
-12.8910825315194
 20
-0.375
 40
2.5
 41
0.0
 11
6.12323399573677E-017
 21
1.0
 71
     7
 72
     5
  7
STANDARD
  1
{\T1.60714;\W0.666667;-0.1}
 73
     1
 44
1.0
  0
POINT
  5
22E
100
AcDbEntity
  8
DEFPOINTS
  6
BYBLOCK
 62
     0
100
AcDbPoint
 10
32.5
 20
17.5
  0
POINT
  5
22F
100
AcDbEntity
  8
DEFPOINTS
  6
BYBLOCK
 62
     0
100
AcDbPoint
 10
32.5
 20
-17.5
  0
POINT
  5
230
100
AcDbEntity
  8
DEFPOINTS
  6
BYBLOCK
 62
     0
100
AcDbPoint
 10
-12.3910825315194
 20
-17.5
  0
ENDBLK
  5
231
100
AcDbEntity
  8
4
100
AcDbBlockEnd
  0
BLOCK
  5
234
100
AcDbEntity
  8
0
100
AcDbBlockBegin
  2
*D4
 70
    65
 10
0.0
 20
0.0
  0
LINE
  5
235
100
AcDbEntity
  8
0
  6
CONTINUOUS
 62
     2
100
AcDbLine
 10
287.400000000001
 20
47.0
 11
161.700000000001
 21
47.0
  0
LINE
  5
236
100
AcDbEntity
  8
0
  6
CONTINUOUS
 62
     2
100
AcDbLine
 10
285.400000000001
 20
46.5
 11
287.400000000001
 21
47.0
  0
LINE
  5
237
100
AcDbEntity
  8
0
  6
CONTINUOUS
 62
     2
100
AcDbLine
 10
287.400000000001
 20
47.0
 11
285.400000000001
 21
47.5
  0
LINE
  5
238
100
AcDbEntity
  8
0
  6
CONTINUOUS
 62
     2
100
AcDbLine
 10
36.0
 20
47.0
 11
161.700000000001
 21
47.0
  0
LINE
  5
239
100
AcDbEntity
  8
0
  6
CONTINUOUS
 62
     2
100
AcDbLine
 10
38.0
 20
47.5
 11
36.0
 21
47.0
  0
LINE
  5
23A
100
AcDbEntity
  8
0
  6
CONTINUOUS
 62
     2
100
AcDbLine
 10
36.0
 20
47.0
 11
38.0
 21
46.5
  0
LINE
  5
23B
100
AcDbEntity
  8
0
  6
CONTINUOUS
 62
     2
100
AcDbLine
 10
287.400000000001
 20
34.230738767203
 11
287.400000000001
 21
48.0
  0
LINE
  5
23C
100
AcDbEntity
  8
0
  6
CONTINUOUS
 62
     2
100
AcDbLine
 10
36.0
 20
28.0
 11
36.0
 21
48.0
  0
MTEXT
  5
23D
100
AcDbEntity
  8
0
  6
CONTINUOUS
 62
     2
100
AcDbMText
 10
155.575000000001
 20
47.5
 40
3.5
 41
0.0
 11
1.0
 21
0.0
 71
     7
 72
     5
  7
STANDARD
  1
{\T1.60714;\W0.666667;251.4}
 73
     1
 44
1.0
  0
POINT
  5
23E
100
AcDbEntity
  8
DEFPOINTS
  6
BYBLOCK
 62
     0
100
AcDbPoint
 10
287.400000000001
 20
33.730738767203
  0
POINT
  5
23F
100
AcDbEntity
  8
DEFPOINTS
  6
BYBLOCK
 62
     0
100
AcDbPoint
 10
36.0
 20
27.5
  0
POINT
  5
240
100
AcDbEntity
  8
DEFPOINTS
  6
BYBLOCK
 62
     0
100
AcDbPoint
 10
36.0
 20
47.0
  0
ENDBLK
  5
241
100
AcDbEntity
  8
4
100
AcDbBlockEnd
  0
BLOCK
  5
245
100
AcDbEntity
  8
0
100
AcDbBlockBegin
  2
*D5
 70
    65
 10
0.0
 20
0.0
  0
LINE
  5
246
100
AcDbEntity
  8
0
  6
CONTINUOUS
 62
     2
100
AcDbLine
 10
32.0
 20
47.0
 11
27.0
 21
47.0
  0
LINE
  5
247
100
AcDbEntity
  8
0
  6
CONTINUOUS
 62
     2
100
AcDbLine
 10
30.0
 20
46.5
 11
32.0
 21
47.0
  0
LINE
  5
248
100
AcDbEntity
  8
0
  6
CONTINUOUS
 62
     2
100
AcDbLine
 10
32.0
 20
47.0
 11
30.0
 21
47.5
  0
LINE
  5
249
100
AcDbEntity
  8
0
  6
CONTINUOUS
 62
     2
100
AcDbLine
 10
32.0
 20
47.0
 11
34.0
 21
47.0
  0
LINE
  5
24A
100
AcDbEntity
  8
0
  6
CONTINUOUS
 62
     2
100
AcDbLine
 10
36.0
 20
47.0
 11
34.0
 21
47.0
  0
LINE
  5
24B
100
AcDbEntity
  8
0
  6
CONTINUOUS
 62
     2
100
AcDbLine
 10
36.0
 20
47.0
 11
41.0
 21
47.0
  0
LINE
  5
24C
100
AcDbEntity
  8
0
  6
CONTINUOUS
 62
     2
100
AcDbLine
 10
38.0
 20
47.5
 11
36.0
 21
47.0
  0
LINE
  5
24D
100
AcDbEntity
  8
0
  6
CONTINUOUS
 62
     2
100
AcDbLine
 10
36.0
 20
47.0
 11
38.0
 21
46.5
  0
LINE
  5
24E
100
AcDbEntity
  8
0
  6
CONTINUOUS
 62
     2
100
AcDbLine
 10
32.0
 20
17.5
 11
32.0
 21
48.0
  0
LINE
  5
24F
100
AcDbEntity
  8
0
  6
CONTINUOUS
 62
     2
100
AcDbLine
 10
36.0
 20
28.0
 11
36.0
 21
48.0
  0
MTEXT
  5
250
100
AcDbEntity
  8
0
  6
CONTINUOUS
 62
     2
100
AcDbMText
 10
33.125
 20
47.5
 40
3.5
 41
0.0
 11
1.0
 21
0.0
 71
     7
 72
     5
  7
STANDARD
  1
{\T1.60714;\W0.666667;4}
 73
     1
 44
1.0
  0
POINT
  5
251
100
AcDbEntity
  8
DEFPOINTS
  6
BYBLOCK
 62
     0
100
AcDbPoint
 10
32.0
 20
17.0
  0
POINT
  5
252
100
AcDbEntity
  8
DEFPOINTS
  6
BYBLOCK
 62
     0
100
AcDbPoint
 10
36.0
 20
27.5
  0
POINT
  5
253
100
AcDbEntity
  8
DEFPOINTS
  6
BYBLOCK
 62
     0
100
AcDbPoint
 10
36.0
 20
47.0
  0
ENDBLK
  5
254
100
AcDbEntity
  8
4
100
AcDbBlockEnd
  0
BLOCK
  5
257
100
AcDbEntity
  8
0
100
AcDbBlockBegin
  2
*D6
 70
    65
 10
0.0
 20
0.0
  0
LINE
  5
258
100
AcDbEntity
  8
0
  6
CONTINUOUS
 62
     2
100
AcDbLine
 10
287.400000000001
 20
56.0
 11
143.700000000001
 21
56.0
  0
LINE
  5
259
100
AcDbEntity
  8
0
  6
CONTINUOUS
 62
     2
100
AcDbLine
 10
285.400000000001
 20
55.5
 11
287.400000000001
 21
56.0
  0
LINE
  5
25A
100
AcDbEntity
  8
0
  6
CONTINUOUS
 62
     2
100
AcDbLine
 10
287.400000000001
 20
56.0
 11
285.400000000001
 21
56.5
  0
LINE
  5
25B
100
AcDbEntity
  8
0
  6
CONTINUOUS
 62
     2
100
AcDbLine
 10
1.42108547152020E-014
 20
56.0
 11
143.700000000001
 21
56.0
  0
LINE
  5
25C
100
AcDbEntity
  8
0
  6
CONTINUOUS
 62
     2
100
AcDbLine
 10
2.00000000000001
 20
56.5
 11
1.42108547152020E-014
 21
56.0
  0
LINE
  5
25D
100
AcDbEntity
  8
0
  6
CONTINUOUS
 62
     2
100
AcDbLine
 10
1.42108547152020E-014
 20
56.0
 11
2.00000000000001
 21
55.5
  0
LINE
  5
25E
100
AcDbEntity
  8
0
  6
CONTINUOUS
 62
     2
100
AcDbLine
 10
287.400000000001
 20
31.199999999265
 11
287.400000000001
 21
57.0
  0
LINE
  5
25F
100
AcDbEntity
  8
0
  6
CONTINUOUS
 62
     2
100
AcDbLine
 10
1.37302944108232E-016
 20
4.75
 11
1.44854606034185E-014
 21
57.0
  0
MTEXT
  5
260
100
AcDbEntity
  8
0
  6
CONTINUOUS
 62
     2
100
AcDbMText
 10
137.575
 20
56.5
 40
3.5
 41
0.0
 11
1.0
 21
0.0
 71
     7
 72
     5
  7
STANDARD
  1
{\T1.60714;\W0.666667;287.4}
 73
     1
 44
1.0
  0
POINT
  5
261
100
AcDbEntity
  8
DEFPOINTS
  6
BYBLOCK
 62
     0
100
AcDbPoint
 10
287.400000000001
 20
30.699999999265
  0
POINT
  5
262
100
AcDbEntity
  8
DEFPOINTS
  6
BYBLOCK
 62
     0
100
AcDbPoint
 10
0.0
 20
4.25
  0
POINT
  5
263
100
AcDbEntity
  8
DEFPOINTS
  6
BYBLOCK
 62
     0
100
AcDbPoint
 10
1.42108547152020E-014
 20
56.0
  0
ENDBLK
  5
264
100
AcDbEntity
  8
4
100
AcDbBlockEnd
  0
BLOCK
  5
267
100
AcDbEntity
  8
0
100
AcDbBlockBegin
  2
*D7
 70
    65
 10
0.0
 20
0.0
  0
LINE
  5
268
100
AcDbEntity
  8
0
  6
CONTINUOUS
 62
     2
100
AcDbLine
 10
-61.999999999999
 20
56.0
 11
-42.999999999999
 21
56.0
  0
LINE
  5
269
100
AcDbEntity
  8
0
  6
CONTINUOUS
 62
     2
100
AcDbLine
 10
-59.999999999999
 20
56.5
 11
-61.999999999999
 21
56.0
  0
LINE
  5
26A
100
AcDbEntity
  8
0
  6
CONTINUOUS
 62
     2
100
AcDbLine
 10
-61.999999999999
 20
56.0
 11
-59.999999999999
 21
55.5
  0
LINE
  5
26B
100
AcDbEntity
  8
0
  6
CONTINUOUS
 62
     2
100
AcDbLine
 10
-23.999999999999
 20
56.0
 11
-42.999999999999
 21
56.0
  0
LINE
  5
26C
100
AcDbEntity
  8
0
  6
CONTINUOUS
 62
     2
100
AcDbLine
 10
-25.999999999999
 20
55.5
 11
-23.999999999999
 21
56.0
  0
LINE
  5
26D
100
AcDbEntity
  8
0
  6
CONTINUOUS
 62
     2
100
AcDbLine
 10
-23.999999999999
 20
56.0
 11
-25.999999999999
 21
56.5
  0
LINE
  5
26E
100
AcDbEntity
  8
0
  6
CONTINUOUS
 62
     2
100
AcDbLine
 10
-61.999999999999
 20
20.380895352071
 11
-61.999999999999
 21
57.0
  0
LINE
  5
26F
100
AcDbEntity
  8
0
  6
CONTINUOUS
 62
     2
100
AcDbLine
 10
-23.999999999999
 20
20.380895352071
 11
-23.999999999999
 21
57.0
  0
MTEXT
  5
270
100
AcDbEntity
  8
0
  6
CONTINUOUS
 62
     2
100
AcDbMText
 10
-45.187499999999
 20
56.5
 40
3.5
 41
0.0
 11
1.0
 21
0.0
 71
     7
 72
     5
  7
STANDARD
  1
{\T1.60714;\W0.666667;38}
 73
     1
 44
1.0
  0
POINT
  5
271
100
AcDbEntity
  8
DEFPOINTS
  6
BYBLOCK
 62
     0
100
AcDbPoint
 10
-61.999999999999
 20
19.880895352071
  0
POINT
  5
272
100
AcDbEntity
  8
DEFPOINTS
  6
BYBLOCK
 62
     0
100
AcDbPoint
 10
-23.999999999999
 20
19.880895352071
  0
POINT
  5
273
100
AcDbEntity
  8
DEFPOINTS
  6
BYBLOCK
 62
     0
100
AcDbPoint
 10
-23.999999999999
 20
56.0
  0
ENDBLK
  5
274
100
AcDbEntity
  8
4
100
AcDbBlockEnd
  0
BLOCK
  5
277
100
AcDbEntity
  8
0
100
AcDbBlockBegin
  2
*D8
 70
    65
 10
0.0
 20
0.0
  0
LINE
  5
278
100
AcDbEntity
  8
0
  6
CONTINUOUS
 62
     2
100
AcDbLine
 10
-55.2983738762478
 20
24.596747752498
 11
-63.999999999999
 21
42.0
  0
LINE
  5
279
100
AcDbEntity
  8
0
  6
CONTINUOUS
 62
     2
100
AcDbLine
 10
-63.999999999999
 20
42.0
 11
-71.999999999999
 21
42.0
  0
LINE
  5
27A
100
AcDbEntity
  8
0
  6
CONTINUOUS
 62
     2
100
AcDbLine
 10
-55.2983738762478
 20
24.596747752498
 11
-42.999999999999
 21
0.0
  0
LINE
  5
27B
100
AcDbEntity
  8
0
  6
CONTINUOUS
 62
     2
100
AcDbLine
 10
-53.9567330897479
 20
23.0315001682482
 11
-55.2983738762478
 21
24.596747752498
  0
LINE
  5
27C
100
AcDbEntity
  8
0
  6
CONTINUOUS
 62
     2
100
AcDbLine
 10
-55.2983738762478
 20
24.596747752498
 11
-54.8511602807478
 21
22.5842865727482
  0
LINE
  5
27D
100
AcDbEntity
  8
0
  6
CONTINUOUS
 62
     2
100
AcDbLine
 10
-30.7016261237502
 20
-24.596747752498
 11
-42.999999999999
 21
0.0
  0
LINE
  5
27E
100
AcDbEntity
  8
0
  6
CONTINUOUS
 62
     2
100
AcDbLine
 10
-32.0432669102501
 20
-23.0315001682482
 11
-30.7016261237502
 21
-24.596747752498
  0
LINE
  5
27F
100
AcDbEntity
  8
0
  6
CONTINUOUS
 62
     2
100
AcDbLine
 10
-30.7016261237502
 20
-24.596747752498
 11
-31.1488397192502
 21
-22.5842865727482
  0
MTEXT
  5
280
100
AcDbEntity
  8
0
  6
CONTINUOUS
 62
     2
100
AcDbMText
 10
-71.499999999999
 20
42.5
 40
3.5
 41
0.0
 11
1.0
 21
0.0
 71
     7
 72
     5
  7
STANDARD
  1
{\T1.60714;\W0.666667;%%c55}
 73
     1
 44
1.0
  0
POINT
  5
281
100
AcDbEntity
  8
DEFPOINTS
  6
BYBLOCK
 62
     0
100
AcDbPoint
 10
-30.7016261237502
 20
-24.596747752498
  0
POINT
  5
282
100
AcDbEntity
  8
DEFPOINTS
  6
BYBLOCK
 62
     0
100
AcDbPoint
 10
-55.2983738762478
 20
24.596747752498
  0
ENDBLK
  5
283
100
AcDbEntity
  8
4
100
AcDbBlockEnd
  0
BLOCK
  5
288
100
AcDbEntity
  8
0
100
AcDbBlockBegin
  2
*D9
 70
    65
 10
0.0
 20
0.0
  0
LINE
  5
289
100
AcDbEntity
  8
0
  6
CONTINUOUS
 62
     2
100
AcDbLine
 10
-47.749999999999
 20
-31.3496993197982
 11
-42.999999999999
 21
-31.3496993197982
  0
LINE
  5
28A
100
AcDbEntity
  8
0
  6
CONTINUOUS
 62
     2
100
AcDbLine
 10
-45.749999999999
 20
-30.8496993197982
 11
-47.749999999999
 21
-31.3496993197982
  0
LINE
  5
28B
100
AcDbEntity
  8
0
  6
CONTINUOUS
 62
     2
100
AcDbLine
 10
-47.749999999999
 20
-31.3496993197982
 11
-45.749999999999
 21
-31.8496993197982
  0
LINE
  5
28C
100
AcDbEntity
  8
0
  6
CONTINUOUS
 62
     2
100
AcDbLine
 10
-38.249999999999
 20
-31.3496993197982
 11
-42.999999999999
 21
-31.3496993197982
  0
LINE
  5
28D
100
AcDbEntity
  8
0
  6
CONTINUOUS
 62
     2
100
AcDbLine
 10
-40.249999999999
 20
-31.8496993197982
 11
-38.249999999999
 21
-31.3496993197982
  0
LINE
  5
28E
100
AcDbEntity
  8
0
  6
CONTINUOUS
 62
     2
100
AcDbLine
 10
-38.249999999999
 20
-31.3496993197982
 11
-40.249999999999
 21
-30.8496993197982
  0
LINE
  5
28F
100
AcDbEntity
  8
0
  6
CONTINUOUS
 62
     2
100
AcDbLine
 10
-38.249999999999
 20
-31.3496993197982
 11
-24.624999999999
 21
-31.3496993197982
  0
LINE
  5
290
100
AcDbEntity
  8
0
  6
CONTINUOUS
 62
     2
100
AcDbLine
 10
-47.749999999999
 20
-4.16571957465402
 11
-47.749999999999
 21
-32.3496993197982
  0
LINE
  5
291
100
AcDbEntity
  8
0
  6
CONTINUOUS
 62
     2
100
AcDbLine
 10
-38.249999999999
 20
-4.16571957465402
 11
-38.249999999999
 21
-32.3496993197982
  0
MTEXT
  5
292
100
AcDbEntity
  8
0
  6
CONTINUOUS
 62
     2
100
AcDbMText
 10
-34.749999999999
 20
-30.8496993197982
 40
3.5
 41
0.0
 11
1.0
 21
0.0
 71
     7
 72
     5
  7
STANDARD
  1
{\T1.60714;\W0.666667;□9.5}
 73
     1
 44
1.0
  0
POINT
  5
293
100
AcDbEntity
  8
DEFPOINTS
  6
BYBLOCK
 62
     0
100
AcDbPoint
 10
-47.749999999999
 20
-3.66571957465402
  0
POINT
  5
294
100
AcDbEntity
  8
DEFPOINTS
  6
BYBLOCK
 62
     0
100
AcDbPoint
 10
-38.249999999999
 20
-3.66571957465402
  0
POINT
  5
295
100
AcDbEntity
  8
DEFPOINTS
  6
BYBLOCK
 62
     0
100
AcDbPoint
 10
-38.249999999999
 20
-31.3496993197982
  0
ENDBLK
  5
296
100
AcDbEntity
  8
4
100
AcDbBlockEnd
  0
BLOCK
  5
299
100
AcDbEntity
  8
0
100
AcDbBlockBegin
  2
*D10
 70
    65
 10
0.0
 20
0.0
  0
LINE
  5
29A
100
AcDbEntity
  8
0
  6
CONTINUOUS
 62
     2
100
AcDbLine
 10
-45.2378038025819
 20
-24.498046523101
 11
-56.999999999999
 21
-35.0
  0
LINE
  5
29B
100
AcDbEntity
  8
0
  6
CONTINUOUS
 62
     2
100
AcDbLine
 10
-56.999999999999
 20
-35.0
 11
-67.624999999999
 21
-35.0
  0
LINE
  5
29C
100
AcDbEntity
  8
0
  6
CONTINUOUS
 62
     2
100
AcDbLine
 10
-46.3966718391411
 20
-26.2030464861044
 11
-45.2378038025819
 21
-24.498046523101
  0
LINE
  5
29D
100
AcDbEntity
  8
0
  6
CONTINUOUS
 62
     2
100
AcDbLine
 10
-45.2378038025819
 20
-24.498046523101
 11
-47.0626873468416
 21
-25.4571085908997
  0
MTEXT
  5
29E
100
AcDbEntity
  8
0
  6
CONTINUOUS
 62
     2
100
AcDbMText
 10
-67.124999999999
 20
-34.5
 40
3.5
 41
0.0
 11
1.0
 21
0.0
 71
     7
 72
     5
  7
STANDARD
  1
{\T1.60714;\W0.666667;2-M6}
 73
     1
 44
1.0
  0
POINT
  5
29F
100
AcDbEntity
  8
DEFPOINTS
  6
BYBLOCK
 62
     0
100
AcDbPoint
 10
-42.9999901169678
 20
-22.5
  0
POINT
  5
2A0
100
AcDbEntity
  8
DEFPOINTS
  6
BYBLOCK
 62
     0
100
AcDbPoint
 10
-45.2378038025819
 20
-24.498046523101
  0
ENDBLK
  5
2A1
100
AcDbEntity
  8
4
100
AcDbBlockEnd
  0
BLOCK
  5
2D3
100
AcDbEntity
  8
0
100
AcDbBlockBegin
  2
*D11
 70
    65
 10
0.0
 20
0.0
  0
LINE
  5
2D4
100
AcDbEntity
  8
0
  6
CONTINUOUS
 62
     2
100
AcDbLine
 10
-53.0623058987481
 20
-20.124611797498
 11
-56.999999999999
 21
-28.0
  0
LINE
  5
2D5
100
AcDbEntity
  8
0
  6
CONTINUOUS
 62
     2
100
AcDbLine
 10
-56.999999999999
 20
-28.0
 11
-64.999999999999
 21
-28.0
  0
LINE
  5
2D6
100
AcDbEntity
  8
0
  6
CONTINUOUS
 62
     2
100
AcDbLine
 10
-53.0623058987481
 20
-20.124611797498
 11
-42.999999999999
 21
0.0
  0
LINE
  5
2D7
100
AcDbEntity
  8
0
  6
CONTINUOUS
 62
     2
100
AcDbLine
 10
-52.6150923032481
 20
-18.1121506177482
 11
-53.0623058987481
 21
-20.124611797498
  0
LINE
  5
2D8
100
AcDbEntity
  8
0
  6
CONTINUOUS
 62
     2
100
AcDbLine
 10
-53.0623058987481
 20
-20.124611797498
 11
-51.7206651122482
 21
-18.5593642132482
  0
LINE
  5
2D9
100
AcDbEntity
  8
0
  6
CONTINUOUS
 62
     2
100
AcDbLine
 10
-32.9376941012499
 20
20.124611797498
 11
-42.999999999999
 21
0.0
  0
LINE
  5
2DA
100
AcDbEntity
  8
0
  6
CONTINUOUS
 62
     2
100
AcDbLine
 10
-33.3849076967499
 20
18.1121506177482
 11
-32.9376941012499
 21
20.124611797498
  0
LINE
  5
2DB
100
AcDbEntity
  8
0
  6
CONTINUOUS
 62
     2
100
AcDbLine
 10
-32.9376941012499
 20
20.124611797498
 11
-34.2793348877498
 21
18.5593642132482
  0
MTEXT
  5
2DC
100
AcDbEntity
  8
0
  6
CONTINUOUS
 62
     2
100
AcDbMText
 10
-64.499999999999
 20
-27.5
 40
3.5
 41
0.0
 11
1.0
 21
0.0
 71
     7
 72
     5
  7
STANDARD
  1
{\T1.60714;\W0.666667;%%c45}
 73
     1
 44
1.0
  0
POINT
  5
2DD
100
AcDbEntity
  8
DEFPOINTS
  6
BYBLOCK
 62
     0
100
AcDbPoint
 10
-32.9376941012499
 20
20.124611797498
  0
POINT
  5
2DE
100
AcDbEntity
  8
DEFPOINTS
  6
BYBLOCK
 62
     0
100
AcDbPoint
 10
-53.0623058987481
 20
-20.124611797498
  0
ENDBLK
  5
2DF
100
AcDbEntity
  8
4
100
AcDbBlockEnd
  0
BLOCK
  5
2E2
100
AcDbEntity
  8
0
100
AcDbBlockBegin
  2
*D12
 70
    65
 10
0.0
 20
0.0
  0
ARC
  5
2E3
100
AcDbEntity
  8
0
  6
CONTINUOUS
 62
     2
100
AcDbCircle
 10
-42.9999999999993
 20
-30.861115664173
 40
21.6388843358272
100
AcDbArc
 50
232.000000000001
 51
270.0
  0
LINE
  5
2E4
100
AcDbEntity
  8
0
  6
CONTINUOUS
 62
     2
100
AcDbLine
 10
-54.4383752097194
 20
-48.7501067907049
 11
-56.3222274545957
 21
-47.912789216857
  0
LINE
  5
2E5
100
AcDbEntity
  8
0
  6
CONTINUOUS
 62
     2
100
AcDbLine
 10
-56.3222274545957
 20
-47.912789216857
 11
-55.0540366850451
 21
-49.5381175443116
  0
ARC
  5
2E6
100
AcDbEntity
  8
0
  6
CONTINUOUS
 62
     2
100
AcDbCircle
 10
-42.9999999999993
 20
-30.861115664173
 40
21.6388843358272
100
AcDbArc
 50
270.0
 51
307.999999999993
  0
LINE
  5
2E7
100
AcDbEntity
  8
0
  6
CONTINUOUS
 62
     2
100
AcDbLine
 10
-30.9459633149557
 20
-49.5381175443125
 11
-29.6777725454049
 21
-47.912789216858
  0
LINE
  5
2E8
100
AcDbEntity
  8
0
  6
CONTINUOUS
 62
     2
100
AcDbLine
 10
-29.6777725454049
 20
-47.912789216858
 11
-31.5616247902813
 21
-48.7501067907057
  0
LINE
  5
2E9
100
AcDbEntity
  8
0
  6
CONTINUOUS
 62
     2
100
AcDbLine
 10
-43.3078307376622
 20
-31.255121040976
 11
-56.9378889299214
 21
-48.700799970464
  0
LINE
  5
2EA
100
AcDbEntity
  8
0
  6
CONTINUOUS
 62
     2
100
AcDbLine
 10
-42.6921692623366
 20
-31.255121040976
 11
-29.0621110700793
 21
-48.700799970465
  0
MTEXT
  5
2EB
100
AcDbEntity
  8
0
  6
CONTINUOUS
 62
     2
100
AcDbMText
 10
-46.5000000000004
 20
-52.0
 40
3.5
 41
0.0
 11
1.0
 21
-5.26474561221369E-014
 71
     7
 72
     5
  7
STANDARD
  1
{\T1.60714;\W0.666667;76%%d}
 73
     1
 44
1.0
  0
POINT
  5
2EC
100
AcDbEntity
  8
DEFPOINTS
  6
BYBLOCK
 62
     0
100
AcDbPoint
 10
-42.9999999999993
 20
-30.861115664173
  0
POINT
  5
2ED
100
AcDbEntity
  8
DEFPOINTS
  6
BYBLOCK
 62
     0
100
AcDbPoint
 10
-42.9999999999993
 20
-30.861115664173
  0
POINT
  5
2EE
100
AcDbEntity
  8
DEFPOINTS
  6
BYBLOCK
 62
     0
100
AcDbPoint
 10
-42.9999999999993
 20
-30.861115664173
  0
ENDBLK
  5
2EF
100
AcDbEntity
  8
4
100
AcDbBlockEnd
  0
BLOCK
  5
35E
100
AcDbEntity
  8
0
100
AcDbBlockBegin
  2
*D13
 70
    65
 10
0.0
 20
0.0
  0
LINE
  5
35F
100
AcDbEntity
  8
0
  6
CONTINUOUS
 62
     2
100
AcDbLine
 10
-70.4055092479964
 20
33.0
 11
-70.4055092479964
 21
16.5
  0
LINE
  5
360
100
AcDbEntity
  8
0
  6
CONTINUOUS
 62
     2
100
AcDbLine
 10
-69.9055092479964
 20
31.0
 11
-70.4055092479964
 21
33.0
  0
LINE
  5
361
100
AcDbEntity
  8
0
  6
CONTINUOUS
 62
     2
100
AcDbLine
 10
-70.4055092479964
 20
33.0
 11
-70.9055092479964
 21
31.0
  0
LINE
  5
362
100
AcDbEntity
  8
0
  6
CONTINUOUS
 62
     2
100
AcDbLine
 10
-70.4055092479964
 20
0.0
 11
-70.4055092479964
 21
16.5
  0
LINE
  5
363
100
AcDbEntity
  8
0
  6
CONTINUOUS
 62
     2
100
AcDbLine
 10
-70.9055092479964
 20
2.0
 11
-70.4055092479964
 21
0.0
  0
LINE
  5
364
100
AcDbEntity
  8
0
  6
CONTINUOUS
 62
     2
100
AcDbLine
 10
-70.4055092479964
 20
0.0
 11
-69.9055092479964
 21
2.0
  0
LINE
  5
365
100
AcDbEntity
  8
0
  6
CONTINUOUS
 62
     2
100
AcDbLine
 10
-53.999999999999
 20
33.0
 11
-71.4055092479964
 21
33.0
  0
LINE
  5
366
100
AcDbEntity
  8
0
  6
CONTINUOUS
 62
     2
100
AcDbLine
 10
-63.499999999999
 20
0.0
 11
-71.4055092479964
 21
0.0
  0
MTEXT
  5
367
100
AcDbEntity
  8
0
  6
CONTINUOUS
 62
     2
100
AcDbMText
 10
-70.9055092479964
 20
14.3125
 40
3.5
 41
0.0
 11
6.12323399573677E-017
 21
1.0
 71
     7
 72
     5
  7
STANDARD
  1
{\T1.60714;\W0.666667;33}
 73
     1
 44
1.0
  0
POINT
  5
368
100
AcDbEntity
  8
DEFPOINTS
  6
BYBLOCK
 62
     0
100
AcDbPoint
 10
-53.499999999999
 20
33.0
  0
POINT
  5
369
100
AcDbEntity
  8
DEFPOINTS
  6
BYBLOCK
 62
     0
100
AcDbPoint
 10
-62.999999999999
 20
0.0
  0
POINT
  5
36A
100
AcDbEntity
  8
DEFPOINTS
  6
BYBLOCK
 62
     0
100
AcDbPoint
 10
-70.4055092479964
 20
0.0
  0
ENDBLK
  5
36B
100
AcDbEntity
  8
4
100
AcDbBlockEnd
  0
BLOCK
  5
36E
100
AcDbEntity
  8
0
100
AcDbBlockBegin
  2
*D14
 70
    65
 10
0.0
 20
0.0
  0
LINE
  5
36F
100
AcDbEntity
  8
0
  6
CONTINUOUS
 62
     2
100
AcDbLine
 10
-54.499999999999
 20
47.0
 11
-42.999999999999
 21
47.0
  0
LINE
  5
370
100
AcDbEntity
  8
0
  6
CONTINUOUS
 62
     2
100
AcDbLine
 10
-52.499999999999
 20
47.5
 11
-54.499999999999
 21
47.0
  0
LINE
  5
371
100
AcDbEntity
  8
0
  6
CONTINUOUS
 62
     2
100
AcDbLine
 10
-54.499999999999
 20
47.0
 11
-52.499999999999
 21
46.5
  0
LINE
  5
372
100
AcDbEntity
  8
0
  6
CONTINUOUS
 62
     2
100
AcDbLine
 10
-31.499999999999
 20
47.0
 11
-42.999999999999
 21
47.0
  0
LINE
  5
373
100
AcDbEntity
  8
0
  6
CONTINUOUS
 62
     2
100
AcDbLine
 10
-33.499999999999
 20
46.5
 11
-31.499999999999
 21
47.0
  0
LINE
  5
374
100
AcDbEntity
  8
0
  6
CONTINUOUS
 62
     2
100
AcDbLine
 10
-31.499999999999
 20
47.0
 11
-33.499999999999
 21
47.5
  0
LINE
  5
375
100
AcDbEntity
  8
0
  6
CONTINUOUS
 62
     2
100
AcDbLine
 10
-54.499999999999
 20
32.5
 11
-54.499999999999
 21
48.0
  0
LINE
  5
376
100
AcDbEntity
  8
0
  6
CONTINUOUS
 62
     2
100
AcDbLine
 10
-31.499999999999
 20
32.5
 11
-31.499999999999
 21
48.0
  0
MTEXT
  5
377
100
AcDbEntity
  8
0
  6
CONTINUOUS
 62
     2
100
AcDbMText
 10
-45.187499999999
 20
47.5
 40
3.5
 41
0.0
 11
1.0
 21
0.0
 71
     7
 72
     5
  7
STANDARD
  1
{\T1.60714;\W0.666667;23}
 73
     1
 44
1.0
  0
POINT
  5
378
100
AcDbEntity
  8
DEFPOINTS
  6
BYBLOCK
 62
     0
100
AcDbPoint
 10
-54.499999999999
 20
32.0
  0
POINT
  5
379
100
AcDbEntity
  8
DEFPOINTS
  6
BYBLOCK
 62
     0
100
AcDbPoint
 10
-31.499999999999
 20
32.0
  0
POINT
  5
37A
100
AcDbEntity
  8
DEFPOINTS
  6
BYBLOCK
 62
     0
100
AcDbPoint
 10
-31.499999999999
 20
47.0
  0
ENDBLK
  5
37B
100
AcDbEntity
  8
4
100
AcDbBlockEnd
  0
BLOCK
  5
37E
100
AcDbEntity
  8
0
100
AcDbBlockBegin
  2
*D15
 70
    65
 10
0.0
 20
0.0
  0
LINE
  5
37F
100
AcDbEntity
  8
0
  6
CONTINUOUS
 62
     2
100
AcDbLine
 10
395.812577701464
 20
36.0
 11
395.812577701464
 21
18.0
  0
LINE
  5
380
100
AcDbEntity
  8
0
  6
CONTINUOUS
 62
     2
100
AcDbLine
 10
396.312577701464
 20
34.0
 11
395.812577701464
 21
36.0
  0
LINE
  5
381
100
AcDbEntity
  8
0
  6
CONTINUOUS
 62
     2
100
AcDbLine
 10
395.812577701464
 20
36.0
 11
395.312577701464
 21
34.0
  0
LINE
  5
382
100
AcDbEntity
  8
0
  6
CONTINUOUS
 62
     2
100
AcDbLine
 10
395.812577701464
 20
0.0
 11
395.812577701464
 21
18.0
  0
LINE
  5
383
100
AcDbEntity
  8
0
  6
CONTINUOUS
 62
     2
100
AcDbLine
 10
395.312577701464
 20
2.0
 11
395.812577701464
 21
0.0
  0
LINE
  5
384
100
AcDbEntity
  8
0
  6
CONTINUOUS
 62
     2
100
AcDbLine
 10
395.812577701464
 20
0.0
 11
396.312577701464
 21
2.0
  0
LINE
  5
385
100
AcDbEntity
  8
0
  6
CONTINUOUS
 62
     2
100
AcDbLine
 10
414.093587684068
 20
36.0
 11
394.812577701464
 21
36.0
  0
LINE
  5
386
100
AcDbEntity
  8
0
  6
CONTINUOUS
 62
     2
100
AcDbLine
 10
407.169054358232
 20
0.0
 11
394.812577701464
 21
0.0
  0
MTEXT
  5
387
100
AcDbEntity
  8
0
  6
CONTINUOUS
 62
     2
100
AcDbMText
 10
395.312577701464
 20
15.8125
 40
3.5
 41
0.0
 11
6.12323399573677E-017
 21
1.0
 71
     7
 72
     5
  7
STANDARD
  1
{\T1.60714;\W0.666667;36}
 73
     1
 44
1.0
  0
POINT
  5
388
100
AcDbEntity
  8
DEFPOINTS
  6
BYBLOCK
 62
     0
100
AcDbPoint
 10
414.593587684068
 20
36.0
  0
POINT
  5
389
100
AcDbEntity
  8
DEFPOINTS
  6
BYBLOCK
 62
     0
100
AcDbPoint
 10
407.669054358232
 20
0.0
  0
POINT
  5
38A
100
AcDbEntity
  8
DEFPOINTS
  6
BYBLOCK
 62
     0
100
AcDbPoint
 10
395.812577701464
 20
0.0
  0
ENDBLK
  5
38B
100
AcDbEntity
  8
4
100
AcDbBlockEnd
  0
BLOCK
  5
38E
100
AcDbEntity
  8
0
100
AcDbBlockBegin
  2
*D16
 70
    65
 10
0.0
 20
0.0
  0
LINE
  5
38F
100
AcDbEntity
  8
0
  6
CONTINUOUS
 62
     2
100
AcDbLine
 10
412.593587684068
 20
47.0
 11
430.593587684068
 21
47.0
  0
LINE
  5
390
100
AcDbEntity
  8
0
  6
CONTINUOUS
 62
     2
100
AcDbLine
 10
414.593587684068
 20
47.5
 11
412.593587684068
 21
47.0
  0
LINE
  5
391
100
AcDbEntity
  8
0
  6
CONTINUOUS
 62
     2
100
AcDbLine
 10
412.593587684068
 20
47.0
 11
414.593587684068
 21
46.5
  0
LINE
  5
392
100
AcDbEntity
  8
0
  6
CONTINUOUS
 62
     2
100
AcDbLine
 10
448.593587684068
 20
47.0
 11
430.593587684068
 21
47.0
  0
LINE
  5
393
100
AcDbEntity
  8
0
  6
CONTINUOUS
 62
     2
100
AcDbLine
 10
446.593587684068
 20
46.5
 11
448.593587684068
 21
47.0
  0
LINE
  5
394
100
AcDbEntity
  8
0
  6
CONTINUOUS
 62
     2
100
AcDbLine
 10
448.593587684068
 20
47.0
 11
446.593587684068
 21
47.5
  0
LINE
  5
395
100
AcDbEntity
  8
0
  6
CONTINUOUS
 62
     2
100
AcDbLine
 10
412.593587684068
 20
34.5
 11
412.593587684068
 21
48.0
  0
LINE
  5
396
100
AcDbEntity
  8
0
  6
CONTINUOUS
 62
     2
100
AcDbLine
 10
448.593587684068
 20
34.5
 11
448.593587684068
 21
48.0
  0
MTEXT
  5
397
100
AcDbEntity
  8
0
  6
CONTINUOUS
 62
     2
100
AcDbMText
 10
428.406087684068
 20
47.5
 40
3.5
 41
0.0
 11
1.0
 21
0.0
 71
     7
 72
     5
  7
STANDARD
  1
{\T1.60714;\W0.666667;36}
 73
     1
 44
1.0
  0
POINT
  5
398
100
AcDbEntity
  8
DEFPOINTS
  6
BYBLOCK
 62
     0
100
AcDbPoint
 10
412.593587684068
 20
34.0
  0
POINT
  5
399
100
AcDbEntity
  8
DEFPOINTS
  6
BYBLOCK
 62
     0
100
AcDbPoint
 10
448.593587684068
 20
34.0
  0
POINT
  5
39A
100
AcDbEntity
  8
DEFPOINTS
  6
BYBLOCK
 62
     0
100
AcDbPoint
 10
448.593587684068
 20
47.0
  0
ENDBLK
  5
39B
100
AcDbEntity
  8
4
100
AcDbBlockEnd
  0
BLOCK
  5
3A5
100
AcDbEntity
  8
0
100
AcDbBlockBegin
  2
*D17
 70
    65
 10
0.0
 20
0.0
  0
LINE
  5
3A6
100
AcDbEntity
  8
0
  6
CONTINUOUS
 62
     2
100
AcDbLine
 10
404.077688215282
 20
0.0
 11
404.077688215282
 21
9.0
  0
LINE
  5
3A7
100
AcDbEntity
  8
0
  6
CONTINUOUS
 62
     2
100
AcDbLine
 10
403.577688215282
 20
2.0
 11
404.077688215282
 21
0.0
  0
LINE
  5
3A8
100
AcDbEntity
  8
0
  6
CONTINUOUS
 62
     2
100
AcDbLine
 10
404.077688215282
 20
0.0
 11
404.577688215282
 21
2.0
  0
LINE
  5
3A9
100
AcDbEntity
  8
0
  6
CONTINUOUS
 62
     2
100
AcDbLine
 10
404.077688215282
 20
18.0
 11
404.077688215282
 21
9.0
  0
LINE
  5
3AA
100
AcDbEntity
  8
0
  6
CONTINUOUS
 62
     2
100
AcDbLine
 10
404.577688215282
 20
16.0
 11
404.077688215282
 21
18.0
  0
LINE
  5
3AB
100
AcDbEntity
  8
0
  6
CONTINUOUS
 62
     2
100
AcDbLine
 10
404.077688215282
 20
18.0
 11
403.577688215282
 21
16.0
  0
LINE
  5
3AC
100
AcDbEntity
  8
0
  6
CONTINUOUS
 62
     2
100
AcDbLine
 10
407.169054358232
 20
0.0
 11
403.077688215282
 21
0.0
  0
LINE
  5
3AD
100
AcDbEntity
  8
0
  6
CONTINUOUS
 62
     2
100
AcDbLine
 10
411.393587684068
 20
18.0
 11
403.077688215282
 21
18.0
  0
MTEXT
  5
3AE
100
AcDbEntity
  8
0
  6
CONTINUOUS
 62
     2
100
AcDbMText
 10
403.577688215282
 20
6.8125
 40
3.5
 41
0.0
 11
6.12323399573677E-017
 21
1.0
 71
     7
 72
     5
  7
STANDARD
  1
{\T1.60714;\W0.666667;18}
 73
     1
 44
1.0
  0
POINT
  5
3AF
100
AcDbEntity
  8
DEFPOINTS
  6
BYBLOCK
 62
     0
100
AcDbPoint
 10
407.669054358232
 20
0.0
  0
POINT
  5
3B0
100
AcDbEntity
  8
DEFPOINTS
  6
BYBLOCK
 62
     0
100
AcDbPoint
 10
411.893587684068
 20
18.0
  0
POINT
  5
3B1
100
AcDbEntity
  8
DEFPOINTS
  6
BYBLOCK
 62
     0
100
AcDbPoint
 10
404.077688215282
 20
18.0
  0
ENDBLK
  5
3B2
100
AcDbEntity
  8
4
100
AcDbBlockEnd
  0
BLOCK
  5
3B5
100
AcDbEntity
  8
0
100
AcDbBlockBegin
  2
*D18
 70
    65
 10
0.0
 20
0.0
  0
LINE
  5
3B6
100
AcDbEntity
  8
0
  6
CONTINUOUS
 62
     2
100
AcDbLine
 10
264.000000000001
 20
-36.275228218209
 11
132.0
 21
-36.275228218209
  0
LINE
  5
3B7
100
AcDbEntity
  8
0
  6
CONTINUOUS
 62
     2
100
AcDbLine
 10
262.000000000001
 20
-36.775228218209
 11
264.000000000001
 21
-36.275228218209
  0
LINE
  5
3B8
100
AcDbEntity
  8
0
  6
CONTINUOUS
 62
     2
100
AcDbLine
 10
264.000000000001
 20
-36.275228218209
 11
262.000000000001
 21
-35.775228218209
  0
LINE
  5
3B9
100
AcDbEntity
  8
0
  6
CONTINUOUS
 62
     2
100
AcDbLine
 10
0.0
 20
-36.275228218209
 11
132.0
 21
-36.275228218209
  0
LINE
  5
3BA
100
AcDbEntity
  8
0
  6
CONTINUOUS
 62
     2
100
AcDbLine
 10
2.0
 20
-35.775228218209
 11
0.0
 21
-36.275228218209
  0
LINE
  5
3BB
100
AcDbEntity
  8
0
  6
CONTINUOUS
 62
     2
100
AcDbLine
 10
0.0
 20
-36.275228218209
 11
2.0
 21
-36.775228218209
  0
LINE
  5
3BC
100
AcDbEntity
  8
0
  6
CONTINUOUS
 62
     2
100
AcDbLine
 10
264.000000000001
 20
-20.499999999999
 11
264.000000000001
 21
-37.275228218209
  0
LINE
  5
3BD
100
AcDbEntity
  8
0
  6
CONTINUOUS
 62
     2
100
AcDbLine
 10
0.0
 20
-4.75
 11
0.0
 21
-37.275228218209
  0
MTEXT
  5
3BE
100
AcDbEntity
  8
0
  6
CONTINUOUS
 62
     2
100
AcDbMText
 10
128.5
 20
-35.775228218209
 40
3.5
 41
0.0
 11
1.0
 21
0.0
 71
     7
 72
     5
  7
STANDARD
  1
{\T1.60714;\W0.666667;264}
 73
     1
 44
1.0
  0
POINT
  5
3BF
100
AcDbEntity
  8
DEFPOINTS
  6
BYBLOCK
 62
     0
100
AcDbPoint
 10
264.000000000001
 20
-19.999999999999
  0
POINT
  5
3C0
100
AcDbEntity
  8
DEFPOINTS
  6
BYBLOCK
 62
     0
100
AcDbPoint
 10
0.0
 20
-4.25
  0
POINT
  5
3C1
100
AcDbEntity
  8
DEFPOINTS
  6
BYBLOCK
 62
     0
100
AcDbPoint
 10
0.0
 20
-36.275228218209
  0
ENDBLK
  5
3C2
100
AcDbEntity
  8
4
100
AcDbBlockEnd
  0
BLOCK
  5
3C5
100
AcDbEntity
  8
0
100
AcDbBlockBegin
  2
*D19
 70
    65
 10
0.0
 20
0.0
  0
LINE
  5
3C6
100
AcDbEntity
  8
0
  6
CONTINUOUS
 62
     2
100
AcDbLine
 10
5.0
 20
29.0
 11
8.0
 21
29.0
  0
LINE
  5
3C7
100
AcDbEntity
  8
0
  6
CONTINUOUS
 62
     2
100
AcDbLine
 10
7.0
 20
29.5
 11
5.0
 21
29.0
  0
LINE
  5
3C8
100
AcDbEntity
  8
0
  6
CONTINUOUS
 62
     2
100
AcDbLine
 10
5.0
 20
29.0
 11
7.0
 21
28.5
  0
LINE
  5
3C9
100
AcDbEntity
  8
0
  6
CONTINUOUS
 62
     2
100
AcDbLine
 10
5.0
 20
29.0
 11
2.5
 21
29.0
  0
LINE
  5
3CA
100
AcDbEntity
  8
0
  6
CONTINUOUS
 62
     2
100
AcDbLine
 10
0.0
 20
29.0
 11
2.5
 21
29.0
  0
LINE
  5
3CB
100
AcDbEntity
  8
0
  6
CONTINUOUS
 62
     2
100
AcDbLine
 10
0.0
 20
29.0
 11
-3.0
 21
29.0
  0
LINE
  5
3CC
100
AcDbEntity
  8
0
  6
CONTINUOUS
 62
     2
100
AcDbLine
 10
-2.0
 20
28.5
 11
0.0
 21
29.0
  0
LINE
  5
3CD
100
AcDbEntity
  8
0
  6
CONTINUOUS
 62
     2
100
AcDbLine
 10
0.0
 20
29.0
 11
-2.0
 21
29.5
  0
LINE
  5
3CE
100
AcDbEntity
  8
0
  6
CONTINUOUS
 62
     2
100
AcDbLine
 10
5.0
 20
5.25
 11
5.0
 21
30.0
  0
LINE
  5
3CF
100
AcDbEntity
  8
0
  6
CONTINUOUS
 62
     2
100
AcDbLine
 10
0.0
 20
4.75
 11
0.0
 21
30.0
  0
MTEXT
  5
3D0
100
AcDbEntity
  8
0
  6
CONTINUOUS
 62
     2
100
AcDbMText
 10
1.625
 20
29.5
 40
3.5
 41
0.0
 11
1.0
 21
0.0
 71
     7
 72
     5
  7
STANDARD
  1
{\T1.60714;\W0.666667;5}
 73
     1
 44
1.0
  0
POINT
  5
3D1
100
AcDbEntity
  8
DEFPOINTS
  6
BYBLOCK
 62
     0
100
AcDbPoint
 10
5.0
 20
4.75
  0
POINT
  5
3D2
100
AcDbEntity
  8
DEFPOINTS
  6
BYBLOCK
 62
     0
100
AcDbPoint
 10
0.0
 20
4.25
  0
POINT
  5
3D3
100
AcDbEntity
  8
DEFPOINTS
  6
BYBLOCK
 62
     0
100
AcDbPoint
 10
0.0
 20
29.0
  0
ENDBLK
  5
3D4
100
AcDbEntity
  8
4
100
AcDbBlockEnd
  0
BLOCK
  5
3D7
100
AcDbEntity
  8
0
100
AcDbBlockBegin
  2
*D20
 70
    65
 10
0.0
 20
0.0
  0
LINE
  5
3D8
100
AcDbEntity
  8
0
  6
CONTINUOUS
 62
     2
100
AcDbLine
 10
5.64987141055269
 20
-1.4620763146109
 11
11.7935667175193
 21
-15.2841205631229
  0
LINE
  5
3D9
100
AcDbEntity
  8
0
  6
CONTINUOUS
 62
     2
100
AcDbLine
 10
11.7935667175193
 20
-15.2841205631229
 11
22.4185667175193
 21
-15.2841205631229
  0
LINE
  5
3DA
100
AcDbEntity
  8
0
  6
CONTINUOUS
 62
     2
100
AcDbLine
 10
6.91910952205947
 20
-3.08658689207683
 11
5.64987141055269
 21
-1.4620763146109
  0
LINE
  5
3DB
100
AcDbEntity
  8
0
  6
CONTINUOUS
 62
     2
100
AcDbLine
 10
5.64987141055269
 20
-1.4620763146109
 11
6.00531182542764
 21
-3.49275652367227
  0
LINE
  5
3DC
100
AcDbEntity
  8
0
  6
CONTINUOUS
 62
     2
100
AcDbLine
 10
5.64987141055269
 20
-1.4620763146109
 11
5.0
 21
0.0
  0
LINE
  5
3DD
100
AcDbEntity
  8
0
  6
CONTINUOUS
 62
     2
100
AcDbLine
 10
4.35012858944731
 20
1.4620763146109
 11
5.0
 21
0.0
  0
LINE
  5
3DE
100
AcDbEntity
  8
0
  6
CONTINUOUS
 62
     2
100
AcDbLine
 10
4.35012858944731
 20
1.4620763146109
 11
3.13161969466101
 21
4.20346940450639
  0
LINE
  5
3DF
100
AcDbEntity
  8
0
  6
CONTINUOUS
 62
     2
100
AcDbLine
 10
3.08089047794053
 20
3.08658689207683
 11
4.35012858944731
 21
1.4620763146109
  0
LINE
  5
3E0
100
AcDbEntity
  8
0
  6
CONTINUOUS
 62
     2
100
AcDbLine
 10
4.35012858944731
 20
1.4620763146109
 11
3.99468817457236
 21
3.49275652367227
  0
MTEXT
  5
3E1
100
AcDbEntity
  8
0
  6
CONTINUOUS
 62
     2
100
AcDbMText
 10
12.2935667175193
 20
-14.7841205631229
 40
3.5
 41
0.0
 11
1.0
 21
0.0
 71
     7
 72
     5
  7
STANDARD
  1
{\T1.60714;\W0.666667;%%c3.2}
 73
     1
 44
1.0
  0
POINT
  5
3E2
100
AcDbEntity
  8
DEFPOINTS
  6
BYBLOCK
 62
     0
100
AcDbPoint
 10
4.35012858944731
 20
1.4620763146109
  0
POINT
  5
3E3
100
AcDbEntity
  8
DEFPOINTS
  6
BYBLOCK
 62
     0
100
AcDbPoint
 10
5.64987141055269
 20
-1.4620763146109
  0
ENDBLK
  5
3E4
100
AcDbEntity
  8
4
100
AcDbBlockEnd
  0
BLOCK
  5
3E7
100
AcDbEntity
  8
0
100
AcDbBlockBegin
  2
*D21
 70
    65
 10
0.0
 20
0.0
  0
LINE
  5
3E8
100
AcDbEntity
  8
0
  6
CONTINUOUS
 62
     2
100
AcDbLine
 10
-5.44735496323407
 20
6.0
 11
-5.44735496323407
 21
0.0
  0
LINE
  5
3E9
100
AcDbEntity
  8
0
  6
CONTINUOUS
 62
     2
100
AcDbLine
 10
-4.94735496323407
 20
4.0
 11
-5.44735496323407
 21
6.0
  0
LINE
  5
3EA
100
AcDbEntity
  8
0
  6
CONTINUOUS
 62
     2
100
AcDbLine
 10
-5.44735496323407
 20
6.0
 11
-5.94735496323407
 21
4.0
  0
LINE
  5
3EB
100
AcDbEntity
  8
0
  6
CONTINUOUS
 62
     2
100
AcDbLine
 10
-5.44735496323407
 20
-6.0
 11
-5.44735496323407
 21
0.0
  0
LINE
  5
3EC
100
AcDbEntity
  8
0
  6
CONTINUOUS
 62
     2
100
AcDbLine
 10
-5.94735496323407
 20
-4.0
 11
-5.44735496323407
 21
-6.0
  0
LINE
  5
3ED
100
AcDbEntity
  8
0
  6
CONTINUOUS
 62
     2
100
AcDbLine
 10
-5.44735496323407
 20
-6.0
 11
-4.94735496323407
 21
-4.0
  0
LINE
  5
3EE
100
AcDbEntity
  8
0
  6
CONTINUOUS
 62
     2
100
AcDbLine
 10
11.5
 20
6.0
 11
-6.44735496323407
 21
6.0
  0
LINE
  5
3EF
100
AcDbEntity
  8
0
  6
CONTINUOUS
 62
     2
100
AcDbLine
 10
11.5
 20
-6.0
 11
-6.44735496323407
 21
-6.0
  0
MTEXT
  5
3F0
100
AcDbEntity
  8
0
  6
CONTINUOUS
 62
     2
100
AcDbMText
 10
-5.94735496323407
 20
-3.5
 40
3.5
 41
0.0
 11
6.12323399573677E-017
 21
1.0
 71
     7
 72
     5
  7
STANDARD
  1
{\T1.60714;\W0.666667;%%c12}
 73
     1
 44
1.0
  0
POINT
  5
3F1
100
AcDbEntity
  8
DEFPOINTS
  6
BYBLOCK
 62
     0
100
AcDbPoint
 10
12.0
 20
6.0
  0
POINT
  5
3F2
100
AcDbEntity
  8
DEFPOINTS
  6
BYBLOCK
 62
     0
100
AcDbPoint
 10
12.0
 20
-6.0
  0
POINT
  5
3F3
100
AcDbEntity
  8
DEFPOINTS
  6
BYBLOCK
 62
     0
100
AcDbPoint
 10
-5.44735496323407
 20
-6.0
  0
ENDBLK
  5
3F4
100
AcDbEntity
  8
4
100
AcDbBlockEnd
  0
BLOCK
  5
427
100
AcDbEntity
  8
0
100
AcDbBlockBegin
  2
*D22
 70
    65
 10
0.0
 20
0.0
  0
LINE
  5
428
100
AcDbEntity
  8
0
  6
CONTINUOUS
 62
     2
100
AcDbLine
 10
287.400000000001
 20
56.0
 11
323.400000000001
 21
56.0
  0
LINE
  5
429
100
AcDbEntity
  8
0
  6
CONTINUOUS
 62
     2
100
AcDbLine
 10
289.400000000001
 20
56.5
 11
287.400000000001
 21
56.0
  0
LINE
  5
42A
100
AcDbEntity
  8
0
  6
CONTINUOUS
 62
     2
100
AcDbLine
 10
287.400000000001
 20
56.0
 11
289.400000000001
 21
55.5
  0
LINE
  5
42B
100
AcDbEntity
  8
0
  6
CONTINUOUS
 62
     2
100
AcDbLine
 10
359.400000000001
 20
56.0
 11
323.400000000001
 21
56.0
  0
LINE
  5
42C
100
AcDbEntity
  8
0
  6
CONTINUOUS
 62
     2
100
AcDbLine
 10
357.400000000001
 20
55.5
 11
359.400000000001
 21
56.0
  0
LINE
  5
42D
100
AcDbEntity
  8
0
  6
CONTINUOUS
 62
     2
100
AcDbLine
 10
359.400000000001
 20
56.0
 11
357.400000000001
 21
56.5
  0
LINE
  5
42E
100
AcDbEntity
  8
0
  6
CONTINUOUS
 62
     2
100
AcDbLine
 10
287.400000000001
 20
34.230738767203
 11
287.400000000001
 21
57.0
  0
LINE
  5
42F
100
AcDbEntity
  8
0
  6
CONTINUOUS
 62
     2
100
AcDbLine
 10
359.400000000001
 20
29.0964217870429
 11
359.400000000001
 21
57.0
  0
MTEXT
  5
430
100
AcDbEntity
  8
0
  6
CONTINUOUS
 62
     2
100
AcDbMText
 10
318.587500000001
 20
56.5
 40
3.5
 41
0.0
 11
1.0
 21
0.0
 71
     7
 72
     5
  7
STANDARD
  1
{\T1.60714;\W0.666667;(72)}
 73
     1
 44
1.0
  0
POINT
  5
431
100
AcDbEntity
  8
DEFPOINTS
  6
BYBLOCK
 62
     0
100
AcDbPoint
 10
287.400000000001
 20
33.730738767203
  0
POINT
  5
432
100
AcDbEntity
  8
DEFPOINTS
  6
BYBLOCK
 62
     0
100
AcDbPoint
 10
359.400000000001
 20
28.5964217870429
  0
POINT
  5
433
100
AcDbEntity
  8
DEFPOINTS
  6
BYBLOCK
 62
     0
100
AcDbPoint
 10
359.400000000001
 20
56.0
  0
ENDBLK
  5
434
100
AcDbEntity
  8
4
100
AcDbBlockEnd
  0
BLOCK
  5
437
100
AcDbEntity
  8
0
100
AcDbBlockBegin
  2
*D23
 70
    65
 10
0.0
 20
0.0
  0
LINE
  5
438
100
AcDbEntity
  8
0
  6
CONTINUOUS
 62
     2
100
AcDbLine
 10
-76.83580931345
 20
35.0000000000001
 11
-76.83580931345
 21
17.5
  0
LINE
  5
439
100
AcDbEntity
  8
0
  6
CONTINUOUS
 62
     2
100
AcDbLine
 10
-76.33580931345
 20
33.0000000000001
 11
-76.83580931345
 21
35.0000000000001
  0
LINE
  5
43A
100
AcDbEntity
  8
0
  6
CONTINUOUS
 62
     2
100
AcDbLine
 10
-76.83580931345
 20
35.0000000000001
 11
-77.33580931345
 21
33.0000000000001
  0
LINE
  5
43B
100
AcDbEntity
  8
0
  6
CONTINUOUS
 62
     2
100
AcDbLine
 10
-76.83580931345
 20
0.0
 11
-76.83580931345
 21
17.5
  0
LINE
  5
43C
100
AcDbEntity
  8
0
  6
CONTINUOUS
 62
     2
100
AcDbLine
 10
-77.33580931345
 20
2.0
 11
-76.83580931345
 21
0.0
  0
LINE
  5
43D
100
AcDbEntity
  8
0
  6
CONTINUOUS
 62
     2
100
AcDbLine
 10
-76.83580931345
 20
0.0
 11
-76.33580931345
 21
2.0
  0
LINE
  5
43E
100
AcDbEntity
  8
0
  6
CONTINUOUS
 62
     2
100
AcDbLine
 10
-44.499999999999
 20
35.0000000000001
 11
-77.83580931345
 21
35.0000000000001
  0
LINE
  5
43F
100
AcDbEntity
  8
0
  6
CONTINUOUS
 62
     2
100
AcDbLine
 10
-63.999999999999
 20
0.0
 11
-77.83580931345
 21
0.0
  0
MTEXT
  5
440
100
AcDbEntity
  8
0
  6
CONTINUOUS
 62
     2
100
AcDbMText
 10
-77.33580931345
 20
15.3125
 40
3.5
 41
0.0
 11
6.12323399573677E-017
 21
1.0
 71
     7
 72
     5
  7
STANDARD
  1
{\T1.60714;\W0.666667;35}
 73
     1
 44
1.0
  0
POINT
  5
441
100
AcDbEntity
  8
DEFPOINTS
  6
BYBLOCK
 62
     0
100
AcDbPoint
 10
-43.999999999999
 20
35.0000000000001
  0
POINT
  5
442
100
AcDbEntity
  8
DEFPOINTS
  6
BYBLOCK
 62
     0
100
AcDbPoint
 10
-63.499999999999
 20
0.0
  0
POINT
  5
443
100
AcDbEntity
  8
DEFPOINTS
  6
BYBLOCK
 62
     0
100
AcDbPoint
 10
-76.83580931345
 20
0.0
  0
ENDBLK
  5
444
100
AcDbEntity
  8
4
100
AcDbBlockEnd
  0
BLOCK
  5
27
100
AcDbEntity
  8
2
100
AcDbBlockBegin
  2
SUB1
 70
    64
 10
0.0
 20
0.0
  0
LINE
  5
28
100
AcDbEntity
  8
0
  6
CONTINUOUS
 62
     0
100
AcDbLine
 10
228.000000000001
 20
-19.999999999999
 11
183.000000000001
 21
-19.999999999999
  0
LINE
  5
29
100
AcDbEntity
  8
0
  6
CONTINUOUS
 62
     0
100
AcDbLine
 10
228.000000000001
 20
-19.999999999999
 11
228.000000000001
 21
36.000000000003
  0
LINE
  5
2A
100
AcDbEntity
  8
0
  6
CONTINUOUS
 62
     0
100
AcDbLine
 10
183.000000000001
 20
36.000000000003
 11
183.000000000001
 21
16.000000000002
  0
LINE
  5
2B
100
AcDbEntity
  8
0
  6
CONTINUOUS
 62
     0
100
AcDbLine
 10
183.000000000001
 20
-19.999999999999
 11
183.000000000001
 21
-15.999999999998
  0
LINE
  5
2C
100
AcDbEntity
  8
0
  6
CONTINUOUS
 62
     0
100
AcDbLine
 10
228.000000000001
 20
-18.248397601932
 11
183.000000000001
 21
-18.248397601932
  0
LINE
  5
2D
100
AcDbEntity
  8
0
  6
CONTINUOUS
 62
     0
100
AcDbLine
 10
229.000000000001
 20
1.72999999926498
 11
232.200000000001
 21
1.72999999926498
  0
LINE
  5
2E
100
AcDbEntity
  8
0
  6
CONTINUOUS
 62
     0
100
AcDbLine
 10
232.200000000001
 20
1.72999999926498
 11
232.200000000001
 21
34.269999999265
  0
LINE
  5
2F
100
AcDbEntity
  8
0
  6
CONTINUOUS
 62
     0
100
AcDbLine
 10
232.200000000001
 20
34.269999999265
 11
229.000000000001
 21
34.269999999265
  0
LINE
  5
30
100
AcDbEntity
  8
0
  6
CONTINUOUS
 62
     0
100
AcDbLine
 10
235.200000000001
 20
31.699999999265
 11
237.400000000001
 21
31.699999999265
  0
LINE
  5
31
100
AcDbEntity
  8
0
  6
CONTINUOUS
 62
     0
100
AcDbLine
 10
237.400000000001
 20
4.29999999926497
 11
235.200000000001
 21
4.29999999926497
  0
LINE
  5
32
100
AcDbEntity
  8
6
  6
CENTER
 62
     0
100
AcDbLine
 10
222.080746092322
 20
30.299998287202
 11
237.206642989264
 21
30.299998287202
  0
LWPOLYLINE
  5
34
100
AcDbEntity
  8
0
  6
CONTINUOUS
 62
     0
100
AcDbPolyline
 90
        6
 70
     1
 43
0.0
 10
232.200000000001
 20
33.049998287202
 10
234.900000000001
 20
33.049998287202
 10
235.200000000001
 20
32.749998287202
 10
235.200000000001
 20
27.849998287202
 10
234.900000000001
 20
27.549998287202
 10
232.200000000001
 20
27.549998287202
  0
LINE
  5
35
100
AcDbEntity
  8
6
  6
CENTER
 62
     0
100
AcDbLine
 10
222.080746092322
 20
5.70000171280401
 11
237.206642989264
 21
5.70000171280401
  0
LWPOLYLINE
  5
36
100
AcDbEntity
  8
0
  6
CONTINUOUS
 62
     0
100
AcDbPolyline
 90
        6
 70
     1
 43
0.0
 10
232.200000000001
 20
2.95000171280401
 10
234.900000000001
 20
2.95000171280401
 10
235.200000000001
 20
3.25000171280396
 10
235.200000000001
 20
8.150001712804
 10
234.900000000001
 20
8.45000171280401
 10
232.200000000001
 20
8.45000171280401
  0
LWPOLYLINE
  5
37
100
AcDbEntity
  8
0
  6
CONTINUOUS
 62
     0
100
AcDbPolyline
 90
        4
 70
     1
 43
0.0
 10
229.000000000001
 20
34.269999999265
 10
228.000000000001
 20
34.269999999265
 10
228.000000000001
 20
1.72999999926498
 10
229.000000000001
 20
1.72999999926498
  0
LINE
  5
38
100
AcDbEntity
  8
0
  6
CONTINUOUS
 62
     0
100
AcDbLine
 10
182.700000000001
 20
20.500000000001
 11
178.000000000001
 21
20.500000000001
  0
LINE
  5
39
100
AcDbEntity
  8
0
  6
CONTINUOUS
 62
     0
100
AcDbLine
 10
178.000000000001
 20
20.500000000001
 11
178.000000000001
 21
-20.499999999996
  0
LINE
  5
3A
100
AcDbEntity
  8
0
  6
CONTINUOUS
 62
     0
100
AcDbLine
 10
178.000000000001
 20
-20.499999999996
 11
182.700000000001
 21
-20.499999999996
  0
LINE
  5
3B
100
AcDbEntity
  8
0
  6
CONTINUOUS
 62
     0
100
AcDbLine
 10
182.700000000001
 20
-20.499999999996
 11
183.000000000001
 21
-20.199999999996
  0
LINE
  5
3C
100
AcDbEntity
  8
0
  6
CONTINUOUS
 62
     0
100
AcDbLine
 10
183.000000000001
 20
-20.199999999996
 11
183.000000000001
 21
20.200000000001
  0
LINE
  5
3D
100
AcDbEntity
  8
0
  6
CONTINUOUS
 62
     0
100
AcDbLine
 10
183.000000000001
 20
20.200000000001
 11
182.700000000001
 21
20.500000000001
  0
LINE
  5
3E
100
AcDbEntity
  8
0
  6
CONTINUOUS
 62
     0
100
AcDbLine
 10
183.000000000001
 20
36.000000000003
 11
228.000000000001
 21
36.000000000003
  0
LINE
  5
3F
100
AcDbEntity
  8
0
  6
CONTINUOUS
 62
     0
100
AcDbLine
 10
223.000000000001
 20
-19.999999999999
 11
223.000000000001
 21
36.000000000003
  0
LINE
  5
40
100
AcDbEntity
  8
2
  6
CONTINUOUS
 62
     0
100
AcDbLine
 10
74.000000000001
 20
-27.5
 11
74.000000000001
 21
33.0
  0
LINE
  5
41
100
AcDbEntity
  8
2
  6
CONTINUOUS
 62
     0
100
AcDbLine
 10
0.0
 20
-27.5
 11
74.000000000001
 21
-27.5
  0
LINE
  5
42
100
AcDbEntity
  8
2
  6
CONTINUOUS
 62
     0
100
AcDbLine
 10
79.000000000001
 20
-26.45
 11
79.000000000001
 21
-20.5
  0
LINE
  5
43
100
AcDbEntity
  8
2
  6
CONTINUOUS
 62
     0
100
AcDbLine
 10
79.000000000001
 20
-26.45
 11
78.700000000001
 21
-26.75
  0
LINE
  5
44
100
AcDbEntity
  8
2
  6
CONTINUOUS
 62
     0
100
AcDbLine
 10
78.700000000001
 20
-20.5
 11
78.700000000001
 21
-26.75
  0
LINE
  5
45
100
AcDbEntity
  8
2
  6
CONTINUOUS
 62
     0
100
AcDbLine
 10
26.000000000001
 20
33.0
 11
74.000000000001
 21
33.0
  0
LINE
  5
46
100
AcDbEntity
  8
2
  6
CONTINUOUS
 62
     0
100
AcDbLine
 10
-24.0
 20
6.0
 11
-4.0
 21
6.0
  0
LINE
  5
47
100
AcDbEntity
  8
2
  6
CONTINUOUS
 62
     0
100
AcDbLine
 10
-24.0
 20
-6.0
 11
-4.0
 21
-6.0
  0
LINE
  5
48
100
AcDbEntity
  8
2
  6
CONTINUOUS
 62
     0
100
AcDbLine
 10
-3.5
 20
17.5
 11
0.0
 21
17.5
  0
LINE
  5
49
100
AcDbEntity
  8
2
  6
CONTINUOUS
 62
     0
100
AcDbLine
 10
-3.5
 20
-17.5
 11
0.0
 21
-17.5
  0
LINE
  5
4A
100
AcDbEntity
  8
2
  6
CONTINUOUS
 62
     0
100
AcDbLine
 10
-3.5
 20
17.5
 11
-4.0
 21
17.0
  0
LINE
  5
4B
100
AcDbEntity
  8
2
  6
CONTINUOUS
 62
     0
100
AcDbLine
 10
-4.0
 20
-17.0
 11
-3.5
 21
-17.5
  0
LINE
  5
4C
100
AcDbEntity
  8
2
  6
CONTINUOUS
 62
     0
100
AcDbLine
 10
0.0
 20
-27.5
 11
0.0
 21
-17.5
  0
LINE
  5
4D
100
AcDbEntity
  8
2
  6
CONTINUOUS
 62
     0
100
AcDbLine
 10
0.0
 20
-17.5
 11
0.0
 21
17.5
  0
LINE
  5
4E
100
AcDbEntity
  8
2
  6
CONTINUOUS
 62
     0
100
AcDbLine
 10
0.0
 20
17.5
 11
0.0
 21
27.5
  0
LINE
  5
4F
100
AcDbEntity
  8
2
  6
CONTINUOUS
 62
     0
100
AcDbLine
 10
0.0
 20
27.5
 11
20.0
 21
27.5
  0
LINE
  5
50
100
AcDbEntity
  8
2
  6
CONTINUOUS
 62
     0
100
AcDbLine
 10
-36.0
 20
-4.25
 11
-36.0
 21
4.25
  0
LINE
  5
51
100
AcDbEntity
  8
2
  6
CONTINUOUS
 62
     0
100
AcDbLine
 10
-35.5
 20
4.75
 11
-24.0
 21
4.75
  0
LINE
  5
52
100
AcDbEntity
  8
2
  6
CONTINUOUS
 62
     0
100
AcDbLine
 10
-35.5
 20
4.75
 11
-36.0
 21
4.25
  0
LINE
  5
53
100
AcDbEntity
  8
2
  6
CONTINUOUS
 62
     0
100
AcDbLine
 10
-35.5
 20
-4.75
 11
-35.5
 21
-3.49964283891899
  0
LINE
  5
54
100
AcDbEntity
  8
2
  6
CONTINUOUS
 62
     0
100
AcDbLine
 10
-35.5
 20
3.49964283891899
 11
-35.5
 21
4.75
  0
LINE
  5
55
100
AcDbEntity
  8
2
  6
CONTINUOUS
 62
     0
100
AcDbLine
 10
-35.5
 20
3.49964283891899
 11
-24.0
 21
3.49964283891899
  0
ARC
  5
56
100
AcDbEntity
  8
2
  6
CONTINUOUS
 62
     0
100
AcDbCircle
 10
-31.387518997004
 20
0.0
 40
5.4
100
AcDbArc
 50
139.602850955785
 51
148.667405670432
  0
ARC
  5
57
100
AcDbEntity
  8
2
  6
CONTINUOUS
 62
     0
100
AcDbCircle
 10
-31.387518997004
 20
0.0
 40
5.4
100
AcDbArc
 50
211.332594329568
 51
220.397149044215
  0
CIRCLE
  5
58
100
AcDbEntity
  8
2
  6
CONTINUOUS
 62
     0
100
AcDbCircle
 10
-31.0
 20
0.0
 40
1.6
  0
LINE
  5
59
100
AcDbEntity
  8
7
  6
CENTER2
 62
    40
100
AcDbLine
 10
-31.0
 20
-4.75
 11
-31.0
 21
4.75
  0
LINE
  5
5B
100
AcDbEntity
  8
2
  6
CONTINUOUS
 62
     0
100
AcDbLine
 10
-35.5
 20
-4.75
 11
-24.0
 21
-4.75
  0
LINE
  5
5C
100
AcDbEntity
  8
2
  6
CONTINUOUS
 62
     0
100
AcDbLine
 10
-36.0
 20
-4.25
 11
-35.5
 21
-4.75
  0
LINE
  5
5D
100
AcDbEntity
  8
2
  6
CONTINUOUS
 62
     0
100
AcDbLine
 10
-35.5
 20
-3.49964283891899
 11
-24.0
 21
-3.49964283891899
  0
LINE
  5
5E
100
AcDbEntity
  8
2
  6
CONTINUOUS
 62
     0
100
AcDbLine
 10
-24.0
 20
-6.0
 11
-24.0
 21
-4.75
  0
LINE
  5
5F
100
AcDbEntity
  8
2
  6
CONTINUOUS
 62
     0
100
AcDbLine
 10
-24.0
 20
-3.49964283891899
 11
-24.0
 21
3.49964283891899
  0
LINE
  5
60
100
AcDbEntity
  8
2
  6
CONTINUOUS
 62
     0
100
AcDbLine
 10
-24.0
 20
4.75
 11
-24.0
 21
6.0
  0
LINE
  5
61
100
AcDbEntity
  8
2
  6
CONTINUOUS
 62
     0
100
AcDbLine
 10
74.000000000001
 20
22.5
 11
49.500000000001
 21
22.5
  0
LINE
  5
62
100
AcDbEntity
  8
2
  6
CONTINUOUS
 62
     0
100
AcDbLine
 10
49.500000000001
 20
22.5
 11
40.500000000001
 21
22.5
  0
LINE
  5
63
100
AcDbEntity
  8
2
  6
CONTINUOUS
 62
     0
100
AcDbLine
 10
40.500000000001
 20
22.5
 11
37.000000000001
 21
22.5
  0
LINE
  5
64
100
AcDbEntity
  8
2
  6
CONTINUOUS
 62
     0
100
AcDbLine
 10
37.000000000001
 20
22.5
 11
29.240000000001
 21
22.5
  0
LINE
  5
65
100
AcDbEntity
  8
2
  6
CONTINUOUS
 62
     0
100
AcDbLine
 10
29.240000000001
 20
22.5
 11
26.760000000001
 21
22.5
  0
LINE
  5
66
100
AcDbEntity
  8
2
  6
CONTINUOUS
 62
     0
100
AcDbLine
 10
26.760000000001
 20
22.5
 11
20.0
 21
22.5
  0
LINE
  5
67
100
AcDbEntity
  8
2
  6
CONTINUOUS
 62
     0
100
AcDbLine
 10
25.000000000001
 20
22.5
 11
25.000000000001
 21
32.0
  0
LINE
  5
68
100
AcDbEntity
  8
2
  6
CONTINUOUS
 62
     0
100
AcDbLine
 10
76.500000000001
 20
35.0
 11
78.500000000001
 21
35.0
  0
LINE
  5
69
100
AcDbEntity
  8
2
  6
CONTINUOUS
 62
     0
100
AcDbLine
 10
80.000000000001
 20
33.5
 11
80.000000000001
 21
33.0
  0
LINE
  5
6A
100
AcDbEntity
  8
2
  6
CONTINUOUS
 62
     0
100
AcDbLine
 10
75.000000000001
 20
33.5
 11
75.000000000001
 21
33.0
  0
ARC
  5
6B
100
AcDbEntity
  8
2
  6
CONTINUOUS
 62
     0
100
AcDbCircle
 10
76.500000000001
 20
33.5
 40
1.5
100
AcDbArc
 50
90.0
 51
180.0
  0
ARC
  5
6C
100
AcDbEntity
  8
2
  6
CONTINUOUS
 62
     0
100
AcDbCircle
 10
78.500000000001
 20
33.5
 40
1.5
100
AcDbArc
 50
0.0
 51
90.0
  0
LINE
  5
6D
100
AcDbEntity
  8
2
  6
CONTINUOUS
 62
     0
100
AcDbLine
 10
26.000000000001
 20
33.0
 11
25.000000000001
 21
32.0
  0
LINE
  5
6E
100
AcDbEntity
  8
2
  6
CONTINUOUS
 62
     0
100
AcDbLine
 10
74.000000000001
 20
-26.75
 11
78.700000000001
 21
-26.75
  0
LINE
  5
6F
100
AcDbEntity
  8
0
  6
CONTINUOUS
 62
     0
100
AcDbLine
 10
82.000000000001
 20
18.174003338202
 11
178.000000000001
 21
18.174003338202
  0
LINE
  5
70
100
AcDbEntity
  8
0
  6
CONTINUOUS
 62
     0
100
AcDbLine
 10
82.000000000001
 20
15.809971077381
 11
178.000000000001
 21
15.809971077381
  0
LINE
  5
71
100
AcDbEntity
  8
0
  6
CONTINUOUS
 62
     0
100
AcDbLine
 10
178.000000000001
 20
14.627954946971
 11
82.000000000001
 21
14.627954946971
  0
LINE
  5
72
100
AcDbEntity
  8
2
  6
CONTINUOUS
 62
     0
100
AcDbLine
 10
74.000000000001
 20
33.0
 11
183.000000000001
 21
33.0
  0
LINE
  5
73
100
AcDbEntity
  8
2
  6
CONTINUOUS
 62
     0
100
AcDbLine
 10
79.000000000001
 20
20.5
 11
183.000000000001
 21
20.5
  0
LINE
  5
74
100
AcDbEntity
  8
2
  6
CONTINUOUS
 62
     0
100
AcDbLine
 10
74.000000000001
 20
-20.5
 11
183.000000000001
 21
-20.5
  0
LINE
  5
75
100
AcDbEntity
  8
6
  6
CENTER
 62
     0
100
AcDbLine
 10
-40.0
 20
0.0
 11
256.000000000001
 21
0.0
  0
LINE
  5
76
100
AcDbEntity
  8
0
  6
CONTINUOUS
 62
     0
100
AcDbLine
 10
178.000000000001
 20
16.991987207791
 11
82.000000000001
 21
16.991987207791
  0
LINE
  5
77
100
AcDbEntity
  8
0
  6
CONTINUOUS
 62
     0
100
AcDbLine
 10
74.000000000001
 20
-18.812850303407
 11
183.000000000001
 21
-18.812850303407
  0
LINE
  5
78
100
AcDbEntity
  8
0
  6
CONTINUOUS
 62
     0
100
AcDbLine
 10
82.000000000001
 20
-18.174003338197
 11
178.000000000001
 21
-18.174003338197
  0
LINE
  5
79
100
AcDbEntity
  8
0
  6
CONTINUOUS
 62
     0
100
AcDbLine
 10
178.000000000001
 20
-16.991987207787
 11
82.000000000001
 21
-16.991987207787
  0
LINE
  5
7A
100
AcDbEntity
  8
0
  6
CONTINUOUS
 62
     0
100
AcDbLine
 10
82.000000000001
 20
-15.809971077376
 11
178.000000000001
 21
-15.809971077376
  0
LINE
  5
7B
100
AcDbEntity
  8
0
  6
CONTINUOUS
 62
     0
100
AcDbLine
 10
178.000000000001
 20
-14.627954946966
 11
82.000000000001
 21
-14.627954946966
  0
LINE
  5
7C
100
AcDbEntity
  8
0
  6
CONTINUOUS
 62
     0
100
AcDbLine
 10
82.000000000001
 20
-11.08190655598
 11
183.000000000001
 21
-11.08190655598
  0
LINE
  5
7D
100
AcDbEntity
  8
0
  6
CONTINUOUS
 62
     0
100
AcDbLine
 10
79.000000000001
 20
18.812850303159
 11
183.000000000001
 21
18.812850303159
  0
LINE
  5
7E
100
AcDbEntity
  8
0
  6
CONTINUOUS
 62
     0
100
AcDbLine
 10
82.000000000001
 20
11.081906555733
 11
183.000000000001
 21
11.081906555733
  0
LINE
  5
7F
100
AcDbEntity
  8
0
  6
CONTINUOUS
 62
     0
100
AcDbLine
 10
82.000000000001
 20
20.500000000001
 11
178.000000000001
 21
20.500000000001
  0
LINE
  5
80
100
AcDbEntity
  8
0
  6
CONTINUOUS
 62
     0
100
AcDbLine
 10
178.000000000001
 20
20.500000000001
 11
178.000000000001
 21
-20.499999999996
  0
LINE
  5
81
100
AcDbEntity
  8
0
  6
CONTINUOUS
 62
     0
100
AcDbLine
 10
178.000000000001
 20
-20.499999999996
 11
82.000000000001
 21
-20.499999999996
  0
LINE
  5
82
100
AcDbEntity
  8
0
  6
CONTINUOUS
 62
     0
100
AcDbLine
 10
82.000000000001
 20
-20.499999999996
 11
82.000000000001
 21
20.500000000001
  0
LINE
  5
83
100
AcDbEntity
  8
2
  6
CONTINUOUS
 62
     0
100
AcDbLine
 10
20.0
 20
22.5
 11
20.0
 21
27.5
  0
LINE
  5
84
100
AcDbEntity
  8
2
  6
CONTINUOUS
 62
     0
100
AcDbLine
 10
-4.0
 20
17.0
 11
-4.0
 21
14.188
  0
LINE
  5
85
100
AcDbEntity
  8
2
  6
CONTINUOUS
 62
     0
100
AcDbLine
 10
-4.0
 20
14.188
 11
-4.0
 21
-14.188
  0
LINE
  5
86
100
AcDbEntity
  8
2
  6
CONTINUOUS
 62
     0
100
AcDbLine
 10
-4.0
 20
-14.188
 11
-4.0
 21
-17.0
  0
MTEXT
  5
87
100
AcDbEntity
  8
4
  6
CONTINUOUS
 62
     2
100
AcDbMText
 10
106.066353411659
 20
1.66417020011613
 40
3.5
 41
0.0
 11
1.0
 21
0.0
 71
     7
 72
     5
  7
STANDARD
  1
{\T1.60714;\W0.666667;UNR-G613-100NT}
  0
LINE
  5
89
100
AcDbEntity
  8
2
  6
CONTINUOUS
 62
     0
100
AcDbLine
 10
61.000000000001
 20
-27.5
 11
61.000000000001
 21
22.5
  0
LINE
  5
8A
100
AcDbEntity
  8
2
  6
CONTINUOUS
 62
     0
100
AcDbLine
 10
73.000000000001
 20
22.5
 11
73.000000000001
 21
32.0
  0
LINE
  5
8B
100
AcDbEntity
  8
2
  6
CONTINUOUS
 62
     0
100
AcDbLine
 10
26.000000000001
 20
22.5
 11
26.000000000001
 21
32.0
  0
LINE
  5
8C
100
AcDbEntity
  8
2
  6
CONTINUOUS
 62
     0
100
AcDbLine
 10
26.000000000001
 20
32.0
 11
74.000000000001
 21
32.0
  0
LINE
  5
8D
100
AcDbEntity
  8
2
  6
CONTINUOUS
 62
     0
100
AcDbLine
 10
0.0
 20
27.363927359949
 11
20.0
 21
27.363927359949
  0
LINE
  5
8E
100
AcDbEntity
  8
2
  6
CONTINUOUS
 62
     0
100
AcDbLine
 10
0.0
 20
-6.54222465250302
 11
74.000000000001
 21
-6.54222465250302
  0
LINE
  5
8F
100
AcDbEntity
  8
2
  6
CONTINUOUS
 62
     0
100
AcDbLine
 10
0.0
 20
6.54222465250297
 11
23.0
 21
6.54222465250297
  0
LINE
  5
90
100
AcDbEntity
  8
2
  6
CONTINUOUS
 62
     0
100
AcDbLine
 10
0.0
 20
-27.363927359949
 11
74.000000000001
 21
-27.363927359949
  0
LINE
  5
91
100
AcDbEntity
  8
2
  6
CONTINUOUS
 62
     0
100
AcDbLine
 10
23.0
 20
19.880895352071
 11
74.000000000001
 21
19.880895352071
  0
LINE
  5
92
100
AcDbEntity
  8
2
  6
CONTINUOUS
 62
     0
100
AcDbLine
 10
23.0
 20
22.5
 11
23.0
 21
6.54222465250297
  0
LINE
  5
93
100
AcDbEntity
  8
2
  6
CONTINUOUS
 62
     0
100
AcDbLine
 10
-3.5
 20
-17.5
 11
-3.5
 21
17.5
  0
LINE
  5
94
100
AcDbEntity
  8
7
  6
CENTER2
 62
    40
100
AcDbLine
 10
-4.89089492157872
 20
22.5
 11
14.5224047950492
 21
22.5
  0
LINE
  5
95
100
AcDbEntity
  8
7
  6
CENTER2
 62
    40
100
AcDbLine
 10
-4.89089492157872
 20
-22.5
 11
14.5224047950492
 21
-22.5
  0
ELLIPSE
  5
96
100
AcDbEntity
  8
0
  6
CONTINUOUS
 62
     0
100
AcDbEllipse
 10
188.5
 20
10.3923048454685
 30
0.0
 11
0.0
 21
-4.0414518843275
 31
0.0
210
0.0
220
0.0
230
1.0
 40
0.866025403784666
 41
2.12115047744926E-016
 42
6.28318530717959
  0
SPLINE
  5
97
100
AcDbEntity
  8
0
  6
CONTINUOUS
 62
     0
100
AcDbSpline
210
0.0
220
0.0
230
1.0
 70
     8
 71
     3
 72
    39
 73
    35
 74
     0
 42
1.00000000000000E-007
 43
1.00000000000000E-007
 40
0.0
 40
0.0
 40
0.0
 40
0.0
 40
0.172636030697392
 40
0.344512299483095
 40
0.515963578343624
 40
0.687288684608479
 40
0.858751541109327
 40
1.03058281269895
 40
1.2029820148723
 40
1.37611998882038
 40
1.73647925056832
 40
2.10157666569044
 40
2.47209318368338
 40
2.8485189451035
 40
3.23126206394026
 40
3.6207502183387
 40
4.01752392276276
 40
4.4223205499919
 40
4.82711717722141
 40
5.22389088164587
 40
5.61337903604469
 40
5.99612215488185
 40
6.37254791630241
 40
6.7430644342958
 40
7.10816184941839
 40
7.46852111116687
 40
7.64165908511472
 40
7.81405828728791
 40
7.98588955887741
 40
8.15735241537815
 40
8.3286775216429
 40
8.50012880050335
 40
8.67200506928896
 40
8.84464109998628
 40
8.84464109998628
 40
8.84464109998628
 40
8.84464109998628
 10
191.904331027614
 20
9.45384493374098
 30
0.0
 10
191.888991217593
 20
9.50949120116048
 30
0.0
 10
191.854878838233
 20
9.6194471776693
 30
0.0
 10
191.79374582525
 20
9.78014325426621
 30
0.0
 10
191.72298220234
 20
9.93637322951802
 30
0.0
 10
191.642921803514
 20
10.0879088902505
 30
0.0
 10
191.553898462785
 20
10.2345220232864
 30
0.0
 10
191.456246014169
 20
10.3759844154489
 30
0.0
 10
191.350298291676
 20
10.5120678535624
 30
0.0
 10
191.1959428673
 20
10.6888729476178
 30
0.0
 10
190.981149259565
 20
10.8967123585036
 30
0.0
 10
190.692166195836
 20
11.1208060362845
 30
0.0
 10
190.37653139267
 20
11.3159905098682
 30
0.0
 10
190.037185424269
 20
11.4802555653382
 30
0.0
 10
189.677068864837
 20
11.6115909887779
 30
0.0
 10
189.299122288575
 20
11.7079865662706
 30
0.0
 10
188.906286269685
 20
11.7674320838996
 30
0.0
 10
188.500000000001
 20
11.7879933093002
 30
0.0
 10
188.093713730316
 20
11.7674320838996
 30
0.0
 10
187.700877711427
 20
11.7079865662705
 30
0.0
 10
187.322931135164
 20
11.6115909887775
 30
0.0
 10
186.962814575731
 20
11.4802555653374
 30
0.0
 10
186.62346860733
 20
11.3159905098669
 30
0.0
 10
186.307833804164
 20
11.1208060362827
 30
0.0
 10
186.018850740435
 20
10.8967123585014
 30
0.0
 10
185.8040571327
 20
10.6888729476151
 30
0.0
 10
185.649701708324
 20
10.5120678535593
 30
0.0
 10
185.543753985832
 20
10.3759844154462
 30
0.0
 10
185.446101537215
 20
10.2345220232834
 30
0.0
 10
185.357078196488
 20
10.0879088902482
 30
0.0
 10
185.277017797661
 20
9.93637322951502
 30
0.0
 10
185.206254174751
 20
9.78014325426244
 30
0.0
 10
185.145121161769
 20
9.6194471776663
 30
0.0
 10
185.111008782409
 20
9.50949120115747
 30
0.0
 10
185.095668972388
 20
9.45384493373797
 30
0.0
  0
ELLIPSE
  5
98
100
AcDbEntity
  8
0
  6
CONTINUOUS
 62
     0
100
AcDbEllipse
 10
188.500000000001
 20
-8.34999999996199
 30
0.0
 11
-3.5
 21
0.0
 31
0.0
210
0.0
220
0.0
230
1.0
 40
0.866025403807417
 41
0.0793066647157629
 42
3.06228598887403
  0
ELLIPSE
  5
99
100
AcDbEntity
  8
0
  6
CONTINUOUS
 62
     0
100
AcDbEllipse
 10
188.500000000001
 20
-8.83026729069002
 30
0.0
 11
-3.5
 21
0.0
 31
0.0
210
0.0
220
0.0
230
1.0
 40
0.866025403807433
 41
1.41410031826233E-016
 42
6.28318530717959
  0
LINE
  5
9A
100
AcDbEntity
  8
2
  6
CONTINUOUS
 62
     0
100
AcDbLine
 10
79.000000000001
 20
14.05
 11
79.000000000001
 21
21.95
  0
LINE
  5
9B
100
AcDbEntity
  8
2
  6
CONTINUOUS
 62
     0
100
AcDbLine
 10
79.000000000001
 20
14.05
 11
78.700000000001
 21
13.75
  0
LINE
  5
9C
100
AcDbEntity
  8
2
  6
CONTINUOUS
 62
     0
100
AcDbLine
 10
78.700000000001
 20
22.25
 11
78.700000000001
 21
13.75
  0
LINE
  5
9D
100
AcDbEntity
  8
2
  6
CONTINUOUS
 62
     0
100
AcDbLine
 10
74.000000000001
 20
13.75
 11
78.700000000001
 21
13.75
  0
LINE
  5
9E
100
AcDbEntity
  8
2
  6
CONTINUOUS
 62
     0
100
AcDbLine
 10
74.000000000001
 20
22.25
 11
78.700000000001
 21
22.25
  0
LINE
  5
9F
100
AcDbEntity
  8
2
  6
CONTINUOUS
 62
     0
100
AcDbLine
 10
79.000000000001
 20
21.95
 11
78.700000000001
 21
22.25
  0
ELLIPSE
  5
A0
100
AcDbEntity
  8
2
  6
CONTINUOUS
 62
     0
100
AcDbEllipse
 10
188.500000000001
 20
-8.35000000000002
 30
0.0
 11
3.0
 21
0.0
 31
0.0
210
0.0
220
0.0
230
1.0
 40
0.866025403784439
 41
0.0
 42
1.08630284701163
  0
ELLIPSE
  5
A1
100
AcDbEntity
  8
2
  6
CONTINUOUS
 62
     0
100
AcDbEllipse
 10
188.500000000001
 20
-8.35000000000002
 30
0.0
 11
3.0
 21
0.0
 31
0.0
210
0.0
220
0.0
230
1.0
 40
0.866025403784439
 41
2.05528980657813
 42
3.14159265358979
  0
ELLIPSE
  5
A2
100
AcDbEntity
  8
2
  6
CONTINUOUS
 62
     0
100
AcDbEllipse
 10
188.500000000001
 20
-8.75
 30
0.0
 11
3.0
 21
0.0
 31
0.0
210
0.0
220
0.0
230
1.0
 40
0.866025403784439
 41
0.0
 42
6.28318530717959
  0
LINE
  5
A3
100
AcDbEntity
  8
2
  6
CONTINUOUS
 62
     0
100
AcDbLine
 10
185.500000000001
 20
-8.34999999999991
 11
185.500000000001
 21
-8.75
  0
LINE
  5
A4
100
AcDbEntity
  8
2
  6
CONTINUOUS
 62
     0
100
AcDbLine
 10
191.500000000001
 20
-8.35000000000002
 11
191.500000000001
 21
-8.75
  0
LINE
  5
A5
100
AcDbEntity
  8
2
  6
CONTINUOUS
 62
     0
100
AcDbLine
 10
188.066987298109
 20
-8.35048094716166
 11
188.933012701893
 21
-8.35048094716166
  0
LINE
  5
A6
100
AcDbEntity
  8
2
  6
CONTINUOUS
 62
     0
100
AcDbLine
 10
188.066987298109
 20
-9.64951905283829
 11
188.933012701893
 21
-9.64951905283829
  0
LINE
  5
A7
100
AcDbEntity
  8
2
  6
CONTINUOUS
 62
     0
100
AcDbLine
 10
188.933012701893
 20
-8.35048094716166
 11
189.366025403785
 21
-9.0
  0
LINE
  5
A8
100
AcDbEntity
  8
2
  6
CONTINUOUS
 62
     0
100
AcDbLine
 10
189.366025403785
 20
-9.0
 11
188.933012701893
 21
-9.64951905283829
  0
LINE
  5
A9
100
AcDbEntity
  8
2
  6
CONTINUOUS
 62
     0
100
AcDbLine
 10
188.066987298109
 20
-9.64951905283829
 11
187.633974596217
 21
-9.0
  0
LINE
  5
AA
100
AcDbEntity
  8
2
  6
CONTINUOUS
 62
     0
100
AcDbLine
 10
187.633974596217
 20
-9.0
 11
188.066987298109
 21
-8.35048094716166
  0
LINE
  5
AB
100
AcDbEntity
  8
2
  6
CONTINUOUS
 62
     0
100
AcDbLine
 10
188.066987298109
 20
-9.29951905283832
 11
187.750641262883
 21
-8.82499999999999
  0
LINE
  5
AC
100
AcDbEntity
  8
2
  6
CONTINUOUS
 62
     0
100
AcDbLine
 10
188.066987298109
 20
-9.29951905283832
 11
188.933012701893
 21
-9.29951905283832
  0
LINE
  5
AD
100
AcDbEntity
  8
2
  6
CONTINUOUS
 62
     0
100
AcDbLine
 10
189.249358737119
 20
-8.82499999999999
 11
188.933012701893
 21
-9.29951905283832
  0
ELLIPSE
  5
AE
100
AcDbEntity
  8
2
  6
CONTINUOUS
 62
     0
100
AcDbEllipse
 10
188.500000000001
 20
-9.0
 30
0.0
 11
2.5
 21
0.0
 31
0.0
210
0.0
220
0.0
230
1.0
 40
0.866025403784442
 41
0.0
 42
6.28318530717959
  0
LINE
  5
AF
100
AcDbEntity
  8
6
  6
CENTER
 62
     0
100
AcDbLine
 10
-40.0
 20
0.0
 11
256.000000000001
 21
0.0
  0
ELLIPSE
  5
B0
100
AcDbEntity
  8
2
  6
CONTINUOUS
 62
     0
100
AcDbEllipse
 10
188.500000000001
 20
9.0
 30
0.0
 11
2.5
 21
0.0
 31
0.0
210
0.0
220
0.0
230
1.0
 40
0.86602540378442
 41
0.0
 42
6.28318530717959
  0
LINE
  5
B1
100
AcDbEntity
  8
2
  6
CONTINUOUS
 62
     0
100
AcDbLine
 10
188.066987298109
 20
9.64951905283829
 11
188.933012701893
 21
9.64951905283829
  0
LINE
  5
B2
100
AcDbEntity
  8
2
  6
CONTINUOUS
 62
     0
100
AcDbLine
 10
188.933012701893
 20
8.35048094716166
 11
189.366025403785
 21
9.0
  0
LINE
  5
B3
100
AcDbEntity
  8
2
  6
CONTINUOUS
 62
     0
100
AcDbLine
 10
189.366025403785
 20
9.0
 11
188.933012701893
 21
9.64951905283829
  0
LINE
  5
B4
100
AcDbEntity
  8
2
  6
CONTINUOUS
 62
     0
100
AcDbLine
 10
188.066987298109
 20
9.64951905283829
 11
187.633974596217
 21
9.0
  0
LINE
  5
B5
100
AcDbEntity
  8
2
  6
CONTINUOUS
 62
     0
100
AcDbLine
 10
187.633974596217
 20
9.0
 11
188.066987298109
 21
8.35048094716166
  0
LINE
  5
B6
100
AcDbEntity
  8
2
  6
CONTINUOUS
 62
     0
100
AcDbLine
 10
188.066987298109
 20
8.35048094716166
 11
188.933012701893
 21
8.35048094716166
  0
LINE
  5
B7
100
AcDbEntity
  8
2
  6
CONTINUOUS
 62
     0
100
AcDbLine
 10
188.066987298109
 20
9.29951905283832
 11
188.933012701893
 21
9.29951905283832
  0
LINE
  5
B8
100
AcDbEntity
  8
2
  6
CONTINUOUS
 62
     0
100
AcDbLine
 10
189.249358737119
 20
8.82499999999999
 11
188.933012701893
 21
9.29951905283832
  0
LINE
  5
B9
100
AcDbEntity
  8
2
  6
CONTINUOUS
 62
     0
100
AcDbLine
 10
188.066987298109
 20
9.29951905283832
 11
187.750641262883
 21
8.82499999999999
  0
ELLIPSE
  5
BA
100
AcDbEntity
  8
2
  6
CONTINUOUS
 62
     0
100
AcDbEllipse
 10
188.500000000001
 20
8.75
 30
0.0
 11
3.0
 21
0.0
 31
0.0
210
0.0
220
0.0
230
1.0
 40
0.866025403784439
 41
6.05955795531333
 42
3.36522000545858
  0
ELLIPSE
  5
BB
100
AcDbEntity
  8
2
  6
CONTINUOUS
 62
     0
100
AcDbEllipse
 10
188.500000000001
 20
8.35000000000002
 30
0.0
 11
3.0
 21
0.0
 31
0.0
210
0.0
220
0.0
230
1.0
 40
0.866025403784439
 41
6.26730913083573
 42
6.28318530717959
  0
ELLIPSE
  5
BC
100
AcDbEntity
  8
2
  6
CONTINUOUS
 62
     0
100
AcDbEllipse
 10
188.500000000001
 20
8.35000000000002
 30
0.0
 11
3.0
 21
0.0
 31
0.0
210
0.0
220
0.0
230
1.0
 40
0.866025403784439
 41
3.14159265358979
 42
3.15746882993518
  0
LINE
  5
BD
100
AcDbEntity
  8
2
  6
CONTINUOUS
 62
     0
100
AcDbLine
 10
185.500000000001
 20
8.34999999999991
 11
185.500000000001
 21
8.75
  0
LINE
  5
BE
100
AcDbEntity
  8
2
  6
CONTINUOUS
 62
     0
100
AcDbLine
 10
191.500000000001
 20
8.35000000000002
 11
191.500000000001
 21
8.75
  0
LINE
  5
BF
100
AcDbEntity
  8
7
  6
CENTER2
 62
    40
100
AcDbLine
 10
353.400001162801
 20
17.992581022883
 11
216.788231812125
 21
17.992581022883
  0
LINE
  5
C0
100
AcDbEntity
  8
0
  6
CONTINUOUS
 62
     0
100
AcDbLine
 10
259.744514667261
 20
33.730738767203
 11
259.744514667261
 21
2.26926123309312
  0
LINE
  5
C1
100
AcDbEntity
  8
0
  6
CONTINUOUS
 62
     0
100
AcDbLine
 10
320.730720534141
 20
28.5964217870429
 11
318.873821896861
 21
29.881788773103
  0
LINE
  5
C2
100
AcDbEntity
  8
0
  6
CONTINUOUS
 62
     0
100
AcDbLine
 10
323.400000000001
 20
28.5964217870429
 11
320.730720534141
 21
28.5964217870429
  0
LINE
  5
C3
100
AcDbEntity
  8
0
  6
CONTINUOUS
 62
     0
100
AcDbLine
 10
320.730720534141
 20
6.44782103845313
 11
317.140199925421
 21
4.62161750003304
  0
LINE
  5
C4
100
AcDbEntity
  8
0
  6
CONTINUOUS
 62
     0
100
AcDbLine
 10
323.400000000001
 20
6.44782103845313
 11
323.400000000001
 21
28.5964217870429
  0
LINE
  5
C5
100
AcDbEntity
  8
0
  6
CONTINUOUS
 62
     0
100
AcDbLine
 10
323.400000000001
 20
6.44782103845313
 11
320.730720534141
 21
6.44782103845313
  0
LINE
  5
C6
100
AcDbEntity
  8
0
  6
CONTINUOUS
 62
     0
100
AcDbLine
 10
311.651018816031
 20
5.64966161982295
 11
311.651018816031
 21
4.23560357897298
  0
ELLIPSE
  5
C7
100
AcDbEntity
  8
0
  6
CONTINUOUS
 62
     0
100
AcDbEllipse
 10
308.409364362496
 20
6.30026304215306
 30
0.0
 11
-0.395478135704991
 21
0.0
 31
0.0
210
0.0
220
0.0
230
1.0
 40
0.994412670801171
 41
3.40949156654329
 42
4.71238898038469
  0
ELLIPSE
  5
C8
100
AcDbEntity
  8
0
  6
CONTINUOUS
 62
     0
100
AcDbEllipse
 10
311.651018816031
 20
7.18511709779318
 30
0.0
 11
-2.96608601778001
 21
0.0
 31
0.0
210
0.0
220
0.0
230
1.0
 40
0.99441267081923
 41
0.267898912398728
 42
1.5707963267949
  0
ELLIPSE
  5
C9
100
AcDbEntity
  8
0
  6
CONTINUOUS
 62
     0
100
AcDbEllipse
 10
271.114511068741
 20
18.000000000043
 30
0.0
 11
0.0
 21
6.1986583889801
 31
0.0
210
0.0
220
0.0
230
1.0
 40
0.733400073764668
 41
3.14159265358979
 42
6.28318530717959
  0
ELLIPSE
  5
CA
100
AcDbEntity
  8
0
  6
CONTINUOUS
 62
     0
100
AcDbEllipse
 10
313.628409494091
 20
27.8317117295629
 30
0.0
 11
-2.71891218296003
 21
0.0
 31
0.0
210
0.0
220
0.0
230
1.0
 40
0.994412670819185
 41
1.23152775008237E-016
 42
6.28318530717959
  0
ELLIPSE
  5
CB
100
AcDbEntity
  8
0
  6
CONTINUOUS
 62
     0
100
AcDbEllipse
 10
314.518235299421
 20
26.9468576739128
 30
0.0
 11
-0.494347669629974
 21
0.0
 31
0.0
210
0.0
220
0.0
230
1.0
 40
0.994412670819038
 41
4.71238898038469
 42
6.28318530717959
  0
LINE
  5
CC
100
AcDbEntity
  8
0
  6
CONTINUOUS
 62
     0
100
AcDbLine
 10
314.023887629791
 20
26.9468576739128
 11
314.023887629791
 21
26.2072463510529
  0
LINE
  5
CD
100
AcDbEntity
  8
0
  6
CONTINUOUS
 62
     0
100
AcDbLine
 10
315.262002293311
 20
27.4384432609231
 11
314.518235299421
 21
27.4384432609231
  0
ELLIPSE
  5
CE
100
AcDbEntity
  8
0
  6
CONTINUOUS
 62
     0
100
AcDbEllipse
 10
313.628409494091
 20
27.8317117295529
 30
0.0
 11
-1.68078207674
 21
0.0
 31
0.0
210
0.0
220
0.0
230
1.0
 40
0.994412670815524
 41
1.23152775008691E-016
 42
3.3791138248857
  0
LINE
  5
CF
100
AcDbEntity
  8
0
  6
CONTINUOUS
 62
     0
100
AcDbLine
 10
314.518235299421
 20
28.2249801987331
 11
315.262002293311
 21
28.2249801987331
  0
LINE
  5
D0
100
AcDbEntity
  8
0
  6
CONTINUOUS
 62
     0
100
AcDbLine
 10
243.826519705181
 20
33.730738767203
 11
259.744514667261
 21
33.730738767203
  0
LINE
  5
D1
100
AcDbEntity
  8
0
  6
CONTINUOUS
 62
     0
100
AcDbLine
 10
243.826519705181
 20
33.534104532613
 11
259.744514667261
 21
33.534104532613
  0
LINE
  5
D2
100
AcDbEntity
  8
0
  6
CONTINUOUS
 62
     0
100
AcDbLine
 10
243.826519705181
 20
33.2391531807331
 11
259.744514667261
 21
33.2391531807331
  0
LINE
  5
D3
100
AcDbEntity
  8
0
  6
CONTINUOUS
 62
     0
100
AcDbLine
 10
243.826519705181
 20
31.9610306559131
 11
259.744514667261
 21
31.9610306559131
  0
LINE
  5
D4
100
AcDbEntity
  8
0
  6
CONTINUOUS
 62
     0
100
AcDbLine
 10
243.826519705181
 20
32.7475675942629
 11
259.744514667261
 21
32.7475675942629
  0
LINE
  5
D5
100
AcDbEntity
  8
0
  6
CONTINUOUS
 62
     0
100
AcDbLine
 10
243.826519705181
 20
30.977859482973
 11
259.744514667261
 21
30.977859482973
  0
LINE
  5
D6
100
AcDbEntity
  8
0
  6
CONTINUOUS
 62
     0
100
AcDbLine
 10
243.826519705181
 20
29.798054074983
 11
259.744514667261
 21
29.798054074983
  0
SPLINE
  5
D7
100
AcDbEntity
  8
0
  6
CONTINUOUS
 62
     0
100
AcDbSpline
210
0.0
220
0.0
230
1.0
 70
     8
 71
     3
 72
     8
 73
     4
 74
     0
 42
1.00000000000000E-007
 43
1.00000000000000E-007
 40
0.0
 40
0.0
 40
0.0
 40
0.0
 40
1.39432566254238
 40
1.39432566254238
 40
1.39432566254238
 40
1.39432566254238
 10
260.733210006521
 20
32.7475675820323
 30
0.0
 10
260.733210006521
 20
33.290558039553
 30
0.0
 10
260.290556025361
 20
33.730738767203
 30
0.0
 10
259.744514667261
 20
33.730738767203
 30
0.0
  0
LINE
  5
D8
100
AcDbEntity
  8
0
  6
CONTINUOUS
 62
     0
100
AcDbLine
 10
243.826519705181
 20
28.6182486679131
 11
259.744514667261
 21
28.6182486679131
  0
LINE
  5
D9
100
AcDbEntity
  8
0
  6
CONTINUOUS
 62
     0
100
AcDbLine
 10
237.696608601781
 20
33.2391531807331
 11
243.332172035561
 21
33.2391531807331
  0
LINE
  5
DA
100
AcDbEntity
  8
0
  6
CONTINUOUS
 62
     0
100
AcDbLine
 10
260.733210006521
 20
28.814882902503
 11
263.204948354671
 21
28.814882902503
  0
LINE
  5
DB
100
AcDbEntity
  8
0
  6
CONTINUOUS
 62
     0
100
AcDbLine
 10
237.696608601781
 20
2.76084681956303
 11
237.400000000001
 21
3.05579817115307
  0
LINE
  5
DC
100
AcDbEntity
  8
0
  6
CONTINUOUS
 62
     0
100
AcDbLine
 10
243.826519705181
 20
2.26926123309312
 11
259.744514667261
 21
2.26926123309312
  0
LINE
  5
DD
100
AcDbEntity
  8
0
  6
CONTINUOUS
 62
     0
100
AcDbLine
 10
237.696608601781
 20
2.76084681956303
 11
243.332172035561
 21
2.76084681956303
  0
ELLIPSE
  5
DE
100
AcDbEntity
  8
0
  6
CONTINUOUS
 62
     0
100
AcDbEllipse
 10
259.744514667261
 20
3.25243240603294
 30
0.0
 11
-0.988695339260005
 21
0.0
 31
0.0
210
0.0
220
0.0
230
1.0
 40
0.99441267081898
 41
1.5707963267949
 42
3.14159265358979
  0
LINE
  5
DF
100
AcDbEntity
  8
0
  6
CONTINUOUS
 62
     0
100
AcDbLine
 10
243.332172035561
 20
2.76084681956303
 11
243.826519705181
 21
2.26926123309312
  0
LINE
  5
E0
100
AcDbEntity
  8
0
  6
CONTINUOUS
 62
     0
100
AcDbLine
 10
237.400000000001
 20
3.05579817115307
 11
237.400000000001
 21
32.9442018288529
  0
LINE
  5
E1
100
AcDbEntity
  8
0
  6
CONTINUOUS
 62
     0
100
AcDbLine
 10
237.696608601781
 20
33.2391531807331
 11
237.400000000001
 21
32.9442018288529
  0
ELLIPSE
  5
E2
100
AcDbEntity
  8
0
  6
CONTINUOUS
 62
     0
100
AcDbEllipse
 10
314.518235299421
 20
28.716565785203
 30
0.0
 11
-0.494347669629974
 21
0.0
 31
0.0
210
0.0
220
0.0
230
1.0
 40
0.99441267081898
 41
1.23152775008263E-016
 42
1.5707963267949
  0
LINE
  5
E3
100
AcDbEntity
  8
0
  6
CONTINUOUS
 62
     0
100
AcDbLine
 10
314.023887629791
 20
29.4561771080629
 11
314.023887629791
 21
28.716565785203
  0
ELLIPSE
  5
E4
100
AcDbEntity
  8
0
  6
CONTINUOUS
 62
     0
100
AcDbEllipse
 10
313.628409494091
 20
27.8317117295629
 30
0.0
 11
-1.68078207674
 21
0.0
 31
0.0
210
0.0
220
0.0
230
1.0
 40
0.994412670821476
 41
4.47486781018572
 42
4.94991015181351
  0
LINE
  5
E5
100
AcDbEntity
  8
0
  6
CONTINUOUS
 62
     0
100
AcDbLine
 10
313.232931358391
 20
28.716565785203
 11
313.232931358391
 21
29.4561771080629
  0
ELLIPSE
  5
E6
100
AcDbEntity
  8
0
  6
CONTINUOUS
 62
     0
100
AcDbEllipse
 10
312.738583688761
 20
28.716565785203
 30
0.0
 11
-0.494347669629974
 21
0.0
 31
0.0
210
0.0
220
0.0
230
1.0
 40
0.99441267081898
 41
1.5707963267949
 42
3.14159265358979
  0
ELLIPSE
  5
E7
100
AcDbEntity
  8
0
  6
CONTINUOUS
 62
     0
100
AcDbEllipse
 10
313.628409494091
 20
27.8317117295629
 30
0.0
 11
-1.68078207674
 21
0.0
 31
0.0
210
0.0
220
0.0
230
1.0
 40
0.994412670821476
 41
6.04566413712828
 42
0.237521171393059
  0
LINE
  5
E8
100
AcDbEntity
  8
0
  6
CONTINUOUS
 62
     0
100
AcDbLine
 10
311.994816694871
 20
28.2249801987331
 11
312.738583688761
 21
28.2249801987331
  0
LINE
  5
E9
100
AcDbEntity
  8
0
  6
CONTINUOUS
 62
     0
100
AcDbLine
 10
312.738583688761
 20
27.4384432609231
 11
311.994816694871
 21
27.4384432609231
  0
ELLIPSE
  5
EA
100
AcDbEntity
  8
0
  6
CONTINUOUS
 62
     0
100
AcDbEllipse
 10
312.738583688761
 20
26.9468576739128
 30
0.0
 11
-0.494347669629974
 21
0.0
 31
0.0
210
0.0
220
0.0
230
1.0
 40
0.994412670819038
 41
1.23152775008255E-016
 42
4.71238898038469
  0
LINE
  5
EB
100
AcDbEntity
  8
0
  6
CONTINUOUS
 62
     0
100
AcDbLine
 10
313.232931358391
 20
26.2072463510529
 11
313.232931358391
 21
26.9468576739128
  0
ELLIPSE
  5
EC
100
AcDbEntity
  8
0
  6
CONTINUOUS
 62
     0
100
AcDbEllipse
 10
313.628409494091
 20
27.8317117295629
 30
0.0
 11
-3.21325985259
 21
0.0
 31
0.0
210
0.0
220
0.0
230
1.0
 40
0.994412670819162
 41
5.04042805740385
 42
4.38434990458851
  0
ELLIPSE
  5
ED
100
AcDbEntity
  8
0
  6
CONTINUOUS
 62
     0
100
AcDbEllipse
 10
313.628409494091
 20
8.16828827073294
 30
0.0
 11
-3.21325985259
 21
0.0
 31
0.0
210
0.0
220
0.0
230
1.0
 40
0.994412670819153
 41
1.89883540340642
 42
1.24275725059104
  0
LINE
  5
EE
100
AcDbEntity
  8
0
  6
CONTINUOUS
 62
     0
100
AcDbLine
 10
312.593138010811
 20
30.8566313613029
 11
314.663680977371
 21
30.8566313613029
  0
LINE
  5
EF
100
AcDbEntity
  8
0
  6
CONTINUOUS
 62
     0
100
AcDbLine
 10
278.363070785731
 20
29.3064684889729
 11
278.363070785731
 21
6.69353151132293
  0
LINE
  5
F0
100
AcDbEntity
  8
0
  6
CONTINUOUS
 62
     0
100
AcDbLine
 10
312.593138010811
 20
5.14336863899297
 11
314.663680977371
 21
5.14336863899297
  0
LINE
  5
F1
100
AcDbEntity
  8
0
  6
CONTINUOUS
 62
     0
100
AcDbLine
 10
271.114511068741
 20
11.8013416111729
 11
263.204948354671
 21
11.8013416111729
  0
LINE
  5
F2
100
AcDbEntity
  8
0
  6
CONTINUOUS
 62
     0
100
AcDbLine
 10
263.204948354671
 20
24.1986583891229
 11
271.114511068741
 21
24.1986583891229
  0
LINE
  5
F3
100
AcDbEntity
  8
0
  6
CONTINUOUS
 62
     0
100
AcDbLine
 10
263.204948354671
 20
24.1986583891229
 11
274.113390187831
 21
13.3413118271229
  0
LINE
  5
F4
100
AcDbEntity
  8
0
  6
CONTINUOUS
 62
     0
100
AcDbLine
 10
274.113390187831
 20
22.6586881731729
 11
263.204948354671
 21
11.8013416111729
  0
LINE
  5
F5
100
AcDbEntity
  8
0
  6
CONTINUOUS
 62
     0
100
AcDbLine
 10
315.605800172611
 20
4.23560357897298
 11
315.605800172611
 21
5.64966161983295
  0
ELLIPSE
  5
F6
100
AcDbEntity
  8
0
  6
CONTINUOUS
 62
     0
100
AcDbEllipse
 10
313.628409494091
 20
27.8317117295529
 30
0.0
 11
-1.68078207674
 21
0.0
 31
0.0
210
0.0
220
0.0
230
1.0
 40
0.994412670815524
 41
1.33327515618729
 42
1.80831749781245
  0
LINE
  5
F7
100
AcDbEntity
  8
0
  6
CONTINUOUS
 62
     0
100
AcDbLine
 10
314.023887629791
 20
9.05314232638307
 11
314.023887629791
 21
9.79275364924314
  0
ELLIPSE
  5
F8
100
AcDbEntity
  8
0
  6
CONTINUOUS
 62
     0
100
AcDbEllipse
 10
313.628409494091
 20
8.16828827073294
 30
0.0
 11
-2.71891218296003
 21
0.0
 31
0.0
210
0.0
220
0.0
230
1.0
 40
0.994412670819111
 41
1.23152775008246E-016
 42
6.28318530717959
  0
LINE
  5
F9
100
AcDbEntity
  8
0
  6
CONTINUOUS
 62
     0
100
AcDbLine
 10
260.733210006521
 20
32.7475675942629
 11
260.733210006521
 21
3.25243240603294
  0
ELLIPSE
  5
FA
100
AcDbEntity
  8
0
  6
CONTINUOUS
 62
     0
100
AcDbEllipse
 10
314.518235299421
 20
9.05314232638307
 30
0.0
 11
-0.494347669629974
 21
0.0
 31
0.0
210
0.0
220
0.0
230
1.0
 40
0.994412670819038
 41
1.23152775008255E-016
 42
1.5707963267949
  0
LINE
  5
FB
100
AcDbEntity
  8
0
  6
CONTINUOUS
 62
     0
100
AcDbLine
 10
315.262002293311
 20
8.56155673991304
 11
314.518235299421
 21
8.56155673991304
  0
LINE
  5
FC
100
AcDbEntity
  8
0
  6
CONTINUOUS
 62
     0
100
AcDbLine
 10
243.332172035561
 20
33.2391531807331
 11
243.826519705181
 21
33.730738767203
  0
LINE
  5
FD
100
AcDbEntity
  8
0
  6
CONTINUOUS
 62
     0
100
AcDbLine
 10
314.518235299421
 20
7.77501980156308
 11
315.262002293311
 21
7.77501980156308
  0
ELLIPSE
  5
FE
100
AcDbEntity
  8
0
  6
CONTINUOUS
 62
     0
100
AcDbEllipse
 10
313.628409494091
 20
8.16828827073294
 30
0.0
 11
-1.68078207674
 21
0.0
 31
0.0
210
0.0
220
0.0
230
1.0
 40
0.994412670821459
 41
1.23152775007956E-016
 42
3.37911382488429
  0
ELLIPSE
  5
FF
100
AcDbEntity
  8
0
  6
CONTINUOUS
 62
     0
100
AcDbEllipse
 10
314.518235299421
 20
7.28343421509305
 30
0.0
 11
-0.494347669629974
 21
0.0
 31
0.0
210
0.0
220
0.0
230
1.0
 40
0.994412670819268
 41
4.71238898038469
 42
6.28318530717959
  0
ELLIPSE
  5
100
100
AcDbEntity
  8
0
  6
CONTINUOUS
 62
     0
100
AcDbEllipse
 10
240.168346950566
 20
18.0000000000429
 30
0.0
 11
-1.28530394103501
 21
0.0
 31
0.0
210
0.0
220
0.0
230
1.0
 40
0.994412670819918
 41
1.23152775008146E-016
 42
6.28318530717959
  0
LINE
  5
101
100
AcDbEntity
  8
0
  6
CONTINUOUS
 62
     0
100
AcDbLine
 10
243.826519705181
 20
33.730738767203
 11
243.826519705181
 21
2.26926123309312
  0
LINE
  5
102
100
AcDbEntity
  8
0
  6
CONTINUOUS
 62
     0
100
AcDbLine
 10
243.332172035561
 20
33.2391531807331
 11
243.332172035561
 21
2.76084681956303
  0
LINE
  5
103
100
AcDbEntity
  8
0
  6
CONTINUOUS
 62
     0
100
AcDbLine
 10
314.023887629791
 20
6.54382289223292
 11
314.023887629791
 21
7.28343421509305
  0
ELLIPSE
  5
104
100
AcDbEntity
  8
0
  6
CONTINUOUS
 62
     0
100
AcDbEllipse
 10
313.628409494091
 20
8.16828827073294
 30
0.0
 11
-1.68078207674
 21
0.0
 31
0.0
210
0.0
220
0.0
230
1.0
 40
0.994412670821459
 41
1.33327515618592
 42
1.80831749781382
  0
LINE
  5
105
100
AcDbEntity
  8
0
  6
CONTINUOUS
 62
     0
100
AcDbLine
 10
318.571886190391
 20
28.814882902503
 11
318.571886190391
 21
7.18511709779318
  0
LINE
  5
106
100
AcDbEntity
  8
0
  6
CONTINUOUS
 62
     0
100
AcDbLine
 10
308.684932797791
 20
29.4176583582329
 11
308.684932797791
 21
6.58234164178305
  0
LINE
  5
107
100
AcDbEntity
  8
0
  6
CONTINUOUS
 62
     0
100
AcDbLine
 10
263.204948354671
 20
5.21877475191303
 11
263.204948354671
 21
30.7812252483831
  0
LINE
  5
108
100
AcDbEntity
  8
0
  6
CONTINUOUS
 62
     0
100
AcDbLine
 10
264.193643694561
 20
31.7643964213229
 11
263.204948354671
 21
30.7812252483831
  0
LINE
  5
109
100
AcDbEntity
  8
0
  6
CONTINUOUS
 62
     0
100
AcDbLine
 10
315.605800172611
 20
10.686914922083
 11
315.605800172611
 21
25.313085078653
  0
ELLIPSE
  5
10A
100
AcDbEntity
  8
0
  6
CONTINUOUS
 62
     0
100
AcDbEllipse
 10
311.651018816031
 20
28.814882902503
 30
0.0
 11
-2.96608601778001
 21
0.0
 31
0.0
210
0.0
220
0.0
230
1.0
 40
0.994412670819124
 41
4.71238898038469
 42
6.01528639560398
  0
LINE
  5
10B
100
AcDbEntity
  8
0
  6
CONTINUOUS
 62
     0
100
AcDbLine
 10
315.605800172611
 20
30.3503383804629
 11
315.605800172611
 21
31.7643964213229
  0
ELLIPSE
  5
10C
100
AcDbEntity
  8
0
  6
CONTINUOUS
 62
     0
100
AcDbEllipse
 10
271.114511068741
 20
19.966342346033
 30
0.0
 11
-11.86434407111
 21
0.0
 31
0.0
210
0.0
220
0.0
230
1.0
 40
0.994412670820839
 41
4.05512482766773
 42
4.71238898038469
  0
LINE
  5
10D
100
AcDbEntity
  8
0
  6
CONTINUOUS
 62
     0
100
AcDbLine
 10
271.114511068741
 20
31.7643964213229
 11
271.114511068741
 21
24.1986583891229
  0
ELLIPSE
  5
10E
100
AcDbEntity
  8
0
  6
CONTINUOUS
 62
     0
100
AcDbEllipse
 10
271.114511068741
 20
16.033657654263
 30
0.0
 11
-11.86434407111
 21
0.0
 31
0.0
210
0.0
220
0.0
230
1.0
 40
0.994412670820854
 41
1.5707963267949
 42
2.22806048033104
  0
LINE
  5
10F
100
AcDbEntity
  8
0
  6
CONTINUOUS
 62
     0
100
AcDbLine
 10
271.114511068741
 20
11.8013416111729
 11
271.114511068741
 21
4.23560357897298
  0
ELLIPSE
  5
110
100
AcDbEntity
  8
0
  6
CONTINUOUS
 62
     0
100
AcDbEllipse
 10
308.409364362496
 20
29.699736958143
 30
0.0
 11
-0.395478135704991
 21
0.0
 31
0.0
210
0.0
220
0.0
230
1.0
 40
0.994412670801818
 41
1.5707963267949
 42
2.87369374145659
  0
LINE
  5
111
100
AcDbEntity
  8
0
  6
CONTINUOUS
 62
     0
100
AcDbLine
 10
311.651018816031
 20
31.7643964213229
 11
311.651018816031
 21
30.3503383804729
  0
LINE
  5
112
100
AcDbEntity
  8
0
  6
CONTINUOUS
 62
     0
100
AcDbLine
 10
311.651018816031
 20
25.313085078643
 11
311.651018816031
 21
10.686914922083
  0
LINE
  5
113
100
AcDbEntity
  8
0
  6
CONTINUOUS
 62
     0
100
AcDbLine
 10
264.193643694561
 20
31.7643964213229
 11
271.114511068741
 21
31.7643964213229
  0
LINE
  5
114
100
AcDbEntity
  8
0
  6
CONTINUOUS
 62
     0
100
AcDbLine
 10
278.363070785731
 20
29.3064684889729
 11
308.409364362491
 21
29.3064684889729
  0
LINE
  5
115
100
AcDbEntity
  8
0
  6
CONTINUOUS
 62
     0
100
AcDbLine
 10
311.651018816031
 20
31.7643964213229
 11
315.605800172611
 21
31.7643964213229
  0
ELLIPSE
  5
116
100
AcDbEntity
  8
0
  6
CONTINUOUS
 62
     0
100
AcDbEllipse
 10
315.605800172611
 20
7.18511709779318
 30
0.0
 11
-2.96608601777996
 21
0.0
 31
0.0
210
0.0
220
0.0
230
1.0
 40
0.994412670819249
 41
1.5707963267949
 42
3.14159265358979
  0
LINE
  5
117
100
AcDbEntity
  8
0
  6
CONTINUOUS
 62
     0
100
AcDbLine
 10
264.193643694561
 20
4.23560357897298
 11
263.204948354671
 21
5.21877475191303
  0
LINE
  5
118
100
AcDbEntity
  8
0
  6
CONTINUOUS
 62
     0
100
AcDbLine
 10
311.651018816031
 20
4.23560357897298
 11
315.605800172611
 21
4.23560357897298
  0
LINE
  5
119
100
AcDbEntity
  8
0
  6
CONTINUOUS
 62
     0
100
AcDbLine
 10
264.193643694561
 20
4.23560357897298
 11
271.114511068741
 21
4.23560357897298
  0
LINE
  5
11A
100
AcDbEntity
  8
0
  6
CONTINUOUS
 62
     0
100
AcDbLine
 10
278.363070785731
 20
6.69353151132293
 11
308.409364362491
 21
6.69353151132293
  0
LINE
  5
11B
100
AcDbEntity
  8
0
  6
CONTINUOUS
 62
     0
100
AcDbLine
 10
313.232931358391
 20
7.28343421509305
 11
313.232931358391
 21
6.54382289223292
  0
LINE
  5
11C
100
AcDbEntity
  8
0
  6
CONTINUOUS
 62
     0
100
AcDbLine
 10
264.193643694561
 20
31.7643964213229
 11
264.193643694561
 21
24.1986583891229
  0
LINE
  5
11D
100
AcDbEntity
  8
0
  6
CONTINUOUS
 62
     0
100
AcDbLine
 10
311.994816694871
 20
7.77501980156308
 11
312.738583688761
 21
7.77501980156308
  0
LINE
  5
11E
100
AcDbEntity
  8
0
  6
CONTINUOUS
 62
     0
100
AcDbLine
 10
264.193643694561
 20
11.8013416111729
 11
264.193643694561
 21
4.23560357897298
  0
ELLIPSE
  5
11F
100
AcDbEntity
  8
0
  6
CONTINUOUS
 62
     0
100
AcDbEllipse
 10
312.738583688761
 20
7.28343421509305
 30
0.0
 11
-0.494347669629974
 21
0.0
 31
0.0
210
0.0
220
0.0
230
1.0
 40
0.994412670819268
 41
1.23152775008227E-016
 42
4.71238898038469
  0
ELLIPSE
  5
120
100
AcDbEntity
  8
0
  6
CONTINUOUS
 62
     0
100
AcDbEllipse
 10
313.628409494091
 20
8.16828827073294
 30
0.0
 11
-1.68078207674
 21
0.0
 31
0.0
210
0.0
220
0.0
230
1.0
 40
0.994412670821459
 41
6.04566413712247
 42
0.23752117170062
  0
LINE
  5
121
100
AcDbEntity
  8
0
  6
CONTINUOUS
 62
     0
100
AcDbLine
 10
312.738583688761
 20
8.56155673991304
 11
311.994816694871
 21
8.56155673991304
  0
LINE
  5
122
100
AcDbEntity
  8
0
  6
CONTINUOUS
 62
     0
100
AcDbLine
 10
313.232931358391
 20
9.79275364924314
 11
313.232931358391
 21
9.05314232638307
  0
ELLIPSE
  5
123
100
AcDbEntity
  8
0
  6
CONTINUOUS
 62
     0
100
AcDbEllipse
 10
312.738583688761
 20
9.05314232638307
 30
0.0
 11
-0.494347669629974
 21
0.0
 31
0.0
210
0.0
220
0.0
230
1.0
 40
0.994412670819038
 41
1.5707963267949
 42
3.14159265358979
  0
ELLIPSE
  5
124
100
AcDbEntity
  8
0
  6
CONTINUOUS
 62
     0
100
AcDbEllipse
 10
313.628409494091
 20
8.16828827073294
 30
0.0
 11
-1.68078207674
 21
0.0
 31
0.0
210
0.0
220
0.0
230
1.0
 40
0.994412670815541
 41
4.47486781018848
 42
4.94991015181075
  0
LINE
  5
125
100
AcDbEntity
  8
0
  6
CONTINUOUS
 62
     0
100
AcDbLine
 10
260.733210006521
 20
7.18511709779318
 11
263.204948354671
 21
7.18511709779318
  0
LINE
  5
126
100
AcDbEntity
  8
0
  6
CONTINUOUS
 62
     0
100
AcDbLine
 10
323.805010619951
 20
23.150641912213
 11
323.400000000001
 21
23.173728809313
  0
SPLINE
  5
127
100
AcDbEntity
  8
0
  6
CONTINUOUS
 62
     0
100
AcDbSpline
210
0.0
220
0.0
230
1.0
 70
     8
 71
     3
 72
    27
 73
    23
 74
     0
 42
1.00000000000000E-007
 43
1.00000000000000E-007
 40
0.0
 40
0.0
 40
0.0
 40
0.0
 40
1.38798215816357
 40
2.78316046272119
 40
4.2037779901912
 40
5.68854752495436
 40
7.27635816236513
 40
8.85118786305867
 40
10.2685612072612
 40
11.5432525534623
 40
12.9276965472299
 40
14.4703822511305
 40
16.021278561357
 40
17.4905672224835
 40
18.9306905089276
 40
20.3763410549157
 40
21.8340029661352
 40
23.2893399993304
 40
24.723882735155
 40
26.1425404085114
 40
27.5526664756353
 40
28.9591560497459
 40
28.9591560497459
 40
28.9591560497459
 40
28.9591560497459
 10
323.805010618191
 20
23.1506419132131
 30
0.0
 10
324.093712885171
 20
23.2015101129131
 30
0.0
 10
325.248521924179
 20
23.4049829322426
 30
0.0
 10
326.508383376897
 20
23.700304241709
 30
0.0
 10
327.877790896057
 20
24.1626145282316
 30
0.0
 10
329.186068629958
 20
24.8321499210678
 30
0.0
 10
330.486372973203
 20
25.8037355623693
 30
0.0
 10
331.575119785852
 20
26.9948441241954
 30
0.0
 10
332.232156565361
 20
28.2900189850024
 30
0.0
 10
332.201661836081
 20
29.5819280945976
 30
0.0
 10
331.400774950955
 20
30.7626437261324
 30
0.0
 10
330.142996354055
 20
31.7353044864687
 30
0.0
 10
328.70006627682
 20
32.3867968839731
 30
0.0
 10
327.262050033679
 20
32.6670840425136
 30
0.0
 10
325.81794267499
 20
32.6503016844631
 30
0.0
 10
324.391782677365
 20
32.3890144449788
 30
0.0
 10
322.998899267237
 20
31.9419255436445
 30
0.0
 10
321.654420143976
 20
31.3647508246482
 30
0.0
 10
320.382971189607
 20
30.7190029222272
 30
0.0
 10
319.130614888103
 20
29.9981848133209
 30
0.0
 10
318.018008247514
 20
29.3094252751214
 30
0.0
 10
317.019387643001
 20
28.6651226347129
 30
0.0
 10
316.769732498761
 20
28.504046969443
 30
0.0
  0
SPLINE
  5
128
100
AcDbEntity
  8
0
  6
CONTINUOUS
 62
     0
100
AcDbSpline
210
0.0
220
0.0
230
1.0
 70
     8
 71
     3
 72
    35
 73
    31
 74
     0
 42
1.00000000000000E-007
 43
1.00000000000000E-007
 40
0.0
 40
0.0
 40
0.0
 40
0.0
 40
1.30659860743157
 40
2.60308815142769
 40
3.88276558863076
 40
5.14605696922572
 40
6.40473935105564
 40
7.67835783850931
 40
8.98347320892682
 40
10.3317377282634
 40
11.694043334342
 40
13.0001667075589
 40
14.239666198758
 40
15.5028968939448
 40
16.8375664068608
 40
18.1991118291535
 40
19.5199010556939
 40
20.811212289544
 40
22.103710504833
 40
23.4009336099187
 40
24.6993076369481
 40
25.99835245406
 40
27.2961491370532
 40
28.5896543217044
 40
29.875311046574
 40
31.1552320729676
 40
32.4366914567562
 40
33.7231863580173
 40
35.0148674772102
 40
36.30968433834
 40
36.30968433834
 40
36.30968433834
 40
36.30968433834
 10
323.399999999081
 20
21.331506957123
 30
0.0
 10
323.671979789231
 20
21.381273703883
 30
0.0
 10
324.759898919756
 20
21.5803407257342
 30
0.0
 10
325.937032784866
 20
21.8342430495075
 30
0.0
 10
327.196328777033
 20
22.1802352040962
 30
0.0
 10
328.371843981327
 20
22.626361391491
 30
0.0
 10
329.485504574445
 20
23.2155543230166
 30
0.0
 10
330.534112085369
 20
23.9380251956773
 30
0.0
 10
331.524820895532
 20
24.7857110027454
 30
0.0
 10
332.47389478972
 20
25.7510776096513
 30
0.0
 10
333.346215543223
 20
26.8223629583806
 30
0.0
 10
333.98527074922
 20
27.9774339733196
 30
0.0
 10
334.252889267923
 20
29.1962117431923
 30
0.0
 10
334.011137177561
 20
30.4567466033034
 30
0.0
 10
333.377755582586
 20
31.6571151205717
 30
0.0
 10
332.462375140336
 20
32.7019602286825
 30
0.0
 10
331.385461667645
 20
33.476932849129
 30
0.0
 10
330.201919661816
 20
33.9966597285866
 30
0.0
 10
328.944675749985
 20
34.3158262682996
 30
0.0
 10
327.655279137996
 20
34.4844119246596
 30
0.0
 10
326.355599611003
 20
34.5237132173661
 30
0.0
 10
325.057104203588
 20
34.4358443144063
 30
0.0
 10
323.773904371523
 20
34.2273835481783
 30
0.0
 10
322.518618255969
 20
33.9039372507425
 30
0.0
 10
321.307185178922
 20
33.4705452345097
 30
0.0
 10
320.142538859374
 20
32.9362295230471
 30
0.0
 10
319.021750812919
 20
32.3282450726941
 30
0.0
 10
317.903034880637
 20
31.6432993491298
 30
0.0
 10
316.900390981438
 20
30.9854477784512
 30
0.0
 10
315.995818827591
 20
30.368416588443
 30
0.0
 10
315.769675796791
 20
30.214158782473
 30
0.0
  0
ELLIPSE
  5
129
100
AcDbEntity
  8
0
  6
CONTINUOUS
 62
     0
100
AcDbEllipse
 10
315.605800172611
 20
28.814882902503
 30
0.0
 11
-2.96608601777996
 21
0.0
 31
0.0
210
0.0
220
0.0
230
1.0
 40
0.994412670819143
 41
4.09613525646971
 42
4.71238898038469
  0
ELLIPSE
  5
12A
100
AcDbEntity
  8
0
  6
CONTINUOUS
 62
     0
100
AcDbEllipse
 10
315.605800172611
 20
28.814882902503
 30
0.0
 11
-2.96608601777996
 21
0.0
 31
0.0
210
0.0
220
0.0
230
1.0
 40
0.994412670819143
 41
1.23152775008242E-016
 42
3.43240422553223
  0
LINE
  5
12B
100
AcDbEntity
  8
2
  6
CONTINUOUS
 62
     0
100
AcDbLine
 10
353.400001162801
 20
10.992581022883
 11
323.400000000001
 21
10.992581022883
  0
LINE
  5
12C
100
AcDbEntity
  8
2
  6
CONTINUOUS
 62
     0
100
AcDbLine
 10
353.400001162801
 20
24.992581022883
 11
331.714713206521
 21
24.992581022883
  0
LINE
  5
12D
100
AcDbEntity
  8
2
  6
CONTINUOUS
 62
     0
100
AcDbLine
 10
329.355510386001
 20
24.992581022883
 11
323.400000000001
 21
24.992581022883
  0
ENDBLK
  5
12E
100
AcDbEntity
  8
2
100
AcDbBlockEnd
  0
BLOCK
  5
131
100
AcDbEntity
  8
2
100
AcDbBlockBegin
  2
SUB2
 70
    64
 10
0.0
 20
0.0
  0
LINE
  5
132
100
AcDbEntity
  8
2
  6
CONTINUOUS
 62
     0
100
AcDbLine
 10
-36.0
 20
-4.25
 11
-36.0
 21
4.25
  0
LINE
  5
133
100
AcDbEntity
  8
2
  6
CONTINUOUS
 62
     0
100
AcDbLine
 10
-35.5
 20
4.75
 11
-24.0
 21
4.75
  0
LINE
  5
134
100
AcDbEntity
  8
2
  6
CONTINUOUS
 62
     0
100
AcDbLine
 10
-35.5
 20
4.75
 11
-36.0
 21
4.25
  0
LINE
  5
135
100
AcDbEntity
  8
2
  6
CONTINUOUS
 62
     0
100
AcDbLine
 10
-35.5
 20
-4.75
 11
-35.5
 21
-3.49964283891899
  0
LINE
  5
136
100
AcDbEntity
  8
2
  6
CONTINUOUS
 62
     0
100
AcDbLine
 10
-35.5
 20
3.49964283891899
 11
-35.5
 21
4.75
  0
LINE
  5
137
100
AcDbEntity
  8
2
  6
CONTINUOUS
 62
     0
100
AcDbLine
 10
-35.5
 20
3.49964283891899
 11
-24.0
 21
3.49964283891899
  0
ARC
  5
138
100
AcDbEntity
  8
2
  6
CONTINUOUS
 62
     0
100
AcDbCircle
 10
-31.387518997004
 20
0.0
 40
5.4
100
AcDbArc
 50
139.602850955785
 51
148.667405670432
  0
ARC
  5
139
100
AcDbEntity
  8
2
  6
CONTINUOUS
 62
     0
100
AcDbCircle
 10
-31.387518997004
 20
0.0
 40
5.4
100
AcDbArc
 50
211.332594329568
 51
220.397149044215
  0
LINE
  5
13A
100
AcDbEntity
  8
7
  6
CENTER2
 62
    40
100
AcDbLine
 10
-31.0
 20
-7.0
 11
-31.0
 21
7.0
  0
LINE
  5
13B
100
AcDbEntity
  8
2
  6
CONTINUOUS
 62
     0
100
AcDbLine
 10
-35.5
 20
-4.75
 11
-24.0
 21
-4.75
  0
LINE
  5
13C
100
AcDbEntity
  8
2
  6
CONTINUOUS
 62
     0
100
AcDbLine
 10
-36.0
 20
-4.25
 11
-35.5
 21
-4.75
  0
LINE
  5
13D
100
AcDbEntity
  8
2
  6
CONTINUOUS
 62
     0
100
AcDbLine
 10
-35.5
 20
-3.49964283891899
 11
-24.0
 21
-3.49964283891899
  0
LINE
  5
13E
100
AcDbEntity
  8
2
  6
CONTINUOUS
 62
     0
100
AcDbLine
 10
-24.0
 20
-6.0
 11
-24.0
 21
-4.75
  0
LINE
  5
13F
100
AcDbEntity
  8
2
  6
CONTINUOUS
 62
     0
100
AcDbLine
 10
-24.0
 20
-3.49964283891899
 11
-24.0
 21
3.49964283891899
  0
LINE
  5
140
100
AcDbEntity
  8
2
  6
CONTINUOUS
 62
     0
100
AcDbLine
 10
-24.0
 20
4.75
 11
-24.0
 21
6.0
  0
LINE
  5
141
100
AcDbEntity
  8
2
  6
CONTINUOUS
 62
     0
100
AcDbLine
 10
-24.0
 20
6.0
 11
-4.0
 21
6.0
  0
LINE
  5
142
100
AcDbEntity
  8
2
  6
CONTINUOUS
 62
     0
100
AcDbLine
 10
-24.0
 20
-6.0
 11
-4.0
 21
-6.0
  0
LINE
  5
143
100
AcDbEntity
  8
6
  6
CENTER
 62
     0
100
AcDbLine
 10
-37.999999999999
 20
0.0
 11
353.4000011628
 21
0.0
  0
LINE
  5
144
100
AcDbEntity
  8
2
  6
CONTINUOUS
 62
     0
100
AcDbLine
 10
-3.5
 20
17.5
 11
0.0
 21
17.5
  0
LINE
  5
145
100
AcDbEntity
  8
2
  6
CONTINUOUS
 62
     0
100
AcDbLine
 10
-3.5
 20
17.5
 11
-4.0
 21
17.0
  0
LINE
  5
146
100
AcDbEntity
  8
2
  6
CONTINUOUS
 62
     0
100
AcDbLine
 10
-4.0
 20
-17.0
 11
-4.0
 21
17.0
  0
LINE
  5
147
100
AcDbEntity
  8
2
  6
CONTINUOUS
 62
     0
100
AcDbLine
 10
-3.5
 20
-17.5
 11
0.0
 21
-17.5
  0
LINE
  5
148
100
AcDbEntity
  8
2
  6
CONTINUOUS
 62
     0
100
AcDbLine
 10
0.0
 20
-19.0
 11
0.0
 21
19.0
  0
LINE
  5
149
100
AcDbEntity
  8
2
  6
CONTINUOUS
 62
     0
100
AcDbLine
 10
74.000000000001
 20
-19.0
 11
74.000000000001
 21
19.0
  0
LINE
  5
14A
100
AcDbEntity
  8
2
  6
CONTINUOUS
 62
     0
100
AcDbLine
 10
-4.0
 20
-17.0
 11
-3.5
 21
-17.5
  0
LINE
  5
14B
100
AcDbEntity
  8
2
  6
CONTINUOUS
 62
     0
100
AcDbLine
 10
-3.5
 20
17.5
 11
-3.5
 21
-17.5
  0
LINE
  5
14C
100
AcDbEntity
  8
2
  6
CONTINUOUS
 62
     0
100
AcDbLine
 10
0.0
 20
19.0
 11
74.000000000001
 21
19.0
  0
LINE
  5
14D
100
AcDbEntity
  8
2
  6
CONTINUOUS
 62
     0
100
AcDbLine
 10
0.0
 20
-19.0
 11
74.000000000001
 21
-19.0
  0
LINE
  5
14E
100
AcDbEntity
  8
2
  6
CONTINUOUS
 62
     0
100
AcDbLine
 10
23.0
 20
-15.8
 11
74.000000000001
 21
-15.8
  0
LINE
  5
14F
100
AcDbEntity
  8
2
  6
CONTINUOUS
 62
     0
100
AcDbLine
 10
74.000000000001
 20
9.0
 11
183.000000000001
 21
9.0
  0
LINE
  5
150
100
AcDbEntity
  8
2
  6
CONTINUOUS
 62
     0
100
AcDbLine
 10
74.000000000001
 20
-9.0
 11
183.000000000001
 21
-9.0
  0
LINE
  5
151
100
AcDbEntity
  8
2
  6
CONTINUOUS
 62
     0
100
AcDbLine
 10
79.000000000001
 20
18.0
 11
183.000000000001
 21
18.0
  0
LINE
  5
152
100
AcDbEntity
  8
2
  6
CONTINUOUS
 62
     0
100
AcDbLine
 10
79.000000000001
 20
-18.0
 11
183.000000000001
 21
-18.0
  0
LINE
  5
153
100
AcDbEntity
  8
2
  6
CONTINUOUS
 62
     0
100
AcDbLine
 10
73.000000000001
 20
-11.5
 11
74.000000000001
 21
-10.5
  0
LINE
  5
154
100
AcDbEntity
  8
2
  6
CONTINUOUS
 62
     0
100
AcDbLine
 10
73.000000000001
 20
11.5
 11
74.000000000001
 21
10.5
  0
LINE
  5
155
100
AcDbEntity
  8
2
  6
CONTINUOUS
 62
     0
100
AcDbLine
 10
23.0
 20
15.8
 11
74.000000000001
 21
15.8
  0
LINE
  5
156
100
AcDbEntity
  8
2
  6
CONTINUOUS
 62
     0
100
AcDbLine
 10
25.000000000001
 20
-10.5
 11
25.000000000001
 21
10.5
  0
CIRCLE
  5
157
100
AcDbEntity
  8
2
  6
CONTINUOUS
 62
     0
100
AcDbCircle
 10
28.000000000001
 20
0.0
 40
2.41
  0
LWPOLYLINE
  5
158
100
AcDbEntity
  8
2
  6
CONTINUOUS
 62
     0
100
AcDbPolyline
 90
        6
 70
     1
 43
0.0
 10
29.443375672975
 20
0.0
 10
28.721687836488
 20
1.25
 10
27.278312163514
 20
1.25
 10
26.556624327027
 20
0.0
 10
27.278312163514
 20
-1.25
 10
28.721687836488
 20
-1.25
  0
CIRCLE
  5
159
100
AcDbEntity
  8
2
  6
CONTINUOUS
 62
     0
100
AcDbCircle
 10
28.000000000001
 20
0.0
 40
2.75
  0
ARC
  5
15A
100
AcDbEntity
  8
2
  6
CONTINUOUS
 62
     0
100
AcDbCircle
 10
28.000000000001
 20
0.0
 40
3.0
100
AcDbArc
 50
270.0
 51
90.0
  0
LINE
  5
15B
100
AcDbEntity
  8
2
  6
CONTINUOUS
 62
     0
100
AcDbLine
 10
25.000000000001
 20
3.0
 11
28.000000000001
 21
3.0
  0
LINE
  5
15C
100
AcDbEntity
  8
2
  6
CONTINUOUS
 62
     0
100
AcDbLine
 10
25.000000000001
 20
-3.0
 11
28.000000000001
 21
-3.0
  0
LINE
  5
15D
100
AcDbEntity
  8
2
  6
CONTINUOUS
 62
     0
100
AcDbLine
 10
26.000000000001
 20
-10.5
 11
26.000000000001
 21
-3.0
  0
LINE
  5
15E
100
AcDbEntity
  8
2
  6
CONTINUOUS
 62
     0
100
AcDbLine
 10
26.000000000001
 20
3.0
 11
26.000000000001
 21
10.5
  0
LINE
  5
15F
100
AcDbEntity
  8
2
  6
CONTINUOUS
 62
     0
100
AcDbLine
 10
26.000000000001
 20
10.5
 11
74.000000000001
 21
10.5
  0
LINE
  5
160
100
AcDbEntity
  8
2
  6
CONTINUOUS
 62
     0
100
AcDbLine
 10
26.000000000001
 20
-10.5
 11
74.000000000001
 21
-10.5
  0
LINE
  5
161
100
AcDbEntity
  8
2
  6
CONTINUOUS
 62
     0
100
AcDbLine
 10
26.000000000001
 20
-11.5
 11
73.000000000001
 21
-11.5
  0
LINE
  5
162
100
AcDbEntity
  8
2
  6
CONTINUOUS
 62
     0
100
AcDbLine
 10
26.000000000001
 20
11.5
 11
73.000000000001
 21
11.5
  0
CIRCLE
  5
163
100
AcDbEntity
  8
2
  6
CONTINUOUS
 62
     0
100
AcDbCircle
 10
70.000000000001
 20
-7.0
 40
3.0
  0
CIRCLE
  5
164
100
AcDbEntity
  8
2
  6
CONTINUOUS
 62
     0
100
AcDbCircle
 10
70.000000000001
 20
-7.0
 40
2.75
  0
CIRCLE
  5
165
100
AcDbEntity
  8
2
  6
CONTINUOUS
 62
     0
100
AcDbCircle
 10
70.000000000001
 20
-7.0
 40
2.41
  0
LWPOLYLINE
  5
166
100
AcDbEntity
  8
2
  6
CONTINUOUS
 62
     0
100
AcDbPolyline
 90
        6
 70
     1
 43
0.0
 10
71.443375672975
 20
-7.0
 10
70.721687836488
 20
-5.75
 10
69.278312163514
 20
-5.75
 10
68.556624327027
 20
-7.0
 10
69.278312163514
 20
-8.25
 10
70.721687836488
 20
-8.25
  0
CIRCLE
  5
167
100
AcDbEntity
  8
2
  6
CONTINUOUS
 62
     0
100
AcDbCircle
 10
70.000000000001
 20
7.0
 40
3.0
  0
CIRCLE
  5
168
100
AcDbEntity
  8
2
  6
CONTINUOUS
 62
     0
100
AcDbCircle
 10
70.000000000001
 20
7.0
 40
2.75
  0
CIRCLE
  5
169
100
AcDbEntity
  8
2
  6
CONTINUOUS
 62
     0
100
AcDbCircle
 10
70.000000000001
 20
7.0
 40
2.41
  0
LWPOLYLINE
  5
16A
100
AcDbEntity
  8
2
  6
CONTINUOUS
 62
     0
100
AcDbPolyline
 90
        6
 70
     1
 43
0.0
 10
71.443375672975
 20
7.0
 10
70.721687836488
 20
5.75
 10
69.278312163514
 20
5.75
 10
68.556624327027
 20
7.0
 10
69.278312163514
 20
8.25
 10
70.721687836488
 20
8.25
  0
LINE
  5
16B
100
AcDbEntity
  8
2
  6
CONTINUOUS
 62
     0
100
AcDbLine
 10
61.000000000001
 20
-19.0
 11
61.000000000001
 21
-11.5
  0
LINE
  5
16C
100
AcDbEntity
  8
2
  6
CONTINUOUS
 62
     0
100
AcDbLine
 10
61.000000000001
 20
11.5
 11
61.000000000001
 21
19.0
  0
LINE
  5
16D
100
AcDbEntity
  8
2
  6
CONTINUOUS
 62
     0
100
AcDbLine
 10
26.000000000001
 20
11.5
 11
25.000000000001
 21
10.5
  0
LINE
  5
16E
100
AcDbEntity
  8
2
  6
CONTINUOUS
 62
     0
100
AcDbLine
 10
25.000000000001
 20
-10.5
 11
26.000000000001
 21
-11.5
  0
LINE
  5
16F
100
AcDbEntity
  8
2
  6
CONTINUOUS
 62
     0
100
AcDbLine
 10
74.000000000001
 20
-18.75
 11
78.700000000001
 21
-18.75
  0
LINE
  5
170
100
AcDbEntity
  8
2
  6
CONTINUOUS
 62
     0
100
AcDbLine
 10
79.000000000001
 20
-18.45
 11
79.000000000001
 21
-10.55
  0
LINE
  5
171
100
AcDbEntity
  8
2
  6
CONTINUOUS
 62
     0
100
AcDbLine
 10
79.000000000001
 20
-18.45
 11
78.700000000001
 21
-18.75
  0
LINE
  5
172
100
AcDbEntity
  8
2
  6
CONTINUOUS
 62
     0
100
AcDbLine
 10
78.700000000001
 20
-10.25
 11
78.700000000001
 21
-18.75
  0
LINE
  5
173
100
AcDbEntity
  8
2
  6
CONTINUOUS
 62
     0
100
AcDbLine
 10
74.000000000001
 20
-10.25
 11
78.700000000001
 21
-10.25
  0
LINE
  5
174
100
AcDbEntity
  8
2
  6
CONTINUOUS
 62
     0
100
AcDbLine
 10
79.000000000001
 20
-10.55
 11
78.700000000001
 21
-10.25
  0
LINE
  5
175
100
AcDbEntity
  8
2
  6
CONTINUOUS
 62
     0
100
AcDbLine
 10
79.000000000001
 20
10.55
 11
79.000000000001
 21
18.45
  0
LINE
  5
176
100
AcDbEntity
  8
2
  6
CONTINUOUS
 62
     0
100
AcDbLine
 10
78.700000000001
 20
18.75
 11
78.700000000001
 21
10.25
  0
LINE
  5
177
100
AcDbEntity
  8
2
  6
CONTINUOUS
 62
     0
100
AcDbLine
 10
74.000000000001
 20
18.75
 11
78.700000000001
 21
18.75
  0
LINE
  5
178
100
AcDbEntity
  8
2
  6
CONTINUOUS
 62
     0
100
AcDbLine
 10
79.000000000001
 20
18.45
 11
78.700000000001
 21
18.75
  0
LINE
  5
179
100
AcDbEntity
  8
2
  6
CONTINUOUS
 62
     0
100
AcDbLine
 10
74.000000000001
 20
10.25
 11
78.700000000001
 21
10.25
  0
LINE
  5
17A
100
AcDbEntity
  8
2
  6
CONTINUOUS
 62
     0
100
AcDbLine
 10
79.000000000001
 20
10.55
 11
78.700000000001
 21
10.25
  0
LINE
  5
17B
100
AcDbEntity
  8
0
  6
CONTINUOUS
 62
     0
100
AcDbLine
 10
178.0
 20
18.0
 11
178.0
 21
9.0
  0
LINE
  5
17C
100
AcDbEntity
  8
0
  6
CONTINUOUS
 62
     0
100
AcDbLine
 10
178.0
 20
-9.0
 11
178.0
 21
-18.0
  0
LWPOLYLINE
  5
17D
100
AcDbEntity
  8
0
  6
CONTINUOUS
 62
     0
100
AcDbPolyline
 90
        4
 70
     1
 43
0.0
 10
183.000000000001
 20
17.999999999256
 10
223.000000000001
 20
17.999999999256
 10
223.000000000001
 20
-18.000000000732
 10
183.000000000001
 20
-18.000000000732
  0
LWPOLYLINE
  5
17E
100
AcDbEntity
  8
0
  6
CONTINUOUS
 62
     0
100
AcDbPolyline
 90
        4
 70
     1
 43
0.0
 10
223.000000000001
 20
17.999999999256
 10
228.0
 20
17.999999999256
 10
228.0
 20
-18.000000000732
 10
223.000000000001
 20
-18.000000000732
  0
LINE
  5
17F
100
AcDbEntity
  8
0
  6
CONTINUOUS
 62
     0
100
AcDbLine
 10
229.0
 20
-16.270000000738
 11
232.200000000001
 21
-16.270000000738
  0
LINE
  5
180
100
AcDbEntity
  8
0
  6
CONTINUOUS
 62
     0
100
AcDbLine
 10
232.200000000001
 20
-16.270000000738
 11
232.200000000001
 21
16.269999999262
  0
LINE
  5
181
100
AcDbEntity
  8
0
  6
CONTINUOUS
 62
     0
100
AcDbLine
 10
232.200000000001
 20
16.269999999262
 11
229.0
 21
16.269999999262
  0
LINE
  5
182
100
AcDbEntity
  8
0
  6
CONTINUOUS
 62
     0
100
AcDbLine
 10
235.200000000001
 20
13.699999999262
 11
237.4
 21
13.699999999262
  0
LINE
  5
183
100
AcDbEntity
  8
0
  6
CONTINUOUS
 62
     0
100
AcDbLine
 10
237.4
 20
-13.700000000738
 11
235.200000000001
 21
-13.700000000738
  0
LINE
  5
184
100
AcDbEntity
  8
6
  6
PHANTOM
 62
     0
100
AcDbLine
 10
222.080746092322
 20
12.299998287199
 11
237.206642989263
 21
12.299998287199
  0
LWPOLYLINE
  5
185
100
AcDbEntity
  8
0
  6
CONTINUOUS
 62
     0
100
AcDbPolyline
 90
        6
 70
     1
 43
0.0
 10
232.200000000001
 20
15.049998287199
 10
234.9
 20
15.049998287199
 10
235.200000000001
 20
14.749998287199
 10
235.200000000001
 20
9.84999828719901
 10
234.9
 20
9.549998287199
 10
232.200000000001
 20
9.549998287199
  0
LINE
  5
186
100
AcDbEntity
  8
6
  6
PHANTOM
 62
     0
100
AcDbLine
 10
222.080746092322
 20
-12.299998287199
 11
237.206642989263
 21
-12.299998287199
  0
LWPOLYLINE
  5
187
100
AcDbEntity
  8
0
  6
CONTINUOUS
 62
     0
100
AcDbPolyline
 90
        6
 70
     1
 43
0.0
 10
232.200000000001
 20
-15.049998287198
 10
234.9
 20
-15.049998287198
 10
235.200000000001
 20
-14.749998287198
 10
235.200000000001
 20
-9.84999828719799
 10
234.9
 20
-9.54999828719801
 10
232.200000000001
 20
-9.54999828719801
  0
LWPOLYLINE
  5
188
100
AcDbEntity
  8
0
  6
CONTINUOUS
 62
     0
100
AcDbPolyline
 90
        4
 70
     1
 43
0.0
 10
229.0
 20
16.269999999262
 10
228.0
 20
16.269999999262
 10
228.0
 20
-16.270000000738
 10
229.0
 20
-16.270000000738
  0
LINE
  5
189
100
AcDbEntity
  8
2
  6
CONTINUOUS
 62
     0
100
AcDbLine
 10
0.0
 20
2.69999999999999
 11
20.0
 21
2.69999999999999
  0
LINE
  5
18A
100
AcDbEntity
  8
2
  6
CONTINUOUS
 62
     0
100
AcDbLine
 10
0.0
 20
-2.69999999999999
 11
20.0
 21
-2.69999999999999
  0
LINE
  5
18B
100
AcDbEntity
  8
2
  6
CONTINUOUS
 62
     0
100
AcDbLine
 10
20.0
 20
6.5
 11
23.0
 21
6.5
  0
LINE
  5
18C
100
AcDbEntity
  8
2
  6
CONTINUOUS
 62
     0
100
AcDbLine
 10
20.0
 20
-6.5
 11
23.0
 21
-6.5
  0
LINE
  5
18D
100
AcDbEntity
  8
2
  6
CONTINUOUS
 62
     0
100
AcDbLine
 10
20.0
 20
-6.5
 11
20.0
 21
6.5
  0
LINE
  5
18E
100
AcDbEntity
  8
2
  6
CONTINUOUS
 62
     0
100
AcDbLine
 10
23.0
 20
-19.0
 11
23.0
 21
-6.5
  0
LINE
  5
18F
100
AcDbEntity
  8
2
  6
CONTINUOUS
 62
     0
100
AcDbLine
 10
23.0
 20
6.5
 11
23.0
 21
19.0
  0
CIRCLE
  5
190
100
AcDbEntity
  8
2
  6
CONTINUOUS
 62
     0
100
AcDbCircle
 10
77.500000000001
 20
0.0
 40
2.5
  0
LWPOLYLINE
  5
191
100
AcDbEntity
  8
2
  6
CONTINUOUS
 62
     0
100
AcDbPolyline
 90
        6
 70
     1
 43
0.0
 10
78.6547005383802
 20
0.0
 10
78.0773502691906
 20
1.0
 10
76.9226497308114
 20
1.0
 10
76.3452994616217
 20
0.0
 10
76.9226497308114
 20
-1.0
 10
78.0773502691906
 20
-1.0
  0
LINE
  5
192
100
AcDbEntity
  8
0
  6
CONTINUOUS
 62
     0
100
AcDbLine
 10
259.74451466726
 20
15.7307387672001
 11
259.74451466726
 21
-15.7307387669098
  0
LINE
  5
193
100
AcDbEntity
  8
0
  6
CONTINUOUS
 62
     0
100
AcDbLine
 10
320.73072053414
 20
10.59642178704
 11
318.87382189686
 21
11.8817887731001
  0
LINE
  5
194
100
AcDbEntity
  8
0
  6
CONTINUOUS
 62
     0
100
AcDbLine
 10
323.4
 20
10.59642178704
 11
320.73072053414
 21
10.59642178704
  0
LINE
  5
195
100
AcDbEntity
  8
0
  6
CONTINUOUS
 62
     0
100
AcDbLine
 10
320.73072053414
 20
-11.5521789615498
 11
317.14019992542
 21
-13.3783824999699
  0
LINE
  5
196
100
AcDbEntity
  8
0
  6
CONTINUOUS
 62
     0
100
AcDbLine
 10
323.4
 20
-11.5521789615498
 11
323.4
 21
10.59642178704
  0
LINE
  5
197
100
AcDbEntity
  8
0
  6
CONTINUOUS
 62
     0
100
AcDbLine
 10
323.4
 20
-11.5521789615498
 11
320.73072053414
 21
-11.5521789615498
  0
LINE
  5
198
100
AcDbEntity
  8
0
  6
CONTINUOUS
 62
     0
100
AcDbLine
 10
311.65101881603
 20
-12.35033838018
 11
311.65101881603
 21
-13.76439642103
  0
ELLIPSE
  5
199
100
AcDbEntity
  8
0
  6
CONTINUOUS
 62
     0
100
AcDbEllipse
 10
308.409364362495
 20
-11.69973695785
 30
0.0
 11
-0.395478135704991
 21
0.0
 31
0.0
210
0.0
220
0.0
230
1.0
 40
0.994412670801315
 41
3.40949156654325
 42
4.71238898038469
  0
ELLIPSE
  5
19A
100
AcDbEntity
  8
0
  6
CONTINUOUS
 62
     0
100
AcDbEllipse
 10
311.65101881603
 20
-10.8148829022098
 30
0.0
 11
-2.96608601778001
 21
0.0
 31
0.0
210
0.0
220
0.0
230
1.0
 40
0.99441267081923
 41
0.267898912398728
 42
1.5707963267949
  0
ELLIPSE
  5
19B
100
AcDbEntity
  8
0
  6
CONTINUOUS
 62
     0
100
AcDbEllipse
 10
271.11451106874
 20
4.00603994421544E-011
 30
0.0
 11
0.0
 21
6.19865838898009
 31
0.0
210
0.0
220
0.0
230
1.0
 40
0.733400073764669
 41
3.14159265358979
 42
6.28318530717959
  0
ELLIPSE
  5
19C
100
AcDbEntity
  8
0
  6
CONTINUOUS
 62
     0
100
AcDbEllipse
 10
313.62840949409
 20
9.83171172955997
 30
0.0
 11
-2.71891218296003
 21
0.0
 31
0.0
210
0.0
220
0.0
230
1.0
 40
0.994412670819185
 41
1.23152775008237E-016
 42
6.28318530717959
  0
ELLIPSE
  5
19D
100
AcDbEntity
  8
0
  6
CONTINUOUS
 62
     0
100
AcDbEllipse
 10
314.51823529942
 20
8.94685767390985
 30
0.0
 11
-0.494347669629974
 21
0.0
 31
0.0
210
0.0
220
0.0
230
1.0
 40
0.99441267081898
 41
4.71238898038469
 42
6.28318530717959
  0
LINE
  5
19E
100
AcDbEntity
  8
0
  6
CONTINUOUS
 62
     0
100
AcDbLine
 10
314.02388762979
 20
8.94685767390985
 11
314.02388762979
 21
8.20724635104995
  0
LINE
  5
19F
100
AcDbEntity
  8
0
  6
CONTINUOUS
 62
     0
100
AcDbLine
 10
315.26200229331
 20
9.43844326092005
 11
314.51823529942
 21
9.43844326092005
  0
ELLIPSE
  5
1A0
100
AcDbEntity
  8
0
  6
CONTINUOUS
 62
     0
100
AcDbEllipse
 10
313.62840949409
 20
9.83171172954997
 30
0.0
 11
-1.68078207674
 21
0.0
 31
0.0
210
0.0
220
0.0
230
1.0
 40
0.994412670815541
 41
1.23152775008688E-016
 42
3.3791138248857
  0
LINE
  5
1A1
100
AcDbEntity
  8
0
  6
CONTINUOUS
 62
     0
100
AcDbLine
 10
314.51823529942
 20
10.2249801987302
 11
315.26200229331
 21
10.2249801987302
  0
LINE
  5
1A2
100
AcDbEntity
  8
0
  6
CONTINUOUS
 62
     0
100
AcDbLine
 10
243.82651970518
 20
15.7307387672001
 11
259.74451466726
 21
15.7307387672001
  0
LINE
  5
1A3
100
AcDbEntity
  8
0
  6
CONTINUOUS
 62
     0
100
AcDbLine
 10
243.82651970518
 20
15.5341045326101
 11
259.74451466726
 21
15.5341045326101
  0
LINE
  5
1A4
100
AcDbEntity
  8
0
  6
CONTINUOUS
 62
     0
100
AcDbLine
 10
243.82651970518
 20
15.2391531807302
 11
259.74451466726
 21
15.2391531807302
  0
LINE
  5
1A5
100
AcDbEntity
  8
0
  6
CONTINUOUS
 62
     0
100
AcDbLine
 10
243.82651970518
 20
13.9610306559102
 11
259.74451466726
 21
13.9610306559102
  0
LINE
  5
1A6
100
AcDbEntity
  8
0
  6
CONTINUOUS
 62
     0
100
AcDbLine
 10
243.82651970518
 20
14.74756759426
 11
259.74451466726
 21
14.74756759426
  0
LINE
  5
1A7
100
AcDbEntity
  8
0
  6
CONTINUOUS
 62
     0
100
AcDbLine
 10
243.82651970518
 20
12.9778594829701
 11
259.74451466726
 21
12.9778594829701
  0
LINE
  5
1A8
100
AcDbEntity
  8
0
  6
CONTINUOUS
 62
     0
100
AcDbLine
 10
243.82651970518
 20
11.7980540749801
 11
259.74451466726
 21
11.7980540749801
  0
SPLINE
  5
1A9
100
AcDbEntity
  8
0
  6
CONTINUOUS
 62
     0
100
AcDbSpline
210
0.0
220
0.0
230
1.0
 70
     8
 71
     3
 72
     8
 73
     4
 74
     0
 42
1.00000000000000E-007
 43
1.00000000000000E-007
 40
0.0
 40
0.0
 40
0.0
 40
0.0
 40
1.39432566254238
 40
1.39432566254238
 40
1.39432566254238
 40
1.39432566254238
 10
260.73321000652
 20
14.7475675820294
 30
0.0
 10
260.73321000652
 20
15.2905580395501
 30
0.0
 10
260.29055602536
 20
15.7307387672001
 30
0.0
 10
259.74451466726
 20
15.7307387672001
 30
0.0
  0
LINE
  5
1AA
100
AcDbEntity
  8
0
  6
CONTINUOUS
 62
     0
100
AcDbLine
 10
243.82651970518
 20
10.6182486679101
 11
259.74451466726
 21
10.6182486679101
  0
LINE
  5
1AB
100
AcDbEntity
  8
0
  6
CONTINUOUS
 62
     0
100
AcDbLine
 10
237.69660860178
 20
15.2391531807302
 11
243.33217203556
 21
15.2391531807302
  0
LINE
  5
1AC
100
AcDbEntity
  8
0
  6
CONTINUOUS
 62
     0
100
AcDbLine
 10
260.73321000652
 20
10.8148829025001
 11
263.20494835467
 21
10.8148829025001
  0
LINE
  5
1AD
100
AcDbEntity
  8
0
  6
CONTINUOUS
 62
     0
100
AcDbLine
 10
237.69660860178
 20
-15.2391531804399
 11
237.4
 21
-14.9442018288499
  0
LINE
  5
1AE
100
AcDbEntity
  8
0
  6
CONTINUOUS
 62
     0
100
AcDbLine
 10
243.82651970518
 20
-15.7307387669098
 11
259.74451466726
 21
-15.7307387669098
  0
LINE
  5
1AF
100
AcDbEntity
  8
0
  6
CONTINUOUS
 62
     0
100
AcDbLine
 10
237.69660860178
 20
-15.2391531804399
 11
243.33217203556
 21
-15.2391531804399
  0
ELLIPSE
  5
1B0
100
AcDbEntity
  8
0
  6
CONTINUOUS
 62
     0
100
AcDbEllipse
 10
259.74451466726
 20
-14.74756759397
 30
0.0
 11
-0.988695339260005
 21
0.0
 31
0.0
210
0.0
220
0.0
230
1.0
 40
0.994412670818952
 41
1.5707963267949
 42
3.14159265358979
  0
LINE
  5
1B1
100
AcDbEntity
  8
0
  6
CONTINUOUS
 62
     0
100
AcDbLine
 10
243.33217203556
 20
-15.2391531804399
 11
243.82651970518
 21
-15.7307387669098
  0
LINE
  5
1B2
100
AcDbEntity
  8
0
  6
CONTINUOUS
 62
     0
100
AcDbLine
 10
237.4
 20
-14.9442018288499
 11
237.4
 21
14.94420182885
  0
LINE
  5
1B3
100
AcDbEntity
  8
0
  6
CONTINUOUS
 62
     0
100
AcDbLine
 10
237.69660860178
 20
15.2391531807302
 11
237.4
 21
14.94420182885
  0
ELLIPSE
  5
1B4
100
AcDbEntity
  8
0
  6
CONTINUOUS
 62
     0
100
AcDbEllipse
 10
314.51823529942
 20
10.7165657852001
 30
0.0
 11
-0.494347669629974
 21
0.0
 31
0.0
210
0.0
220
0.0
230
1.0
 40
0.99441267081898
 41
1.23152775008263E-016
 42
1.5707963267949
  0
LINE
  5
1B5
100
AcDbEntity
  8
0
  6
CONTINUOUS
 62
     0
100
AcDbLine
 10
314.02388762979
 20
11.45617710806
 11
314.02388762979
 21
10.7165657852001
  0
ELLIPSE
  5
1B6
100
AcDbEntity
  8
0
  6
CONTINUOUS
 62
     0
100
AcDbEllipse
 10
313.62840949409
 20
9.83171172955997
 30
0.0
 11
-1.68078207674
 21
0.0
 31
0.0
210
0.0
220
0.0
230
1.0
 40
0.994412670821493
 41
4.47486781018572
 42
4.94991015181352
  0
LINE
  5
1B7
100
AcDbEntity
  8
0
  6
CONTINUOUS
 62
     0
100
AcDbLine
 10
313.23293135839
 20
10.7165657852001
 11
313.23293135839
 21
11.45617710806
  0
ELLIPSE
  5
1B8
100
AcDbEntity
  8
0
  6
CONTINUOUS
 62
     0
100
AcDbEllipse
 10
312.73858368876
 20
10.7165657852001
 30
0.0
 11
-0.494347669629974
 21
0.0
 31
0.0
210
0.0
220
0.0
230
1.0
 40
0.99441267081898
 41
1.5707963267949
 42
3.14159265358979
  0
ELLIPSE
  5
1B9
100
AcDbEntity
  8
0
  6
CONTINUOUS
 62
     0
100
AcDbEllipse
 10
313.62840949409
 20
9.83171172955997
 30
0.0
 11
-1.68078207674
 21
0.0
 31
0.0
210
0.0
220
0.0
230
1.0
 40
0.994412670821493
 41
6.0456641371283
 42
0.237521171393072
  0
LINE
  5
1BA
100
AcDbEntity
  8
0
  6
CONTINUOUS
 62
     0
100
AcDbLine
 10
311.99481669487
 20
10.2249801987302
 11
312.73858368876
 21
10.2249801987302
  0
LINE
  5
1BB
100
AcDbEntity
  8
0
  6
CONTINUOUS
 62
     0
100
AcDbLine
 10
312.73858368876
 20
9.43844326092005
 11
311.99481669487
 21
9.43844326092005
  0
ELLIPSE
  5
1BC
100
AcDbEntity
  8
0
  6
CONTINUOUS
 62
     0
100
AcDbEllipse
 10
312.73858368876
 20
8.94685767390985
 30
0.0
 11
-0.494347669629974
 21
0.0
 31
0.0
210
0.0
220
0.0
230
1.0
 40
0.99441267081898
 41
1.23152775008263E-016
 42
4.71238898038469
  0
LINE
  5
1BD
100
AcDbEntity
  8
0
  6
CONTINUOUS
 62
     0
100
AcDbLine
 10
313.23293135839
 20
8.20724635104995
 11
313.23293135839
 21
8.94685767390985
  0
ELLIPSE
  5
1BE
100
AcDbEntity
  8
0
  6
CONTINUOUS
 62
     0
100
AcDbEllipse
 10
313.62840949409
 20
9.83171172955997
 30
0.0
 11
-3.21325985259
 21
0.0
 31
0.0
210
0.0
220
0.0
230
1.0
 40
0.994412670819153
 41
5.04042805740384
 42
4.38434990458852
  0
ELLIPSE
  5
1BF
100
AcDbEntity
  8
0
  6
CONTINUOUS
 62
     0
100
AcDbEllipse
 10
313.62840949409
 20
-9.83171172927004
 30
0.0
 11
-3.21325985259
 21
0.0
 31
0.0
210
0.0
220
0.0
230
1.0
 40
0.994412670819162
 41
1.89883540340642
 42
1.24275725059103
  0
LINE
  5
1C0
100
AcDbEntity
  8
0
  6
CONTINUOUS
 62
     0
100
AcDbLine
 10
312.59313801081
 20
12.8566313612999
 11
314.66368097737
 21
12.8566313612999
  0
LINE
  5
1C1
100
AcDbEntity
  8
0
  6
CONTINUOUS
 62
     0
100
AcDbLine
 10
278.36307078573
 20
11.30646848897
 11
278.36307078573
 21
-11.30646848868
  0
LINE
  5
1C2
100
AcDbEntity
  8
0
  6
CONTINUOUS
 62
     0
100
AcDbLine
 10
312.59313801081
 20
-12.85663136101
 11
314.66368097737
 21
-12.85663136101
  0
LINE
  5
1C3
100
AcDbEntity
  8
0
  6
CONTINUOUS
 62
     0
100
AcDbLine
 10
271.11451106874
 20
-6.19865838883004
 11
263.20494835467
 21
-6.19865838883004
  0
LINE
  5
1C4
100
AcDbEntity
  8
0
  6
CONTINUOUS
 62
     0
100
AcDbLine
 10
263.20494835467
 20
6.19865838911997
 11
271.11451106874
 21
6.19865838911997
  0
LINE
  5
1C5
100
AcDbEntity
  8
0
  6
CONTINUOUS
 62
     0
100
AcDbLine
 10
263.20494835467
 20
6.19865838911997
 11
274.11339018783
 21
-4.65868817288003
  0
LINE
  5
1C6
100
AcDbEntity
  8
0
  6
CONTINUOUS
 62
     0
100
AcDbLine
 10
274.11339018783
 20
4.65868817316996
 11
263.20494835467
 21
-6.19865838883004
  0
LINE
  5
1C7
100
AcDbEntity
  8
0
  6
CONTINUOUS
 62
     0
100
AcDbLine
 10
315.60580017261
 20
-13.76439642103
 11
315.60580017261
 21
-12.3503383801701
  0
ELLIPSE
  5
1C8
100
AcDbEntity
  8
0
  6
CONTINUOUS
 62
     0
100
AcDbEllipse
 10
313.62840949409
 20
9.83171172954997
 30
0.0
 11
-1.68078207674
 21
0.0
 31
0.0
210
0.0
220
0.0
230
1.0
 40
0.994412670815541
 41
1.33327515618728
 42
1.80831749781245
  0
LINE
  5
1C9
100
AcDbEntity
  8
0
  6
CONTINUOUS
 62
     0
100
AcDbLine
 10
314.02388762979
 20
-8.94685767361995
 11
314.02388762979
 21
-8.20724635075985
  0
ELLIPSE
  5
1CA
100
AcDbEntity
  8
0
  6
CONTINUOUS
 62
     0
100
AcDbEllipse
 10
313.62840949409
 20
-9.83171172927004
 30
0.0
 11
-2.71891218296003
 21
0.0
 31
0.0
210
0.0
220
0.0
230
1.0
 40
0.994412670819111
 41
1.23152775008246E-016
 42
6.28318530717959
  0
LINE
  5
1CB
100
AcDbEntity
  8
0
  6
CONTINUOUS
 62
     0
100
AcDbLine
 10
260.73321000652
 20
14.74756759426
 11
260.73321000652
 21
-14.74756759397
  0
ELLIPSE
  5
1CC
100
AcDbEntity
  8
0
  6
CONTINUOUS
 62
     0
100
AcDbEllipse
 10
314.51823529942
 20
-8.94685767361995
 30
0.0
 11
-0.494347669629974
 21
0.0
 31
0.0
210
0.0
220
0.0
230
1.0
 40
0.994412670819038
 41
1.23152775008255E-016
 42
1.5707963267949
  0
LINE
  5
1CD
100
AcDbEntity
  8
0
  6
CONTINUOUS
 62
     0
100
AcDbLine
 10
315.26200229331
 20
-9.43844326008994
 11
314.51823529942
 21
-9.43844326008994
  0
LINE
  5
1CE
100
AcDbEntity
  8
0
  6
CONTINUOUS
 62
     0
100
AcDbLine
 10
243.33217203556
 20
15.2391531807302
 11
243.82651970518
 21
15.7307387672001
  0
LINE
  5
1CF
100
AcDbEntity
  8
0
  6
CONTINUOUS
 62
     0
100
AcDbLine
 10
314.51823529942
 20
-10.2249801984399
 11
315.26200229331
 21
-10.2249801984399
  0
ELLIPSE
  5
1D0
100
AcDbEntity
  8
0
  6
CONTINUOUS
 62
     0
100
AcDbEllipse
 10
313.62840949409
 20
-9.83171172927004
 30
0.0
 11
-1.68078207674
 21
0.0
 31
0.0
210
0.0
220
0.0
230
1.0
 40
0.994412670821476
 41
1.23152775007953E-016
 42
3.37911382488427
  0
ELLIPSE
  5
1D1
100
AcDbEntity
  8
0
  6
CONTINUOUS
 62
     0
100
AcDbEllipse
 10
314.51823529942
 20
-10.7165657849099
 30
0.0
 11
-0.494347669629974
 21
0.0
 31
0.0
210
0.0
220
0.0
230
1.0
 40
0.99441267081921
 41
4.71238898038469
 42
6.28318530717959
  0
ELLIPSE
  5
1D2
100
AcDbEntity
  8
0
  6
CONTINUOUS
 62
     0
100
AcDbEllipse
 10
240.168346950565
 20
3.99609234591480E-011
 30
0.0
 11
-1.28530394103501
 21
1.57404335732193E-016
 31
0.0
210
0.0
220
0.0
230
1.0
 40
0.994412670819918
 41
1.23152775008146E-016
 42
6.28318530717959
  0
LINE
  5
1D3
100
AcDbEntity
  8
0
  6
CONTINUOUS
 62
     0
100
AcDbLine
 10
243.82651970518
 20
15.7307387672001
 11
243.82651970518
 21
-15.7307387669098
  0
LINE
  5
1D4
100
AcDbEntity
  8
0
  6
CONTINUOUS
 62
     0
100
AcDbLine
 10
243.33217203556
 20
15.2391531807302
 11
243.33217203556
 21
-15.2391531804399
  0
LINE
  5
1D5
100
AcDbEntity
  8
0
  6
CONTINUOUS
 62
     0
100
AcDbLine
 10
314.02388762979
 20
-11.45617710777
 11
314.02388762979
 21
-10.7165657849099
  0
ELLIPSE
  5
1D6
100
AcDbEntity
  8
0
  6
CONTINUOUS
 62
     0
100
AcDbEllipse
 10
313.62840949409
 20
-9.83171172927004
 30
0.0
 11
-1.68078207674
 21
0.0
 31
0.0
210
0.0
220
0.0
230
1.0
 40
0.994412670821476
 41
1.33327515618592
 42
1.80831749781382
  0
LINE
  5
1D7
100
AcDbEntity
  8
0
  6
CONTINUOUS
 62
     0
100
AcDbLine
 10
318.57188619039
 20
10.8148829025001
 11
318.57188619039
 21
-10.8148829022098
  0
LINE
  5
1D8
100
AcDbEntity
  8
0
  6
CONTINUOUS
 62
     0
100
AcDbLine
 10
308.68493279779
 20
11.41765835823
 11
308.68493279779
 21
-11.4176583582199
  0
LINE
  5
1D9
100
AcDbEntity
  8
0
  6
CONTINUOUS
 62
     0
100
AcDbLine
 10
263.20494835467
 20
-12.7812252480899
 11
263.20494835467
 21
12.7812252483802
  0
LINE
  5
1DA
100
AcDbEntity
  8
0
  6
CONTINUOUS
 62
     0
100
AcDbLine
 10
264.19364369456
 20
13.76439642132
 11
263.20494835467
 21
12.7812252483802
  0
LINE
  5
1DB
100
AcDbEntity
  8
0
  6
CONTINUOUS
 62
     0
100
AcDbLine
 10
315.60580017261
 20
-7.31308507791994
 11
315.60580017261
 21
7.31308507865006
  0
ELLIPSE
  5
1DC
100
AcDbEntity
  8
0
  6
CONTINUOUS
 62
     0
100
AcDbEllipse
 10
311.65101881603
 20
10.8148829025001
 30
0.0
 11
-2.96608601778001
 21
0.0
 31
0.0
210
0.0
220
0.0
230
1.0
 40
0.994412670819124
 41
4.71238898038469
 42
6.01528639560398
  0
LINE
  5
1DD
100
AcDbEntity
  8
0
  6
CONTINUOUS
 62
     0
100
AcDbLine
 10
315.60580017261
 20
12.35033838046
 11
315.60580017261
 21
13.76439642132
  0
ELLIPSE
  5
1DE
100
AcDbEntity
  8
0
  6
CONTINUOUS
 62
     0
100
AcDbEllipse
 10
271.11451106874
 20
1.96634234603005
 30
0.0
 11
-11.86434407111
 21
1.55431223447522E-015
 31
0.0
210
0.0
220
0.0
230
1.0
 40
0.994412670820842
 41
4.05512482766773
 42
4.71238898038469
  0
LINE
  5
1DF
100
AcDbEntity
  8
0
  6
CONTINUOUS
 62
     0
100
AcDbLine
 10
271.11451106874
 20
13.76439642132
 11
271.11451106874
 21
6.19865838911997
  0
ELLIPSE
  5
1E0
100
AcDbEntity
  8
0
  6
CONTINUOUS
 62
     0
100
AcDbEllipse
 10
271.11451106874
 20
-1.96634234573995
 30
0.0
 11
-11.86434407111
 21
1.55431223447522E-015
 31
0.0
210
0.0
220
0.0
230
1.0
 40
0.994412670820856
 41
1.5707963267949
 42
2.22806048033103
  0
LINE
  5
1E1
100
AcDbEntity
  8
0
  6
CONTINUOUS
 62
     0
100
AcDbLine
 10
271.11451106874
 20
-6.19865838883004
 11
271.11451106874
 21
-13.76439642103
  0
ELLIPSE
  5
1E2
100
AcDbEntity
  8
0
  6
CONTINUOUS
 62
     0
100
AcDbEllipse
 10
308.409364362495
 20
11.6997369581401
 30
0.0
 11
-0.395478135704991
 21
0.0
 31
0.0
210
0.0
220
0.0
230
1.0
 40
0.994412670801818
 41
1.5707963267949
 42
2.87369374145659
  0
LINE
  5
1E3
100
AcDbEntity
  8
0
  6
CONTINUOUS
 62
     0
100
AcDbLine
 10
311.65101881603
 20
13.76439642132
 11
311.65101881603
 21
12.35033838047
  0
LINE
  5
1E4
100
AcDbEntity
  8
0
  6
CONTINUOUS
 62
     0
100
AcDbLine
 10
311.65101881603
 20
7.31308507864006
 11
311.65101881603
 21
-7.31308507791994
  0
LINE
  5
1E5
100
AcDbEntity
  8
0
  6
CONTINUOUS
 62
     0
100
AcDbLine
 10
264.19364369456
 20
13.76439642132
 11
271.11451106874
 21
13.76439642132
  0
LINE
  5
1E6
100
AcDbEntity
  8
0
  6
CONTINUOUS
 62
     0
100
AcDbLine
 10
278.36307078573
 20
11.30646848897
 11
308.40936436249
 21
11.30646848897
  0
LINE
  5
1E7
100
AcDbEntity
  8
0
  6
CONTINUOUS
 62
     0
100
AcDbLine
 10
311.65101881603
 20
13.76439642132
 11
315.60580017261
 21
13.76439642132
  0
ELLIPSE
  5
1E8
100
AcDbEntity
  8
0
  6
CONTINUOUS
 62
     0
100
AcDbEllipse
 10
315.60580017261
 20
-10.8148829022098
 30
0.0
 11
-2.96608601777996
 21
0.0
 31
0.0
210
0.0
220
0.0
230
1.0
 40
0.994412670819249
 41
1.5707963267949
 42
3.14159265358979
  0
LINE
  5
1E9
100
AcDbEntity
  8
0
  6
CONTINUOUS
 62
     0
100
AcDbLine
 10
264.19364369456
 20
-13.76439642103
 11
263.20494835467
 21
-12.7812252480899
  0
LINE
  5
1EA
100
AcDbEntity
  8
0
  6
CONTINUOUS
 62
     0
100
AcDbLine
 10
311.65101881603
 20
-13.76439642103
 11
315.60580017261
 21
-13.76439642103
  0
LINE
  5
1EB
100
AcDbEntity
  8
0
  6
CONTINUOUS
 62
     0
100
AcDbLine
 10
264.19364369456
 20
-13.76439642103
 11
271.11451106874
 21
-13.76439642103
  0
LINE
  5
1EC
100
AcDbEntity
  8
0
  6
CONTINUOUS
 62
     0
100
AcDbLine
 10
278.36307078573
 20
-11.30646848868
 11
308.40936436249
 21
-11.30646848868
  0
LINE
  5
1ED
100
AcDbEntity
  8
0
  6
CONTINUOUS
 62
     0
100
AcDbLine
 10
313.23293135839
 20
-10.7165657849099
 11
313.23293135839
 21
-11.45617710777
  0
LINE
  5
1EE
100
AcDbEntity
  8
0
  6
CONTINUOUS
 62
     0
100
AcDbLine
 10
264.19364369456
 20
13.76439642132
 11
264.19364369456
 21
6.19865838911997
  0
LINE
  5
1EF
100
AcDbEntity
  8
0
  6
CONTINUOUS
 62
     0
100
AcDbLine
 10
311.99481669487
 20
-10.2249801984399
 11
312.73858368876
 21
-10.2249801984399
  0
LINE
  5
1F0
100
AcDbEntity
  8
0
  6
CONTINUOUS
 62
     0
100
AcDbLine
 10
264.19364369456
 20
-6.19865838883004
 11
264.19364369456
 21
-13.76439642103
  0
ELLIPSE
  5
1F1
100
AcDbEntity
  8
0
  6
CONTINUOUS
 62
     0
100
AcDbEllipse
 10
312.73858368876
 20
-10.7165657849099
 30
0.0
 11
-0.494347669629974
 21
0.0
 31
0.0
210
0.0
220
0.0
230
1.0
 40
0.99441267081921
 41
1.23152775008234E-016
 42
4.71238898038469
  0
ELLIPSE
  5
1F2
100
AcDbEntity
  8
0
  6
CONTINUOUS
 62
     0
100
AcDbEllipse
 10
313.62840949409
 20
-9.83171172927004
 30
0.0
 11
-1.68078207674
 21
0.0
 31
0.0
210
0.0
220
0.0
230
1.0
 40
0.994412670821476
 41
6.04566413712246
 42
0.2375211717006
  0
LINE
  5
1F3
100
AcDbEntity
  8
0
  6
CONTINUOUS
 62
     0
100
AcDbLine
 10
312.73858368876
 20
-9.43844326008994
 11
311.99481669487
 21
-9.43844326008994
  0
LINE
  5
1F4
100
AcDbEntity
  8
0
  6
CONTINUOUS
 62
     0
100
AcDbLine
 10
313.23293135839
 20
-8.20724635075985
 11
313.23293135839
 21
-8.94685767361995
  0
ELLIPSE
  5
1F5
100
AcDbEntity
  8
0
  6
CONTINUOUS
 62
     0
100
AcDbEllipse
 10
312.73858368876
 20
-8.94685767361995
 30
0.0
 11
-0.494347669629974
 21
0.0
 31
0.0
210
0.0
220
0.0
230
1.0
 40
0.994412670819038
 41
1.5707963267949
 42
3.14159265358979
  0
ELLIPSE
  5
1F6
100
AcDbEntity
  8
0
  6
CONTINUOUS
 62
     0
100
AcDbEllipse
 10
313.62840949409
 20
-9.83171172927004
 30
0.0
 11
-1.68078207674
 21
0.0
 31
0.0
210
0.0
220
0.0
230
1.0
 40
0.994412670815524
 41
4.47486781018848
 42
4.94991015181074
  0
LINE
  5
1F7
100
AcDbEntity
  8
0
  6
CONTINUOUS
 62
     0
100
AcDbLine
 10
260.73321000652
 20
-10.8148829022098
 11
263.20494835467
 21
-10.8148829022098
  0
LINE
  5
1F8
100
AcDbEntity
  8
0
  6
CONTINUOUS
 62
     0
100
AcDbLine
 10
323.80501061995
 20
5.15064191221006
 11
323.4
 21
5.17372880931006
  0
SPLINE
  5
1F9
100
AcDbEntity
  8
0
  6
CONTINUOUS
 62
     0
100
AcDbSpline
210
0.0
220
0.0
230
1.0
 70
     8
 71
     3
 72
    27
 73
    23
 74
     0
 42
1.00000000000000E-007
 43
1.00000000000000E-007
 40
0.0
 40
0.0
 40
0.0
 40
0.0
 40
1.38798215816358
 40
2.78316046272119
 40
4.20377799019121
 40
5.68854752495437
 40
7.27635816236512
 40
8.85118786305866
 40
10.2685612072612
 40
11.5432525534623
 40
12.92769654723
 40
14.4703822511305
 40
16.021278561357
 40
17.4905672224835
 40
18.9306905089276
 40
20.3763410549158
 40
21.8340029661352
 40
23.2893399993304
 40
24.723882735155
 40
26.1425404085114
 40
27.5526664756353
 40
28.9591560497459
 40
28.9591560497459
 40
28.9591560497459
 40
28.9591560497459
 10
323.80501061819
 20
5.15064191321005
 30
0.0
 10
324.09371288517
 20
5.20151011291017
 30
0.0
 10
325.248521924179
 20
5.40498293223982
 30
0.0
 10
326.508383376897
 20
5.7003042417061
 30
0.0
 10
327.877790896056
 20
6.16261452822871
 30
0.0
 10
329.186068629957
 20
6.83214992106474
 30
0.0
 10
330.486372973202
 20
7.80373556236635
 30
0.0
 10
331.575119785851
 20
8.99484412419246
 30
0.0
 10
332.23215656536
 20
10.2900189849994
 30
0.0
 10
332.20166183608
 20
11.5819280945946
 30
0.0
 10
331.400774950954
 20
12.7626437261294
 30
0.0
 10
330.142996354054
 20
13.7353044864657
 30
0.0
 10
328.700066276819
 20
14.3867968839702
 30
0.0
 10
327.262050033678
 20
14.6670840425106
 30
0.0
 10
325.817942674989
 20
14.6503016844602
 30
0.0
 10
324.391782677364
 20
14.3890144449759
 30
0.0
 10
322.998899267237
 20
13.9419255436417
 30
0.0
 10
321.654420143976
 20
13.3647508246457
 30
0.0
 10
320.382971189607
 20
12.7190029222245
 30
0.0
 10
319.130614888102
 20
11.9981848133179
 30
0.0
 10
318.018008247513
 20
11.3094252751184
 30
0.0
 10
317.019387643
 20
10.66512263471
 30
0.0
 10
316.76973249876
 20
10.5040469694401
 30
0.0
  0
SPLINE
  5
1FA
100
AcDbEntity
  8
0
  6
CONTINUOUS
 62
     0
100
AcDbSpline
210
0.0
220
0.0
230
1.0
 70
     8
 71
     3
 72
    35
 73
    31
 74
     0
 42
1.00000000000000E-007
 43
1.00000000000000E-007
 40
0.0
 40
0.0
 40
0.0
 40
0.0
 40
1.30659860743157
 40
2.60308815142769
 40
3.88276558863076
 40
5.14605696922572
 40
6.40473935105562
 40
7.67835783850932
 40
8.98347320892682
 40
10.3317377282634
 40
11.6940433343421
 40
13.0001667075589
 40
14.239666198758
 40
15.5028968939448
 40
16.8375664068608
 40
18.1991118291535
 40
19.5199010556939
 40
20.811212289544
 40
22.103710504833
 40
23.4009336099187
 40
24.6993076369481
 40
25.99835245406
 40
27.2961491370532
 40
28.5896543217044
 40
29.875311046574
 40
31.1552320729676
 40
32.4366914567562
 40
33.7231863580173
 40
35.0148674772102
 40
36.30968433834
 40
36.30968433834
 40
36.30968433834
 40
36.30968433834
 10
323.39999999908
 20
3.33150695712007
 30
0.0
 10
323.67197978923
 20
3.38127370388005
 30
0.0
 10
324.759898919753
 20
3.58034072573086
 30
0.0
 10
325.937032784865
 20
3.83424304950448
 30
0.0
 10
327.196328777031
 20
4.18023520409312
 30
0.0
 10
328.371843981325
 20
4.62636139148779
 30
0.0
 10
329.485504574444
 20
5.2155543230136
 30
0.0
 10
330.534112085369
 20
5.93802519567453
 30
0.0
 10
331.524820895531
 20
6.78571100274259
 30
0.0
 10
332.473894789719
 20
7.7510776096483
 30
0.0
 10
333.346215543222
 20
8.82236295837778
 30
0.0
 10
333.985270749219
 20
9.97743397331666
 30
0.0
 10
334.252889267922
 20
11.1962117431893
 30
0.0
 10
334.01113717756
 20
12.4567466033004
 30
0.0
 10
333.377755582585
 20
13.6571151205686
 30
0.0
 10
332.462375140335
 20
14.7019602286795
 30
0.0
 10
331.385461667644
 20
15.4769328491261
 30
0.0
 10
330.201919661815
 20
15.9966597285836
 30
0.0
 10
328.944675749984
 20
16.3158262682967
 30
0.0
 10
327.655279137995
 20
16.4844119246567
 30
0.0
 10
326.355599611002
 20
16.5237132173631
 30
0.0
 10
325.057104203587
 20
16.4358443144034
 30
0.0
 10
323.773904371522
 20
16.2273835481754
 30
0.0
 10
322.518618255968
 20
15.9039372507396
 30
0.0
 10
321.307185178921
 20
15.4705452345067
 30
0.0
 10
320.142538859373
 20
14.9362295230441
 30
0.0
 10
319.021750812918
 20
14.3282450726912
 30
0.0
 10
317.903034880636
 20
13.6432993491269
 30
0.0
 10
316.900390981436
 20
12.9854477784482
 30
0.0
 10
315.99581882759
 20
12.3684165884401
 30
0.0
 10
315.76967579679
 20
12.2141587824701
 30
0.0
  0
ELLIPSE
  5
1FB
100
AcDbEntity
  8
0
  6
CONTINUOUS
 62
     0
100
AcDbEllipse
 10
315.60580017261
 20
10.8148829025001
 30
0.0
 11
-2.96608601777996
 21
0.0
 31
0.0
210
0.0
220
0.0
230
1.0
 40
0.994412670819143
 41
4.09613525646971
 42
4.71238898038469
  0
ELLIPSE
  5
1FC
100
AcDbEntity
  8
0
  6
CONTINUOUS
 62
     0
100
AcDbEllipse
 10
315.60580017261
 20
10.8148829025001
 30
0.0
 11
-2.96608601777996
 21
0.0
 31
0.0
210
0.0
220
0.0
230
1.0
 40
0.994412670819143
 41
1.23152775008242E-016
 42
3.43240422553223
  0
LINE
  5
1FD
100
AcDbEntity
  8
2
  6
CONTINUOUS
 62
     0
100
AcDbLine
 10
353.4000011628
 20
-7.00741897711993
 11
323.4
 21
-7.00741897711993
  0
LINE
  5
1FE
100
AcDbEntity
  8
2
  6
CONTINUOUS
 62
     0
100
AcDbLine
 10
353.4000011628
 20
6.99258102288007
 11
331.71471320652
 21
6.99258102288007
  0
LINE
  5
1FF
100
AcDbEntity
  8
2
  6
CONTINUOUS
 62
     0
100
AcDbLine
 10
329.355510386
 20
6.99258102288007
 11
323.4
 21
6.99258102288007
  0
ENDBLK
  5
200
100
AcDbEntity
  8
2
100
AcDbBlockEnd
  0
BLOCK
  5
30F
100
AcDbEntity
  8
7
100
AcDbBlockBegin
  2
SUB3
 70
    64
 10
0.0
 20
0.0
  0
CIRCLE
  5
310
100
AcDbEntity
  8
2
  6
CONTINUOUS
 62
     0
100
AcDbCircle
 10
0.0
 20
0.0
 40
2.75
  0
CIRCLE
  5
311
100
AcDbEntity
  8
2
  6
CONTINUOUS
 62
     0
100
AcDbCircle
 10
0.0
 20
0.0
 40
2.41
  0
LWPOLYLINE
  5
312
100
AcDbEntity
  8
2
  6
CONTINUOUS
 62
     0
100
AcDbPolyline
 90
        6
 70
     1
 43
0.0
 10
1.44337567297407
 20
0.0
 10
0.721687836487035
 20
1.25
 10
-0.721687836487945
 20
1.25
 10
-1.44337567297498
 20
0.0
 10
-0.721687836487945
 20
-1.25
 10
0.721687836487035
 20
-1.25
  0
ENDBLK
  5
313
100
AcDbEntity
  8
2
100
AcDbBlockEnd
  0
BLOCK
  5
316
100
AcDbEntity
  8
7
100
AcDbBlockBegin
  2
SUB4
 70
    64
 10
0.0
 20
0.0
  0
CIRCLE
  5
317
100
AcDbEntity
  8
2
  6
CONTINUOUS
 62
     0
100
AcDbCircle
 10
0.0
 20
0.0
 40
2.75
  0
CIRCLE
  5
318
100
AcDbEntity
  8
2
  6
CONTINUOUS
 62
     0
100
AcDbCircle
 10
0.0
 20
0.0
 40
2.41
  0
LWPOLYLINE
  5
319
100
AcDbEntity
  8
2
  6
CONTINUOUS
 62
     0
100
AcDbPolyline
 90
        6
 70
     1
 43
0.0
 10
1.44337567297407
 20
0.0
 10
0.721687836487035
 20
1.25
 10
-0.721687836487945
 20
1.25
 10
-1.44337567297498
 20
0.0
 10
-0.721687836487945
 20
-1.25
 10
0.721687836487035
 20
-1.25
  0
ENDBLK
  5
31A
100
AcDbEntity
  8
2
100
AcDbBlockEnd
  0
BLOCK
  5
31D
100
AcDbEntity
  8
7
100
AcDbBlockBegin
  2
SUB5
 70
    64
 10
0.0
 20
0.0
  0
CIRCLE
  5
31E
100
AcDbEntity
  8
2
  6
CONTINUOUS
 62
     0
100
AcDbCircle
 10
0.0
 20
0.0
 40
2.75
  0
CIRCLE
  5
31F
100
AcDbEntity
  8
2
  6
CONTINUOUS
 62
     0
100
AcDbCircle
 10
0.0
 20
0.0
 40
2.41
  0
LWPOLYLINE
  5
320
100
AcDbEntity
  8
2
  6
CONTINUOUS
 62
     0
100
AcDbPolyline
 90
        6
 70
     1
 43
0.0
 10
1.44337567297407
 20
0.0
 10
0.721687836487035
 20
1.25
 10
-0.721687836487945
 20
1.25
 10
-1.44337567297498
 20
0.0
 10
-0.721687836487945
 20
-1.25
 10
0.721687836487035
 20
-1.25
  0
ENDBLK
  5
321
100
AcDbEntity
  8
2
100
AcDbBlockEnd
  0
BLOCK
  5
324
100
AcDbEntity
  8
7
100
AcDbBlockBegin
  2
SUB6
 70
    64
 10
0.0
 20
0.0
  0
CIRCLE
  5
325
100
AcDbEntity
  8
2
  6
CONTINUOUS
 62
     0
100
AcDbCircle
 10
0.0
 20
0.0
 40
2.75
  0
CIRCLE
  5
326
100
AcDbEntity
  8
2
  6
CONTINUOUS
 62
     0
100
AcDbCircle
 10
0.0
 20
0.0
 40
2.41
  0
LWPOLYLINE
  5
327
100
AcDbEntity
  8
2
  6
CONTINUOUS
 62
     0
100
AcDbPolyline
 90
        6
 70
     1
 43
0.0
 10
1.44337567297407
 20
0.0
 10
0.721687836487035
 20
1.25
 10
-0.721687836487945
 20
1.25
 10
-1.44337567297498
 20
0.0
 10
-0.721687836487945
 20
-1.25
 10
0.721687836487035
 20
-1.25
  0
ENDBLK
  5
328
100
AcDbEntity
  8
2
100
AcDbBlockEnd
  0
BLOCK
  5
32D
100
AcDbEntity
  8
7
100
AcDbBlockBegin
  2
SUB7
 70
    64
 10
0.0
 20
0.0
  0
CIRCLE
  5
32E
100
AcDbEntity
  8
2
  6
CONTINUOUS
 62
     0
100
AcDbCircle
 10
0.0
 20
0.0
 40
2.75
  0
CIRCLE
  5
32F
100
AcDbEntity
  8
2
  6
CONTINUOUS
 62
     0
100
AcDbCircle
 10
0.0
 20
0.0
 40
2.41
  0
LWPOLYLINE
  5
330
100
AcDbEntity
  8
2
  6
CONTINUOUS
 62
     0
100
AcDbPolyline
 90
        6
 70
     1
 43
0.0
 10
1.44337567297396
 20
0.0
 10
0.721687836487035
 20
1.25
 10
-0.721687836488059
 20
1.25
 10
-1.44337567297498
 20
0.0
 10
-0.721687836488059
 20
-1.25
 10
0.721687836487035
 20
-1.25
  0
ENDBLK
  5
331
100
AcDbEntity
  8
2
100
AcDbBlockEnd
  0
BLOCK
  5
34C
100
AcDbEntity
  8
2
100
AcDbBlockBegin
  2
SUB8
 70
    64
 10
0.0
 20
0.0
  0
LINE
  5
34D
100
AcDbEntity
  8
2
  6
CONTINUOUS
 62
     0
100
AcDbLine
 10
-2.75
 20
0.0
 11
2.75
 21
0.0
  0
LINE
  5
34E
100
AcDbEntity
  8
2
  6
CONTINUOUS
 62
     0
100
AcDbLine
 10
-2.75
 20
0.700000000000045
 11
2.75
 21
0.700000000000045
  0
LINE
  5
34F
100
AcDbEntity
  8
2
  6
CONTINUOUS
 62
     0
100
AcDbLine
 10
2.75
 20
3.5
 11
2.75
 21
0.0
  0
LINE
  5
350
100
AcDbEntity
  8
2
  6
CONTINUOUS
 62
     0
100
AcDbLine
 10
-2.75
 20
3.5
 11
-2.75
 21
0.0
  0
LINE
  5
351
100
AcDbEntity
  8
2
  6
CONTINUOUS
 62
     0
100
AcDbLine
 10
-2.40358983848699
 20
3.70000000000005
 11
2.403589838486
 21
3.70000000000005
  0
LINE
  5
352
100
AcDbEntity
  8
2
  6
CONTINUOUS
 62
     0
100
AcDbLine
 10
-2.75
 20
3.5
 11
2.75
 21
3.5
  0
LINE
  5
353
100
AcDbEntity
  8
2
  6
CONTINUOUS
 62
     0
100
AcDbLine
 10
2.75
 20
3.5
 11
2.403589838486
 21
3.70000000000005
  0
LINE
  5
354
100
AcDbEntity
  8
2
  6
CONTINUOUS
 62
     0
100
AcDbLine
 10
-2.75
 20
3.5
 11
-2.40358983848699
 21
3.70000000000005
  0
LINE
  5
355
100
AcDbEntity
  8
2
  6
CONTINUOUS
 62
     0
100
AcDbLine
 10
0.0
 20
0.700000000000045
 11
-0.885575294494998
 21
0.0
  0
LINE
  5
356
100
AcDbEntity
  8
2
  6
CONTINUOUS
 62
     0
100
AcDbLine
 10
0.0
 20
0.0
 11
0.883089601993021
 21
0.700000000000045
  0
ENDBLK
  5
357
100
AcDbEntity
  8
2
100
AcDbBlockEnd
  0
BLOCK
  5
3F8
100
AcDbEntity
  8
8
100
AcDbBlockBegin
  2
COMP1
 70
    64
 10
0.0
 20
0.0
  0
ARC
  5
3F9
100
AcDbEntity
  8
8
  6
HIDDEN
 62
     7
100
AcDbCircle
 10
273.798555222877
 20
97.469459763808
 40
0.999999999999799
100
AcDbArc
 50
140.973249391038
 51
183.909314269294
  0
LINE
  5
3FA
100
AcDbEntity
  8
8
  6
HIDDEN
 62
     7
100
AcDbLine
 10
272.700000000001
 20
73.799999999262
 11
272.700000000001
 21
75.599999999262
  0
LINE
  5
3FB
100
AcDbEntity
  8
8
  6
HIDDEN
 62
     7
100
AcDbLine
 10
272.700000000001
 20
73.799999999262
 11
271.200000000001
 21
73.799999999262
  0
LINE
  5
3FC
100
AcDbEntity
  8
8
  6
HIDDEN
 62
     7
100
AcDbLine
 10
271.200000000001
 20
101.199999999262
 11
286.4
 21
101.199999999262
  0
LINE
  5
3FD
100
AcDbEntity
  8
8
  6
HIDDEN
 62
     7
100
AcDbLine
 10
287.4
 20
100.199999999262
 11
287.4
 21
74.799999999262
  0
ARC
  5
3FE
100
AcDbEntity
  8
8
  6
HIDDEN
 62
     7
100
AcDbCircle
 10
286.4
 20
100.199999999262
 40
1.0
100
AcDbArc
 50
0.0
 51
90.0
  0
LINE
  5
3FF
100
AcDbEntity
  8
8
  6
HIDDEN
 62
     7
100
AcDbLine
 10
286.4
 20
73.799999999262
 11
277.500000000001
 21
73.799999999262
  0
ARC
  5
400
100
AcDbEntity
  8
8
  6
HIDDEN
 62
     7
100
AcDbCircle
 10
286.4
 20
74.799999999262
 40
0.999999999999886
100
AcDbArc
 50
270.0
 51
0.0
  0
LINE
  5
401
100
AcDbEntity
  8
8
  6
HIDDEN
 62
     7
100
AcDbLine
 10
277.5
 20
73.799999999262
 11
277.5
 21
75.599999999262
  0
LINE
  5
402
100
AcDbEntity
  8
8
  6
HIDDEN
 62
     7
100
AcDbLine
 10
272.700000000001
 20
75.599999999262
 11
277.5
 21
75.599999999262
  0
LINE
  5
403
100
AcDbEntity
  8
8
  6
HIDDEN
 62
     7
100
AcDbLine
 10
286.4
 20
101.199999999262
 11
286.4
 21
77.779167423416
  0
LINE
  5
404
100
AcDbEntity
  8
8
  6
HIDDEN
 62
     7
100
AcDbLine
 10
286.4
 20
73.800000000738
 11
286.4
 21
74.519173999124
  0
LINE
  5
405
100
AcDbEntity
  8
8
  6
HIDDEN
 62
     7
100
AcDbLine
 10
286.4
 20
77.779167423416
 11
287.4
 21
77.779167423416
  0
LINE
  5
406
100
AcDbEntity
  8
8
  6
HIDDEN
 62
     7
100
AcDbLine
 10
286.4
 20
74.519173999124
 11
287.359758697399
 21
74.519173999124
  0
ELLIPSE
  5
407
100
AcDbEntity
  8
8
  6
HIDDEN
 62
     7
100
AcDbEllipse
 10
275.200000000001
 20
98.98378888039
 30
0.0
 11
2.5
 21
0.0
 31
0.0
210
0.0
220
0.0
230
1.0
 40
0.694817478477603
 41
0.0
 42
3.14159265358979
  0
ELLIPSE
  5
408
100
AcDbEntity
  8
8
  6
HIDDEN
 62
     7
100
AcDbEllipse
 10
286.4
 20
98.98378888039
 30
0.0
 11
0.0
 21
-21.204621456972
 31
0.0
210
0.0
220
0.0
230
1.0
 40
0.410287918492338
 41
4.71238898038469
 42
6.28318530717959
  0
ELLIPSE
  5
409
100
AcDbEntity
  8
8
  6
HIDDEN
 62
     7
100
AcDbEllipse
 10
286.4
 20
100.364741785638
 30
0.0
 11
0.0
 21
-24.4646148812665
 31
0.0
210
0.0
220
0.0
230
1.0
 40
0.559992465300962
 41
4.83381966578049
 42
6.28318530717959
  0
LINE
  5
40A
100
AcDbEntity
  8
8
  6
HIDDEN
 62
     7
100
AcDbLine
 10
286.4
 20
75.900126904371
 11
287.359758697399
 21
75.900126904371
  0
ELLIPSE
  5
40B
100
AcDbEntity
  8
8
  6
HIDDEN
 62
     7
100
AcDbEllipse
 10
275.200000000001
 20
97.246745184196
 30
0.0
 11
2.5
 21
0.0
 31
0.0
210
0.0
220
0.0
230
1.0
 40
0.694817478477194
 41
0.0
 42
2.62867962644564
  0
SPLINE
  5
40C
100
AcDbEntity
  8
8
  6
HIDDEN
 62
     7
100
AcDbSpline
210
0.0
220
0.0
230
1.0
 70
     8
 71
     3
 72
     8
 73
     4
 74
     0
 42
1.00000000000000E-007
 43
1.00000000000000E-007
 40
0.0
 40
0.0
 40
0.0
 40
0.0
 40
28.0393898166246
 40
28.0393898166246
 40
28.0393898166246
 40
28.0393898166246
 10
272.700000000001
 20
98.98378888039
 30
0.0
 10
272.700000000001
 20
85.472355170983
 30
0.0
 10
278.833698927319
 20
74.519173999124
 30
0.0
 10
286.4
 20
74.519173999124
 30
0.0
  0
ENDBLK
  5
40D
100
AcDbEntity
  8
8
100
AcDbBlockEnd
  0
BLOCK
  5
410
100
AcDbEntity
  8
8
100
AcDbBlockBegin
  2
COMP2
 70
    64
 10
0.0
 20
0.0
  0
LINE
  5
411
100
AcDbEntity
  8
8
  6
HIDDEN
 62
     7
100
AcDbLine
 10
271.200000000001
 20
31.699999999265
 11
286.400000000001
 21
31.699999999265
  0
ARC
  5
412
100
AcDbEntity
  8
8
  6
HIDDEN
 62
     7
100
AcDbCircle
 10
286.400000000001
 20
30.699999999265
 40
1.0
100
AcDbArc
 50
0.0
 51
90.0
  0
LINE
  5
413
100
AcDbEntity
  8
8
  6
HIDDEN
 62
     7
100
AcDbLine
 10
286.400000000001
 20
31.699999999265
 11
286.400000000001
 21
8.27916742341898
  0
ELLIPSE
  5
414
100
AcDbEntity
  8
8
  6
HIDDEN
 62
     7
100
AcDbEllipse
 10
275.200000000002
 20
29.483788880393
 30
0.0
 11
2.5
 21
0.0
 31
0.0
210
0.0
220
0.0
230
1.0
 40
0.694817478477216
 41
0.0
 42
3.14159265358979
  0
ELLIPSE
  5
415
100
AcDbEntity
  8
8
  6
HIDDEN
 62
     7
100
AcDbEllipse
 10
286.400000000001
 20
29.4837888803925
 30
0.0
 11
0.0
 21
-21.2046214569725
 31
0.0
210
0.0
220
0.0
230
1.0
 40
0.410287918492329
 41
4.71238898038469
 42
6.28318530717959
  0
ELLIPSE
  5
416
100
AcDbEntity
  8
8
  6
HIDDEN
 62
     7
100
AcDbEllipse
 10
286.400000000001
 20
29.4837888803925
 30
0.0
 11
0.0
 21
-24.4646148812665
 31
0.0
210
0.0
220
0.0
230
1.0
 40
0.559992465300962
 41
4.71238898038469
 42
6.28318530717959
  0
ELLIPSE
  5
417
100
AcDbEntity
  8
8
  6
HIDDEN
 62
     7
100
AcDbEllipse
 10
286.400000000001
 20
30.86474178564
 30
0.0
 11
0.0
 21
-24.464614881266
 31
0.0
210
0.0
220
0.0
230
1.0
 40
0.559992465300973
 41
4.83381966578052
 42
6.28318530717959
  0
ELLIPSE
  5
418
100
AcDbEntity
  8
8
  6
HIDDEN
 62
     7
100
AcDbEllipse
 10
275.200000000002
 20
27.746745184199
 30
0.0
 11
2.5
 21
0.0
 31
0.0
210
0.0
220
0.0
230
1.0
 40
0.69481747847758
 41
0.0
 42
2.62867962644642
  0
ARC
  5
419
100
AcDbEntity
  8
8
  6
HIDDEN
 62
     7
100
AcDbCircle
 10
273.798555222878
 20
27.969459763811
 40
0.999999999999843
100
AcDbArc
 50
140.973249391084
 51
183.909314269353
  0
LINE
  5
41A
100
AcDbEntity
  8
8
  6
HIDDEN
 62
     7
100
AcDbLine
 10
287.400000000001
 20
30.699999999265
 11
287.400000000001
 21
5.29999999926503
  0
LINE
  5
41B
100
AcDbEntity
  8
8
  6
HIDDEN
 62
     7
100
AcDbLine
 10
286.400000000001
 20
4.29999999926503
 11
277.500000000002
 21
4.29999999926503
  0
ARC
  5
41C
100
AcDbEntity
  8
8
  6
HIDDEN
 62
     7
100
AcDbCircle
 10
286.400000000001
 20
5.29999999926503
 40
0.999999999999886
100
AcDbArc
 50
270.0
 51
0.0
  0
LINE
  5
41D
100
AcDbEntity
  8
8
  6
HIDDEN
 62
     7
100
AcDbLine
 10
272.700000000001
 20
4.29999999926503
 11
272.700000000001
 21
6.09999999926498
  0
LINE
  5
41E
100
AcDbEntity
  8
8
  6
HIDDEN
 62
     7
100
AcDbLine
 10
277.500000000001
 20
4.29999999926503
 11
277.500000000001
 21
6.09999999926498
  0
LINE
  5
41F
100
AcDbEntity
  8
8
  6
HIDDEN
 62
     7
100
AcDbLine
 10
272.700000000001
 20
6.09999999926498
 11
277.500000000001
 21
6.09999999926498
  0
LINE
  5
420
100
AcDbEntity
  8
8
  6
HIDDEN
 62
     7
100
AcDbLine
 10
272.700000000002
 20
4.29999999926503
 11
271.200000000001
 21
4.29999999926503
  0
LINE
  5
421
100
AcDbEntity
  8
8
  6
HIDDEN
 62
     7
100
AcDbLine
 10
286.400000000001
 20
4.30000000074102
 11
286.400000000001
 21
5.019173999126
  0
LINE
  5
422
100
AcDbEntity
  8
8
  6
HIDDEN
 62
     7
100
AcDbLine
 10
286.400000000001
 20
8.27916742341898
 11
287.400000000001
 21
8.27916742341898
  0
LINE
  5
423
100
AcDbEntity
  8
8
  6
HIDDEN
 62
     7
100
AcDbLine
 10
286.400000000001
 20
5.019173999126
 11
287.359758697399
 21
5.019173999126
  0
LINE
  5
424
100
AcDbEntity
  8
8
  6
HIDDEN
 62
     7
100
AcDbLine
 10
286.400000000001
 20
6.40012690437396
 11
287.359758697399
 21
6.40012690437396
  0
ENDBLK
  5
425
100
AcDbEntity
  8
8
100
AcDbBlockEnd
  0
ENDSEC
  0
SECTION
  2
ENTITIES
  0
INSERT
  5
25
100
AcDbEntity
  8
2
  6
CONTINUOUS
100
AcDbBlockReference
  2
SUB1
 10
36.0
 20
0.0
 41
1.0
 42
1.0
 50
0.0
  0
INSERT
  5
130
100
AcDbEntity
  8
2
  6
CONTINUOUS
100
AcDbBlockReference
  2
SUB2
 10
36.0
 20
87.5
 41
1.0
 42
1.0
 50
0.0
  0
DIMENSION
  5
210
100
AcDbEntity
  8
4
  6
CONTINUOUS
 62
     2
100
AcDbDimension
  2
*D1
 10
0.0
 20
38.0
 11
6.0
 21
38.0
 70
    32
  3
ISO-25
100
AcDbAlignedDimension
 13
12.0
 23
6.0
 14
0.0
 24
4.25
 50
180.0
100
AcDbRotatedDimension
  0
DIMENSION
  5
220
100
AcDbEntity
  8
4
  6
CONTINUOUS
 62
     2
100
AcDbDimension
  2
*D2
 10
0.0
 20
47.0
 11
16.0
 21
47.0
 70
    32
  3
ISO-25
100
AcDbAlignedDimension
 13
32.0
 23
17.0
 14
0.0
 24
4.25
 50
180.0
100
AcDbRotatedDimension
  0
DIMENSION
  5
232
100
AcDbEntity
  8
4
  6
CONTINUOUS
 62
     2
100
AcDbDimension
  2
*D3
 10
-12.3910825315194
 20
-17.5
 11
-13.3910825315194
 21
-4.875
 70
    32
  3
ISO-25
100
AcDbAlignedDimension
 13
32.5
 23
17.5
 14
32.5
 24
-17.5
 50
270.0
100
AcDbRotatedDimension
1001
ACAD
1000
DSTYLE
1002
{
1070
    47
1040
-0.05
1070
    48
1040
0.1
1070
    71
1070
     1
1070
   146
1040
0.714285714285714
1070
   272
1070
     2
1002
}
  0
DIMENSION
  5
242
100
AcDbEntity
  8
4
  6
CONTINUOUS
 62
     2
100
AcDbDimension
  2
*D4
 10
36.0
 20
47.0
 11
161.700000000001
 21
47.0
 70
    32
  3
ISO-25
100
AcDbAlignedDimension
 13
287.400000000001
 23
33.730738767203
 14
36.0
 24
27.5
 50
180.0
100
AcDbRotatedDimension
  0
LINE
  5
243
100
AcDbEntity
  8
6
  6
CENTER
100
AcDbLine
 10
-4.0
 20
0.0
 11
292.000000000001
 21
0.0
  0
DIMENSION
  5
255
100
AcDbEntity
  8
4
  6
CONTINUOUS
 62
     2
100
AcDbDimension
  2
*D5
 10
36.0
 20
47.0
 11
34.0
 21
47.0
 70
    32
  3
ISO-25
100
AcDbAlignedDimension
 13
32.0
 23
17.0
 14
36.0
 24
27.5
 50
0.0
100
AcDbRotatedDimension
  0
DIMENSION
  5
265
100
AcDbEntity
  8
4
  6
CONTINUOUS
 62
     2
100
AcDbDimension
  2
*D6
 10
1.42108547152020E-014
 20
56.0
 11
143.7
 21
56.0
 70
    32
  3
ISO-25
100
AcDbAlignedDimension
 13
287.400000000001
 23
30.699999999265
 14
0.0
 24
4.25
 50
180.0
100
AcDbRotatedDimension
  0
DIMENSION
  5
275
100
AcDbEntity
  8
4
  6
CONTINUOUS
 62
     2
100
AcDbDimension
  2
*D7
 10
-23.999999999999
 20
56.0
 11
-42.999999999999
 21
56.0
 70
    32
  3
ISO-25
100
AcDbAlignedDimension
 13
-61.999999999999
 23
19.880895352071
 14
-23.999999999999
 24
19.880895352071
 50
0.0
100
AcDbRotatedDimension
  0
DIMENSION
  5
284
100
AcDbEntity
  8
4
  6
CONTINUOUS
 62
     2
100
AcDbDimension
  2
*D8
 10
-55.2983738762478
 20
24.596747752498
 11
-67.999999999999
 21
42.0
 70
    35
  3
ISO-25
100
AcDbDiametricDimension
 15
-30.7016261237502
 25
-24.596747752498
1001
ACAD
1000
DSTYLE
1002
{
1070
   280
1070
     1
1002
}
  0
ARC
  5
285
100
AcDbEntity
  8
4
  6
CONTINUOUS
 62
     2
100
AcDbCircle
 10
-42.999999999999
 20
0.0
 40
27.5
100
AcDbArc
 50
275.702114437356
 51
300.603294608207
  0
ARC
  5
286
100
AcDbEntity
  8
4
  6
CONTINUOUS
 62
     2
100
AcDbCircle
 10
-42.999999999999
 20
0.0
 40
27.4999999999997
100
AcDbArc
 50
95.7021144373569
 51
119.744881296943
  0
DIMENSION
  5
297
100
AcDbEntity
  8
4
  6
CONTINUOUS
 62
     2
100
AcDbDimension
  2
*D9
 10
-38.249999999999
 20
-31.3496993197982
 11
-29.937499999999
 21
-31.3496993197982
 70
    32
  3
ISO-25
100
AcDbAlignedDimension
 13
-47.749999999999
 23
-3.66571957465402
 14
-38.249999999999
 24
-3.66571957465402
 50
0.0
100
AcDbRotatedDimension
1001
ACAD
1000
DSTYLE
1002
{
1070
   280
1070
     2
1002
}
  0
DIMENSION
  5
2A2
100
AcDbEntity
  8
4
  6
CONTINUOUS
 62
     2
100
AcDbDimension
  2
*D10
 10
-42.9999901169678
 20
-22.5
 11
-62.312499999999
 21
-35.0
 70
    36
  3
ISO-25
100
AcDbRadialDimension
 15
-45.2378038025819
 25
-24.498046523101
  0
LINE
  5
2A3
100
AcDbEntity
  8
6
  6
CENTER
100
AcDbLine
 10
-22.999999999999
 20
0.0
 11
-62.999999999999
 21
0.0
  0
LINE
  5
2A4
100
AcDbEntity
  8
6
  6
CENTER
100
AcDbLine
 10
-25.499999999999
 20
18.0
 11
-32.0385463646206
 21
18.0
  0
LINE
  5
2A5
100
AcDbEntity
  8
6
  6
CENTER
100
AcDbLine
 10
-54.1362289283357
 20
18.0
 11
-60.499999999999
 21
18.0
  0
LINE
  5
2A6
100
AcDbEntity
  8
6
  6
CENTER
100
AcDbLine
 10
-42.999999999999
 20
31.5
 11
-42.999999999999
 21
-30.861115664172
  0
LINE
  5
2A7
100
AcDbEntity
  8
2
  6
CONTINUOUS
100
AcDbLine
 10
-40.267697044722
 20
-27.363927359949
 11
-23.999999999999
 21
-6.54222465250297
  0
LINE
  5
2A8
100
AcDbEntity
  8
2
  6
CONTINUOUS
100
AcDbLine
 10
-45.732302955276
 20
-27.363927359949
 11
-46.3659425639978
 21
-26.552905644939
  0
LINE
  5
2A9
100
AcDbEntity
  8
2
  6
CONTINUOUS
100
AcDbLine
 10
-46.3659425639978
 20
-26.552905644939
 11
-47.3214964042933
 21
-25.329852502943
  0
LINE
  5
2AA
100
AcDbEntity
  8
2
  6
CONTINUOUS
100
AcDbLine
 10
-47.3214964042933
 20
-25.329852502943
 11
-61.9999999999966
 21
-6.54222465250103
  0
LINE
  5
2AB
100
AcDbEntity
  8
2
  6
CONTINUOUS
100
AcDbLine
 10
-23.999999999999
 20
-6.54222465250297
 11
-23.999999999999
 21
19.880895352071
  0
LINE
  5
2AC
100
AcDbEntity
  8
2
  6
CONTINUOUS
100
AcDbLine
 10
-61.999999999999
 20
-6.54222465250297
 11
-61.999999999999
 21
19.880895352071
  0
LINE
  5
2AD
100
AcDbEntity
  8
6
  6
CENTER
100
AcDbLine
 10
-28.499999999999
 20
21.0
 11
-28.499999999999
 21
14.0
  0
LINE
  5
2AE
100
AcDbEntity
  8
6
  6
CENTER
100
AcDbLine
 10
-57.499999999999
 20
21.0
 11
-57.499999999999
 21
14.0
  0
ARC
  5
2AF
100
AcDbEntity
  8
2
  6
CONTINUOUS
100
AcDbCircle
 10
-42.999999999999
 20
0.0
 40
27.5
100
AcDbArc
 50
46.297885562644
 51
54.9031987724152
  0
ARC
  5
2B0
100
AcDbEntity
  8
2
  6
CONTINUOUS
100
AcDbCircle
 10
-42.999999999999
 20
0.0
 40
27.5
100
AcDbArc
 50
84.2978855626431
 51
95.7021144373569
  0
ARC
  5
2B1
100
AcDbEntity
  8
2
  6
CONTINUOUS
100
AcDbCircle
 10
-42.999999999999
 20
0.0
 40
27.5
100
AcDbArc
 50
125.096801227584
 51
133.702114437356
  0
ARC
  5
2B2
100
AcDbEntity
  8
2
  6
CONTINUOUS
100
AcDbCircle
 10
-42.999999999999
 20
0.0
 40
27.5
100
AcDbArc
 50
264.297885562643
 51
275.702114437357
  0
CIRCLE
  5
2B3
100
AcDbEntity
  8
8
  6
CONTINUOUS
 62
     7
100
AcDbCircle
 10
-43.0
 20
-22.5000057220459
 40
3.0
  0
CIRCLE
  5
2B5
100
AcDbEntity
  8
2
  6
CONTINUOUS
100
AcDbCircle
 10
-43.0
 20
-22.5000057220459
 40
2.5
  0
CIRCLE
  5
2B6
100
AcDbEntity
  8
2
  6
CONTINUOUS
100
AcDbCircle
 10
-43.0
 20
22.5000095367432
 40
2.5
  0
CIRCLE
  5
2B7
100
AcDbEntity
  8
8
  6
CONTINUOUS
 62
     7
100
AcDbCircle
 10
-43.0
 20
22.5000095367432
 40
3.0
  0
CIRCLE
  5
2B8
100
AcDbEntity
  8
2
  6
CONTINUOUS
100
AcDbCircle
 10
-42.999999999999
 20
0.0
 40
17.5
  0
CIRCLE
  5
2B9
100
AcDbEntity
  8
2
  6
CONTINUOUS
100
AcDbCircle
 10
-42.999999999999
 20
0.0
 40
6.0
  0
LINE
  5
2BA
100
AcDbEntity
  8
2
  6
CONTINUOUS
100
AcDbLine
 10
-46.665719574653
 20
4.75
 11
-39.334280425345
 21
4.75
  0
LINE
  5
2BB
100
AcDbEntity
  8
2
  6
CONTINUOUS
100
AcDbLine
 10
-46.665719574653
 20
-4.75
 11
-39.334280425345
 21
-4.75
  0
LINE
  5
2BC
100
AcDbEntity
  8
2
  6
CONTINUOUS
100
AcDbLine
 10
-47.749999999999
 20
-3.66571957465402
 11
-47.749999999999
 21
3.66571957465402
  0
LINE
  5
2BD
100
AcDbEntity
  8
2
  6
CONTINUOUS
100
AcDbLine
 10
-38.249999999999
 20
-3.66571957465402
 11
-38.249999999999
 21
3.66571957465402
  0
CIRCLE
  5
2BE
100
AcDbEntity
  8
2
  6
CONTINUOUS
100
AcDbCircle
 10
-42.999999999999
 20
0.0
 40
15.0
  0
CIRCLE
  5
2BF
100
AcDbEntity
  8
8
  6
CONTINUOUS
 62
     7
100
AcDbCircle
 10
-42.999999999999
 20
0.0
 40
14.188
  0
LINE
  5
2C0
100
AcDbEntity
  8
7
  6
HIDDEN
 62
    40
100
AcDbLine
 10
-47.249999999999
 20
-1.59999999999997
 11
-47.749999999999
 21
-2.09999999999997
  0
LINE
  5
2C1
100
AcDbEntity
  8
7
  6
HIDDEN
 62
    40
100
AcDbLine
 10
-47.249999999999
 20
-1.59999999999997
 11
-47.249999999999
 21
1.59999999999997
  0
LINE
  5
2C2
100
AcDbEntity
  8
7
  6
HIDDEN
 62
    40
100
AcDbLine
 10
-47.249999999999
 20
1.59999999999997
 11
-47.749999999999
 21
2.09999999999997
  0
LINE
  5
2C3
100
AcDbEntity
  8
7
  6
HIDDEN
 62
    40
100
AcDbLine
 10
-38.749999999999
 20
1.59999999999997
 11
-47.249999999999
 21
1.59999999999997
  0
LINE
  5
2C4
100
AcDbEntity
  8
7
  6
HIDDEN
 62
    40
100
AcDbLine
 10
-38.749999999999
 20
-1.59999999999997
 11
-47.249999999999
 21
-1.59999999999997
  0
LINE
  5
2C5
100
AcDbEntity
  8
7
  6
HIDDEN
 62
    40
100
AcDbLine
 10
-38.749999999999
 20
-1.59999999999997
 11
-38.749999999999
 21
1.59999999999997
  0
LINE
  5
2C6
100
AcDbEntity
  8
7
  6
HIDDEN
 62
    40
100
AcDbLine
 10
-38.749999999999
 20
-1.59999999999997
 11
-38.249999999999
 21
-2.09999999999997
  0
LINE
  5
2C7
100
AcDbEntity
  8
7
  6
HIDDEN
 62
    40
100
AcDbLine
 10
-38.749999999999
 20
1.59999999999997
 11
-38.249999999999
 21
2.09999999999997
  0
CIRCLE
  5
2C8
100
AcDbEntity
  8
2
  6
CONTINUOUS
100
AcDbCircle
 10
-31.999999999999
 20
0.0
 40
1.75
  0
CIRCLE
  5
2C9
100
AcDbEntity
  8
2
  6
CONTINUOUS
100
AcDbCircle
 10
-42.999999999999
 20
-11.0
 40
1.75
  0
CIRCLE
  5
2CA
100
AcDbEntity
  8
2
  6
CONTINUOUS
100
AcDbCircle
 10
-53.999999999999
 20
0.0
 40
1.75
  0
CIRCLE
  5
2CB
100
AcDbEntity
  8
2
  6
CONTINUOUS
100
AcDbCircle
 10
-42.999999999999
 20
11.0
 40
1.75
  0
LINE
  5
2CC
100
AcDbEntity
  8
2
  6
CONTINUOUS
100
AcDbLine
 10
-58.8113883008409
 20
22.5
 11
-49.532419489978
 21
22.5
  0
LINE
  5
2CD
100
AcDbEntity
  8
2
  6
CONTINUOUS
100
AcDbLine
 10
-36.467580510022
 20
22.5
 11
-27.188611699157
 21
22.5
  0
LINE
  5
2CE
100
AcDbEntity
  8
2
  6
CONTINUOUS
100
AcDbLine
 10
-40.267697044722
 20
27.363927359949
 11
-23.999999999999
 21
6.54222465250297
  0
LINE
  5
2CF
100
AcDbEntity
  8
2
  6
CONTINUOUS
100
AcDbLine
 10
-45.732302955276
 20
27.363927359949
 11
-61.999999999999
 21
6.54222465251001
  0
ARC
  5
2D0
100
AcDbEntity
  8
6
  6
CENTER
100
AcDbCircle
 10
-42.999999999999
 20
0.0
 40
22.5
100
AcDbArc
 50
59.8391533975314
 51
105.536242588094
  0
ARC
  5
2D1
100
AcDbEntity
  8
6
  6
CENTER
100
AcDbCircle
 10
-42.999999999999
 20
0.0
 40
22.5
100
AcDbArc
 50
238.645305877262
 51
282.991482174832
  0
DIMENSION
  5
2E0
100
AcDbEntity
  8
4
  6
CONTINUOUS
 62
     2
100
AcDbDimension
  2
*D11
 10
-53.0623058987481
 20
-20.124611797498
 11
-60.999999999999
 21
-28.0
 70
    35
  3
ISO-25
100
AcDbDiametricDimension
 15
-32.9376941012499
 25
20.124611797498
1001
ACAD
1000
DSTYLE
1002
{
1070
   280
1070
     1
1002
}
  0
DIMENSION
  5
2F0
100
AcDbEntity
  8
4
  6
CONTINUOUS
 62
     2
100
AcDbDimension
  2
*D12
 10
-43.0000000000004
 20
-52.5000000000001
 11
-43.0000000000004
 21
-52.5
 70
    37
  3
ISO-25
100
AcDb3PointAngularDimension
 13
-42.9999999999993
 23
-30.861115664173
 14
-42.9999999999993
 24
-30.861115664173
 15
-42.9999999999993
 25
-30.861115664173
  0
LINE
  5
2F1
100
AcDbEntity
  8
4
  6
CONTINUOUS
 62
     2
100
AcDbLine
 10
-45.732302955276
 20
-27.363927359949
 11
-42.6921692623366
 21
-31.255121040976
  0
LINE
  5
2F2
100
AcDbEntity
  8
4
  6
CONTINUOUS
 62
     2
100
AcDbLine
 10
-40.267697044722
 20
-27.363927359949
 11
-43.3078307376622
 21
-31.255121040976
  0
ARC
  5
2F3
100
AcDbEntity
  8
7
  6
CENTER2
 62
    40
100
AcDbCircle
 10
-42.999999999999
 20
0.0
 40
11.0
100
AcDbArc
 50
345.341195164515
 51
285.099647538036
  0
MTEXT
  5
2F4
100
AcDbEntity
  8
4
  6
CONTINUOUS
 62
     2
100
AcDbMText
 10
-33.927634229602
 20
-2.86681078349
 40
3.5
 41
0.0
 11
-0.5
 21
-0.866025403784438
 71
     7
 72
     5
  7
STANDARD
  1
{\T1.60714;\W0.666667;O}
  0
MTEXT
  5
2F5
100
AcDbEntity
  8
4
  6
CONTINUOUS
 62
     2
100
AcDbMText
 10
-35.005049062448
 20
-5.03282317439499
 40
3.5
 41
0.0
 11
-0.642787609686539
 21
-0.766044443118978
 71
     7
 72
     5
  7
STANDARD
  1
{\T1.60714;\W0.666667;F}
  0
MTEXT
  5
2F6
100
AcDbEntity
  8
4
  6
CONTINUOUS
 62
     2
100
AcDbMText
 10
-36.291045751155
 20
-6.55730431797701
 40
3.5
 41
0.0
 11
-0.766044443118978
 21
-0.642787609686539
 71
     7
 72
     5
  7
STANDARD
  1
{\T1.60714;\W0.666667;F}
  0
MTEXT
  5
2F7
100
AcDbEntity
  8
4
  6
CONTINUOUS
 62
     2
100
AcDbMText
 10
-37.678524545407
 20
-7.46609287768598
 40
3.5
 41
0.0
 11
-0.866025403784439
 21
-0.5
 71
     7
 72
     5
  7
BIGFONT
  1
{\T1.25;\W1.05263;→}
  0
LINE
  5
2F8
100
AcDbEntity
  8
7
  6
CENTER2
 62
    40
100
AcDbLine
 10
407.669054358232
 20
0.0
 11
453.737179802359
 21
0.0
  0
LINE
  5
2F9
100
AcDbEntity
  8
7
  6
CENTER2
 62
    40
100
AcDbLine
 10
430.593587684068
 20
-31.3172012779629
 11
430.593587684068
 21
39.7370261019628
  0
LINE
  5
2FA
100
AcDbEntity
  8
2
  6
CONTINUOUS
100
AcDbLine
 10
427.861284728791
 20
-27.363927359949
 11
411.593587684086
 21
-6.54222465248967
  0
LINE
  5
2FB
100
AcDbEntity
  8
2
  6
CONTINUOUS
100
AcDbLine
 10
411.593587684068
 20
-6.54222465250297
 11
411.593587684068
 21
19.880895352071
  0
ARC
  5
2FC
100
AcDbEntity
  8
2
  6
CONTINUOUS
100
AcDbCircle
 10
430.593587684068
 20
0.0
 40
18.0
100
AcDbArc
 50
180.0
 51
220.000000000001
  0
ARC
  5
2FD
100
AcDbEntity
  8
2
  6
CONTINUOUS
100
AcDbCircle
 10
430.593587684068
 20
0.0
 40
18.0
100
AcDbArc
 50
320.000000000001
 51
0.0
  0
ARC
  5
2FE
100
AcDbEntity
  8
6
  6
CENTER
100
AcDbCircle
 10
430.593587684068
 20
0.0
 40
22.5
100
AcDbArc
 50
256.615700447942
 51
282.991482174831
  0
ARC
  5
2FF
100
AcDbEntity
  8
2
  6
CONTINUOUS
100
AcDbCircle
 10
430.593587684068
 20
0.0
 40
19.9999999999996
100
AcDbArc
 50
245.841932763167
 51
294.158067236836
  0
LINE
  5
300
100
AcDbEntity
  8
2
  6
CONTINUOUS
100
AcDbLine
 10
422.408480173494
 20
-18.2483976019901
 11
416.804787707927
 21
-11.5701769743577
  0
ARC
  5
301
100
AcDbEntity
  8
2
  6
CONTINUOUS
100
AcDbCircle
 10
430.593587684068
 20
0.0
 40
27.4999999999997
100
AcDbArc
 50
264.297885562647
 51
275.702114437357
  0
LINE
  5
302
100
AcDbEntity
  8
2
  6
CONTINUOUS
100
AcDbLine
 10
433.325890639345
 20
-27.363927359949
 11
449.593587684068
 21
-6.54222465250297
  0
LINE
  5
303
100
AcDbEntity
  8
2
  6
CONTINUOUS
100
AcDbLine
 10
438.778695194643
 20
-18.2483976019901
 11
444.38238766021
 21
-11.5701769743577
  0
LINE
  5
304
100
AcDbEntity
  8
2
  6
CONTINUOUS
100
AcDbLine
 10
449.593587684068
 20
-6.54222465250297
 11
449.593587684068
 21
19.880895352071
  0
LINE
  5
305
100
AcDbEntity
  8
2
  6
CONTINUOUS
100
AcDbLine
 10
448.593587684068
 20
34.0
 11
448.593587684068
 21
0.0
  0
LINE
  5
306
100
AcDbEntity
  8
2
  6
CONTINUOUS
100
AcDbLine
 10
412.593587684068
 20
34.0
 11
412.593587684068
 21
0.0
  0
ARC
  5
307
100
AcDbEntity
  8
2
  6
CONTINUOUS
100
AcDbCircle
 10
414.593587684068
 20
34.0
 40
2.0
100
AcDbArc
 50
90.0
 51
180.0
  0
LINE
  5
308
100
AcDbEntity
  8
2
  6
CONTINUOUS
100
AcDbLine
 10
414.593587684068
 20
36.0
 11
446.593587684068
 21
36.0
  0
ARC
  5
309
100
AcDbEntity
  8
2
  6
CONTINUOUS
100
AcDbCircle
 10
446.593587684068
 20
34.0
 40
2.0
100
AcDbArc
 50
0.0
 51
90.0
  0
CIRCLE
  5
30A
100
AcDbEntity
  8
2
  6
CONTINUOUS
100
AcDbCircle
 10
430.593587684068
 20
18.0
 40
13.7
  0
LINE
  5
30B
100
AcDbEntity
  8
7
  6
CENTER2
 62
    40
100
AcDbLine
 10
450.593587684068
 20
30.299998287199
 11
410.593587684068
 21
30.299998287199
  0
LINE
  5
30C
100
AcDbEntity
  8
7
  6
CENTER2
 62
    40
100
AcDbLine
 10
450.593587684068
 20
5.700001712801
 11
410.593587684068
 21
5.700001712801
  0
INSERT
  5
30E
100
AcDbEntity
  8
7
  6
CENTER2
 62
    40
100
AcDbBlockReference
  2
SUB3
 10
442.893585971267
 20
30.299998287199
 41
1.0
 42
1.0
 50
0.0
  0
INSERT
  5
315
100
AcDbEntity
  8
7
  6
CENTER2
 62
    40
100
AcDbBlockReference
  2
SUB4
 10
442.893585971267
 20
5.700001712801
 41
1.0
 42
1.0
 50
0.0
  0
INSERT
  5
31C
100
AcDbEntity
  8
7
  6
CENTER2
 62
    40
100
AcDbBlockReference
  2
SUB5
 10
418.293589396869
 20
5.700001712801
 41
1.0
 42
1.0
 50
0.0
  0
INSERT
  5
323
100
AcDbEntity
  8
7
  6
CENTER2
 62
    40
100
AcDbBlockReference
  2
SUB6
 10
418.293589396869
 20
30.299998287199
 41
1.0
 42
1.0
 50
0.0
  0
LINE
  5
329
100
AcDbEntity
  8
7
  6
CENTER2
 62
    40
100
AcDbLine
 10
442.893585971267
 20
37.6974590512049
 11
442.893585971267
 21
-1.53404981656735
  0
LINE
  5
32A
100
AcDbEntity
  8
7
  6
CENTER2
 62
    40
100
AcDbLine
 10
418.293589396869
 20
37.6974590512049
 11
418.293589396869
 21
-1.53404981656735
  0
INSERT
  5
32C
100
AcDbEntity
  8
7
  6
CENTER2
 62
    40
100
AcDbBlockReference
  2
SUB7
 10
430.593587684068
 20
-16.0
 41
1.0
 42
1.0
 50
0.0
  0
LINE
  5
332
100
AcDbEntity
  8
7
  6
CENTER2
 62
    40
100
AcDbLine
 10
437.907500260005
 20
-16.0
 11
423.168583550081
 21
-16.0
  0
ARC
  5
333
100
AcDbEntity
  8
2
  6
CONTINUOUS
100
AcDbCircle
 10
444.863587684806
 20
3.72999999926202
 40
2.0
100
AcDbArc
 50
270.0
 51
0.0
  0
LINE
  5
334
100
AcDbEntity
  8
2
  6
CONTINUOUS
100
AcDbLine
 10
446.863587684806
 20
32.269999999262
 11
446.863587684806
 21
3.72999999926202
  0
ARC
  5
335
100
AcDbEntity
  8
2
  6
CONTINUOUS
100
AcDbCircle
 10
444.863587684806
 20
32.269999999262
 40
2.0
100
AcDbArc
 50
0.0
 51
90.0
  0
LINE
  5
336
100
AcDbEntity
  8
2
  6
CONTINUOUS
100
AcDbLine
 10
416.32358768333
 20
34.269999999262
 11
444.863587684806
 21
34.269999999262
  0
ARC
  5
337
100
AcDbEntity
  8
2
  6
CONTINUOUS
100
AcDbCircle
 10
416.32358768333
 20
32.269999999262
 40
2.0
100
AcDbArc
 50
90.0
 51
180.0
  0
LINE
  5
338
100
AcDbEntity
  8
2
  6
CONTINUOUS
100
AcDbLine
 10
414.32358768333
 20
32.269999999262
 11
414.32358768333
 21
3.72999999926202
  0
LINE
  5
339
100
AcDbEntity
  8
2
  6
CONTINUOUS
100
AcDbLine
 10
416.32358768333
 20
1.72999999926202
 11
444.863587684806
 21
1.72999999926202
  0
ARC
  5
33A
100
AcDbEntity
  8
2
  6
CONTINUOUS
100
AcDbCircle
 10
416.32358768333
 20
3.72999999926202
 40
2.0
100
AcDbArc
 50
180.0
 51
270.0
  0
CIRCLE
  5
33B
100
AcDbEntity
  8
2
  6
CONTINUOUS
100
AcDbCircle
 10
430.593587684068
 20
18.0
 40
11.7
  0
LINE
  5
33C
100
AcDbEntity
  8
7
  6
CENTER2
 62
    40
100
AcDbLine
 10
449.293587684068
 20
18.0
 11
411.893587684068
 21
18.0
  0
ARC
  5
33D
100
AcDbEntity
  8
2
  6
CONTINUOUS
100
AcDbCircle
 10
430.593587684068
 20
-22.5
 40
4.24999999999999
100
AcDbArc
 50
139.458398126489
 51
40.5416018735113
  0
ARC
  5
33E
100
AcDbEntity
  8
2
  6
CONTINUOUS
100
AcDbCircle
 10
430.593587684068
 20
-22.5
 40
3.74999999999999
100
AcDbArc
 50
134.523495637217
 51
45.4765043627827
  0
LWPOLYLINE
  5
33F
100
AcDbEntity
  8
2
  6
CONTINUOUS
100
AcDbPolyline
 90
        6
 70
     1
 43
0.0
 10
430.593587684068
 20
-20.1905989232415
 10
428.593587684068
 20
-21.3452994616207
 10
428.593587684068
 20
-23.6547005383793
 10
430.593587684068
 20
-24.8094010767585
 10
432.593587684068
 20
-23.6547005383793
 10
432.593587684068
 20
-21.3452994616207
  0
LINE
  5
340
100
AcDbEntity
  8
2
  6
CONTINUOUS
100
AcDbLine
 10
-53.499999999999
 20
33.0
 11
-32.499999999999
 21
33.0
  0
LINE
  5
341
100
AcDbEntity
  8
2
  6
CONTINUOUS
100
AcDbLine
 10
-54.499999999999
 20
32.0
 11
-54.499999999999
 21
22.5
  0
LINE
  5
342
100
AcDbEntity
  8
2
  6
CONTINUOUS
100
AcDbLine
 10
-31.499999999999
 20
32.0
 11
-31.499999999999
 21
22.5
  0
LINE
  5
343
100
AcDbEntity
  8
2
  6
CONTINUOUS
100
AcDbLine
 10
-31.499999999999
 20
32.0
 11
-32.499999999999
 21
33.0
  0
LINE
  5
344
100
AcDbEntity
  8
2
  6
CONTINUOUS
100
AcDbLine
 10
-53.499999999999
 20
33.0
 11
-54.499999999999
 21
32.0
  0
LINE
  5
345
100
AcDbEntity
  8
2
  6
CONTINUOUS
100
AcDbLine
 10
-45.999999999999
 20
28.5
 11
-39.999999999999
 21
28.5
  0
LINE
  5
346
100
AcDbEntity
  8
2
  6
CONTINUOUS
100
AcDbLine
 10
-45.999999999999
 20
33.0
 11
-45.999999999999
 21
28.5
  0
LINE
  5
347
100
AcDbEntity
  8
2
  6
CONTINUOUS
100
AcDbLine
 10
-39.999999999999
 20
33.0
 11
-39.999999999999
 21
28.5
  0
LINE
  5
348
100
AcDbEntity
  8
2
  6
CONTINUOUS
100
AcDbLine
 10
-31.499999999999
 20
32.0
 11
-39.999999999999
 21
32.0
  0
LINE
  5
349
100
AcDbEntity
  8
2
  6
CONTINUOUS
100
AcDbLine
 10
-45.999999999999
 20
32.0
 11
-54.499999999999
 21
32.0
  0
INSERT
  5
34B
100
AcDbEntity
  8
2
  6
CONTINUOUS
100
AcDbBlockReference
  2
SUB8
 10
-42.999999999999
 20
28.5
 41
1.0
 42
1.0
 50
0.0
  0
LINE
  5
358
100
AcDbEntity
  8
2
  6
CONTINUOUS
100
AcDbLine
 10
-40.499999999999
 20
33.5
 11
-40.499999999999
 21
33.0
  0
ARC
  5
359
100
AcDbEntity
  8
2
  6
CONTINUOUS
100
AcDbCircle
 10
-41.999999999999
 20
33.5
 40
1.5
100
AcDbArc
 50
0.0
 51
90.0
  0
ARC
  5
35A
100
AcDbEntity
  8
2
  6
CONTINUOUS
100
AcDbCircle
 10
-43.999999999999
 20
33.5
 40
1.5
100
AcDbArc
 50
90.0
 51
180.0
  0
LINE
  5
35B
100
AcDbEntity
  8
2
  6
CONTINUOUS
100
AcDbLine
 10
-43.999999999999
 20
35.0000000000001
 11
-41.999999999999
 21
35.0000000000001
  0
LINE
  5
35C
100
AcDbEntity
  8
2
  6
CONTINUOUS
100
AcDbLine
 10
-45.499999999999
 20
33.5
 11
-45.499999999999
 21
33.0
  0
DIMENSION
  5
36C
100
AcDbEntity
  8
4
  6
CONTINUOUS
 62
     2
100
AcDbDimension
  2
*D13
 10
-70.4055092479964
 20
0.0
 11
-70.4055092479964
 21
16.5
 70
    32
  3
ISO-25
100
AcDbAlignedDimension
 13
-53.499999999999
 23
33.0
 14
-62.999999999999
 24
0.0
 50
270.0
100
AcDbRotatedDimension
  0
DIMENSION
  5
37C
100
AcDbEntity
  8
4
  6
CONTINUOUS
 62
     2
100
AcDbDimension
  2
*D14
 10
-31.499999999999
 20
47.0
 11
-42.999999999999
 21
47.0
 70
    32
  3
ISO-25
100
AcDbAlignedDimension
 13
-54.499999999999
 23
32.0
 14
-31.499999999999
 24
32.0
 50
0.0
100
AcDbRotatedDimension
  0
DIMENSION
  5
38C
100
AcDbEntity
  8
4
  6
CONTINUOUS
 62
     2
100
AcDbDimension
  2
*D15
 10
395.812577701464
 20
0.0
 11
395.812577701464
 21
18.0
 70
    32
  3
ISO-25
100
AcDbAlignedDimension
 13
414.593587684068
 23
36.0
 14
407.669054358232
 24
0.0
 50
270.0
100
AcDbRotatedDimension
  0
DIMENSION
  5
39C
100
AcDbEntity
  8
4
  6
CONTINUOUS
 62
     2
100
AcDbDimension
  2
*D16
 10
448.593587684068
 20
47.0
 11
430.593587684068
 21
47.0
 70
    32
  3
ISO-25
100
AcDbAlignedDimension
 13
412.593587684068
 23
34.0
 14
448.593587684068
 24
34.0
 50
0.0
100
AcDbRotatedDimension
  0
LINE
  5
39D
100
AcDbEntity
  8
2
  6
CONTINUOUS
100
AcDbLine
 10
-24.999999999999
 20
34.0
 11
-24.999999999999
 21
20.7906228862918
  0
ARC
  5
39E
100
AcDbEntity
  8
2
  6
CONTINUOUS
100
AcDbCircle
 10
-26.999999999999
 20
34.0
 40
2.0
100
AcDbArc
 50
0.0
 51
90.0
  0
LINE
  5
39F
100
AcDbEntity
  8
2
  6
CONTINUOUS
100
AcDbLine
 10
-58.999999999999
 20
36.0
 11
-26.999999999999
 21
36.0
  0
ARC
  5
3A0
100
AcDbEntity
  8
2
  6
CONTINUOUS
100
AcDbCircle
 10
-58.999999999999
 20
34.0
 40
2.0
100
AcDbArc
 50
90.0
 51
180.0
  0
LINE
  5
3A1
100
AcDbEntity
  8
2
  6
CONTINUOUS
100
AcDbLine
 10
-60.999999999999
 20
34.0
 11
-60.999999999999
 21
20.7906228862918
  0
ARC
  5
3A2
100
AcDbEntity
  8
2
  6
CONTINUOUS
100
AcDbCircle
 10
430.593587684068
 20
0.0
 40
27.5
100
AcDbArc
 50
46.2978855626439
 51
49.1148071073164
  0
ARC
  5
3A3
100
AcDbEntity
  8
2
  6
CONTINUOUS
100
AcDbCircle
 10
430.593587684068
 20
0.0
 40
27.4999999999999
100
AcDbArc
 50
130.885192892684
 51
133.702114437356
  0
DIMENSION
  5
3B3
100
AcDbEntity
  8
4
  6
CONTINUOUS
 62
     2
100
AcDbDimension
  2
*D17
 10
404.077688215282
 20
18.0
 11
404.077688215282
 21
9.0
 70
    32
  3
ISO-25
100
AcDbAlignedDimension
 13
407.669054358232
 23
0.0
 14
411.893587684068
 24
18.0
 50
90.0
100
AcDbRotatedDimension
  0
DIMENSION
  5
3C3
100
AcDbEntity
  8
4
  6
CONTINUOUS
 62
     2
100
AcDbDimension
  2
*D18
 10
0.0
 20
-36.275228218209
 11
132.0
 21
-36.275228218209
 70
    32
  3
ISO-25
100
AcDbAlignedDimension
 13
264.000000000001
 23
-19.999999999999
 14
0.0
 24
-4.25
 50
180.0
100
AcDbRotatedDimension
  0
DIMENSION
  5
3D5
100
AcDbEntity
  8
4
  6
CONTINUOUS
 62
     2
100
AcDbDimension
  2
*D19
 10
0.0
 20
29.0
 11
2.5
 21
29.0
 70
    32
  3
ISO-25
100
AcDbAlignedDimension
 13
5.0
 23
4.75
 14
0.0
 24
4.25
 50
180.0
100
AcDbRotatedDimension
  0
DIMENSION
  5
3E5
100
AcDbEntity
  8
4
  6
CONTINUOUS
 62
     2
100
AcDbDimension
  2
*D20
 10
5.64987141055269
 20
-1.4620763146109
 11
17.1060667175193
 21
-15.2841205631229
 70
    35
  3
ISO-25
100
AcDbDiametricDimension
 15
4.35012858944731
 25
1.4620763146109
1001
ACAD
1000
DSTYLE
1002
{
1070
   280
1070
     1
1002
}
  0
DIMENSION
  5
3F5
100
AcDbEntity
  8
4
  6
CONTINUOUS
 62
     2
100
AcDbDimension
  2
*D21
 10
-5.44735496323407
 20
-6.0
 11
-5.44735496323407
 21
0.0
 70
    32
  3
ISO-25
100
AcDbAlignedDimension
 13
12.0
 23
6.0
 14
12.0
 24
-6.0
 50
270.0
100
AcDbRotatedDimension
  0
INSERT
  5
3F7
100
AcDbEntity
  8
8
  6
HIDDEN
 62
     7
100
AcDbBlockReference
  2
COMP1
 10
0.0
 20
0.0
 41
1.0
 42
1.0
 50
0.0
  0
INSERT
  5
40F
100
AcDbEntity
  8
8
  6
HIDDEN
 62
     7
100
AcDbBlockReference
  2
COMP2
 10
0.0
 20
0.0
 41
1.0
 42
1.0
 50
0.0
  0
DIMENSION
  5
435
100
AcDbEntity
  8
4
  6
CONTINUOUS
 62
     2
100
AcDbDimension
  2
*D22
 10
359.400000000001
 20
56.0
 11
323.400000000001
 21
56.0
 70
    32
  3
ISO-25
100
AcDbAlignedDimension
 13
287.400000000001
 23
33.730738767203
 14
359.400000000001
 24
28.5964217870429
 50
0.0
100
AcDbRotatedDimension
1001
ACAD
1000
DSTYLE
1002
{
1070
     3
1000
(<>)
1002
}
  0
DIMENSION
  5
445
100
AcDbEntity
  8
4
  6
CONTINUOUS
 62
     2
100
AcDbDimension
  2
*D23
 10
-76.83580931345
 20
0.0
 11
-76.83580931345
 21
17.5
 70
    32
  3
ISO-25
100
AcDbAlignedDimension
 13
-43.999999999999
 23
35.0000000000001
 14
-63.499999999999
 24
0.0
 50
270.0
100
AcDbRotatedDimension
  0
LINE
  5
446
100
AcDbEntity
  8
2
  6
CONTINUOUS
100
AcDbLine
 10
54.2501940670197
 20
-69.7720135500587
 11
254.25019406702
 21
-69.7720135500587
  0
LINE
  5
447
100
AcDbEntity
  8
2
  6
CONTINUOUS
100
AcDbLine
 10
254.25019406702
 20
-79.7720135500587
 11
254.25019406702
 21
-57.2720135500587
  0
LINE
  5
448
100
AcDbEntity
  8
2
  6
CONTINUOUS
100
AcDbLine
 10
54.2501940670197
 20
-57.2720135500587
 11
254.25019406702
 21
-57.2720135500587
  0
LINE
  5
449
100
AcDbEntity
  8
2
  6
CONTINUOUS
100
AcDbLine
 10
54.2501940670197
 20
-79.7720135500587
 11
254.25019406702
 21
-79.7720135500587
  0
MTEXT
  5
44A
100
AcDbEntity
  8
4
  6
CONTINUOUS
 62
     2
100
AcDbMText
 10
234.25019406702
 20
-63.5220135500587
 40
3.5
 41
0.0
 11
1.0
 21
0.0
 71
     5
 72
     5
  7
BIGFONT
  1
{\T1.38889;\W0.676692;備　　　　　考}
  0
LINE
  5
44B
100
AcDbEntity
  8
2
  6
CONTINUOUS
100
AcDbLine
 10
184.25019406702
 20
-79.7720135500587
 11
184.25019406702
 21
-57.2720135500587
  0
LINE
  5
44C
100
AcDbEntity
  8
2
  6
CONTINUOUS
100
AcDbLine
 10
154.25019406702
 20
-79.7720135500587
 11
154.25019406702
 21
-57.2720135500587
  0
LINE
  5
44D
100
AcDbEntity
  8
2
  6
CONTINUOUS
100
AcDbLine
 10
124.25019406702
 20
-79.7720135500587
 11
124.25019406702
 21
-57.2720135500587
  0
LINE
  5
44E
100
AcDbEntity
  8
2
  6
CONTINUOUS
100
AcDbLine
 10
94.25019406702
 20
-79.7720135500587
 11
94.25019406702
 21
-57.2720135500587
  0
LINE
  5
44F
100
AcDbEntity
  8
2
  6
CONTINUOUS
100
AcDbLine
 10
94.25019406702
 20
-64.7720135500587
 11
214.25019406702
 21
-64.7720135500587
  0
MTEXT
  5
450
100
AcDbEntity
  8
4
  6
CONTINUOUS
 62
     2
100
AcDbMText
 10
74.25019406702
 20
-63.5220135500587
 40
3.5
 41
0.0
 11
1.0
 21
0.0
 71
     5
 72
     5
  7
BIGFONT
  1
{\T1.375;\W0.701754;型　　　　式}
  0
MTEXT
  5
451
100
AcDbEntity
  8
4
  6
CONTINUOUS
 62
     2
100
AcDbMText
 10
169.25019406702
 20
-74.7720135500587
 40
3.5
 41
0.0
 11
1.0
 21
0.0
 71
     5
 72
     5
  7
STANDARD
  1
{\T1.60714;\W0.666667;288}
  0
MTEXT
  5
452
100
AcDbEntity
  8
4
  6
CONTINUOUS
 62
     2
100
AcDbMText
 10
199.25019406702
 20
-74.7720135500587
 40
3.5
 41
0.0
 11
1.0
 21
0.0
 71
     5
 72
     5
  7
STANDARD
  1
{\T1.60714;\W0.666667;1.32}
  0
MTEXT
  5
453
100
AcDbEntity
  8
4
  6
CONTINUOUS
 62
     2
100
AcDbMText
 10
109.25019406702
 20
-61.0220135500587
 40
2.5
 41
0.0
 11
1.0
 21
0.0
 71
     5
 72
     5
  7
BIGFONT
  1
{\T1.25;\W1.05263;フルスケールトルク}
  0
MTEXT
  5
454
100
AcDbEntity
  8
4
  6
CONTINUOUS
 62
     2
100
AcDbMText
 10
109.25019406702
 20
-67.2720135500587
 40
2.5
 41
0.0
 11
1.0
 21
0.0
 71
     5
 72
     5
  7
BIGFONT
  1
{\T1.35714;\W0.736842;約　Ｎ・ｍ}
  0
MTEXT
  5
455
100
AcDbEntity
  8
4
  6
CONTINUOUS
 62
     2
100
AcDbMText
 10
139.25019406702
 20
-67.2720135500587
 40
2.5
 41
0.0
 11
1.0
 21
0.0
 71
     5
 72
     5
  7
BIGFONT
  1
{\T1.42857;\W0.614035;約　　ｒｐｍ}
  0
MTEXT
  5
456
100
AcDbEntity
  8
4
  6
CONTINUOUS
 62
     2
100
AcDbMText
 10
139.250200170536
 20
-61.022007446543
 40
3.3
 41
0.0
 11
1.0
 21
0.0
 71
     5
 72
     5
  7
BIGFONT
  1
{\T1.34615;\W0.760234;回転速度（ＭＡＸ）}
  0
MTEXT
  5
457
100
AcDbEntity
  8
4
  6
CONTINUOUS
 62
     2
100
AcDbMText
 10
169.25019406702
 20
-61.0220135500587
 40
3.5
 41
0.0
 11
1.0
 21
0.0
 71
     5
 72
     5
  7
BIGFONT
  1
{\T1.375;\W0.701754;全　　　　長}
  0
MTEXT
  5
458
100
AcDbEntity
  8
4
  6
CONTINUOUS
 62
     2
100
AcDbMText
 10
169.25019406702
 20
-67.2720135500587
 40
2.5
 41
0.0
 11
1.0
 21
0.0
 71
     5
 72
     5
  7
BIGFONT
  1
{\T1.4;\W0.657895;約　ｍｍ}
  0
MTEXT
  5
459
100
AcDbEntity
  8
4
  6
CONTINUOUS
 62
     2
100
AcDbMText
 10
199.25019406702
 20
-61.0220135500587
 40
3.5
 41
0.0
 11
1.0
 21
0.0
 71
     5
 72
     5
  7
BIGFONT
  1
{\T1.375;\W0.701754;質　　　　量}
  0
MTEXT
  5
45A
100
AcDbEntity
  8
4
  6
CONTINUOUS
 62
     2
100
AcDbMText
 10
199.25019406702
 20
-67.2720135500587
 40
2.5
 41
0.0
 11
1.0
 21
0.0
 71
     5
 72
     5
  7
BIGFONT
  1
{\T1.4;\W0.657895;約　ｋｇ}
  0
LINE
  5
45B
100
AcDbEntity
  8
2
  6
CONTINUOUS
100
AcDbLine
 10
214.25019406702
 20
-79.7720135500587
 11
214.25019406702
 21
-57.2720135500587
  0
LINE
  5
45C
100
AcDbEntity
  8
2
  6
CONTINUOUS
100
AcDbLine
 10
54.2501940670197
 20
-79.7720135500587
 11
54.2501940670197
 21
-57.2720135500587
  0
MTEXT
  5
45D
100
AcDbEntity
  8
4
  6
CONTINUOUS
 62
     2
100
AcDbMText
 10
74.2501940670199
 20
-74.7720135500587
 40
3.5
 41
0.0
 11
1.0
 21
0.0
 71
     5
 72
     5
  7
STANDARD
  1
{\T1.60714;\W0.666667;UNR-G613-100NT}
  0
MTEXT
  5
45E
100
AcDbEntity
  8
4
  6
CONTINUOUS
 62
     2
100
AcDbMText
 10
109.25019406702
 20
-74.7720135500587
 40
3.5
 41
0.0
 11
1.0
 21
0.0
 71
     5
 72
     5
  7
STANDARD
  1
{\T1.60714;\W0.666667;10}
  0
MTEXT
  5
45F
100
AcDbEntity
  8
4
  6
CONTINUOUS
 62
     2
100
AcDbMText
 10
139.25019406702
 20
-74.7720135500587
 40
3.5
 41
0.0
 11
1.0
 21
0.0
 71
     5
 72
     5
  7
STANDARD
  1
{\T1.60714;\W0.666667;3000}
  0
ENDSEC
  0
SECTION
  2
OBJECTS
  0
DICTIONARY
  5
C
100
AcDbDictionary
  3
ACAD_GROUP
350
D
  3
ACAD_MLINESTYLE
350
E
  3
ACDBVARIABLEDICTIONARY
350
460
  0
DICTIONARY
  5
D
102
{ACAD_REACTORS
330
C
102
}
100
AcDbDictionary
  0
DICTIONARY
  5
E
102
{ACAD_REACTORS
330
C
102
}
100
AcDbDictionary
  3
STANDARD
350
13
  0
DICTIONARY
  5
460
102
{ACAD_REACTORS
330
C
102
}
330
C
100
AcDbDictionary
  3
SORTENTS
350
461
  0
MLINESTYLE
  5
13
102
{ACAD_REACTORS
330
E
102
}
100
AcDbMlineStyle
  2
STANDARD
 70
     0
  3

 62
   256
 51
90.0
 52
90.0
 71
     2
 49
0.5
 62
   256
  6
BYLAYER
 49
-0.5
 62
   256
  6
BYLAYER
  0
DICTIONARYVAR
  5
461
102
{ACAD_REACTORS
330
460
102
}
100
DictionaryVariables
280
     0
  1
96
  0
ENDSEC
  0
EOF
