  0
SECTION
  2
HEADER
  9
$ACADVER
  1
AC1014
  9
$ACADMAINTVER
 70
     0
  9
$DWGCODEPAGE
  3
ANSI_932
  9
$INSBASE
 10
0.0
 20
0.0
 30
0.0
  9
$EXTMIN
 10
-36.5
 20
-263.918782008654
  9
$EXTMAX
 10
766.599999999981
 20
259.0
  9
$LIMMIN
 10
-36.5
 20
-263.918782008654
  9
$LIMMAX
 10
766.599999999981
 20
259.0
  9
$ORTHOMODE
 70
     0
  9
$REGENMODE
 70
     1
  9
$FILLMODE
 70
     1
  9
$QTEXTMODE
 70
     0
  9
$MIRRTEXT
 70
     1
  9
$DRAGMODE
 70
     2
  9
$LTSCALE
 40
1.0
  9
$OSMODE
 70
     0
  9
$ATTMODE
 70
     1
  9
$TEXTSIZE
 40
3.0
  9
$TRACEWID
 40
0.5
  9
$TEXTSTYLE
  7
STANDARD
  9
$CLAYER
  8
0
  9
$CELTYPE
  6
BYLAYER
  9
$CECOLOR
 62
   256
  9
$CELTSCALE
 40
1.0
  9
$DELOBJ
 70
     1
  9
$DISPSILH
 70
     0
  9
$DIMSCALE
 40
1.0
  9
$DIMASZ
 40
2.0
  9
$DIMEXO
 40
1.0
  9
$DIMDLI
 40
5.0
  9
$DIMRND
 40
0.0
  9
$DIMDLE
 40
3.0
  9
$DIMEXE
 40
1.0
  9
$DIMTP
 40
0.0
  9
$DIMTM
 40
0.0
  9
$DIMTXT
 40
3.5
  9
$DIMCEN
 40
2.0
  9
$DIMTSZ
 40
0.0
  9
$DIMTOL
 70
     0
  9
$DIMLIM
 70
     0
  9
$DIMTIH
 70
     0
  9
$DIMTOH
 70
     0
  9
$DIMSE1
 70
     0
  9
$DIMSE2
 70
     0
  9
$DIMTAD
 70
     1
  9
$DIMZIN
 70
     8
  9
$DIMBLK
  1

  9
$DIMASO
 70
     1
  9
$DIMSHO
 70
     1
  9
$DIMPOST
  1

  9
$DIMAPOST
  1

  9
$DIMALT
 70
     0
  9
$DIMALTD
 70
     4
  9
$DIMALTF
 40
0.0393700787401575
  9
$DIMLFAC
 40
1.0
  9
$DIMTOFL
 70
     1
  9
$DIMTVP
 40
1.0
  9
$DIMTIX
 70
     0
  9
$DIMSOXD
 70
     0
  9
$DIMSAH
 70
     0
  9
$DIMBLK1
  1

  9
$DIMBLK2
  1

  9
$DIMSTYLE
  2
ISO-25
  9
$DIMCLRD
 70
     0
  9
$DIMCLRE
 70
     0
  9
$DIMCLRT
 70
     0
  9
$DIMTFAC
 40
1.0
  9
$DIMGAP
 40
0.5
  9
$DIMJUST
 70
     0
  9
$DIMSD1
 70
     0
  9
$DIMSD2
 70
     0
  9
$DIMTOLJ
 70
     1
  9
$DIMTZIN
 70
     1
  9
$DIMALTZ
 70
     0
  9
$DIMALTTZ
 70
     0
  9
$DIMFIT
 70
     3
  9
$DIMUPT
 70
     0
  9
$DIMUNIT
 70
     2
  9
$DIMDEC
 70
     3
  9
$DIMTDEC
 70
     3
  9
$DIMALTU
 70
     8
  9
$DIMALTTD
 70
     4
  9
$DIMTXSTY
  7
STANDARD
  9
$DIMAUNIT
 70
     0
  9
$LUNITS
 70
     2
  9
$LUPREC
 70
     4
  9
$AXISMODE
 70
     0
  9
$AXISUNIT
 10
0.0
 20
0.0
  9
$SKETCHINC
 40
1.0
  9
$FILLETRAD
 40
0.0
  9
$AUNITS
 70
     0
  9
$AUPREC
 70
     0
  9
$MENU
  1
.
  9
$ELEVATION
 40
0.0
  9
$PELEVATION
 40
0.0
  9
$THICKNESS
 40
0.0
  9
$LIMCHECK
 70
     0
  9
$BLIPMODE
 70
     1
  9
$CHAMFERA
 40
0.0
  9
$CHAMFERB
 40
0.0
  9
$CHAMFERC
 40
0.0
  9
$CHAMFERD
 40
0.0
  9
$SKPOLY
 70
     0
  9
$TDCREATE
 40
2459662.68709491
  9
$TDUPDATE
 40
2459662.68709491
  9
$TDINDWG
 40
0.0
  9
$TDUSRTIMER
 40
0.0
  9
$USRTIMER
 70
     1
  9
$ANGBASE
 50
0.0
  9
$ANGDIR
 70
     0
  9
$PDMODE
 70
     0
  9
$PDSIZE
 40
0.0
  9
$PLINEWID
 40
0.0
  9
$COORDS
 70
     0
  9
$SPLFRAME
 70
     0
  9
$SPLINETYPE
 70
     6
  9
$SPLINESEGS
 70
     8
  9
$ATTDIA
 70
     0
  9
$ATTREQ
 70
     1
  9
$HANDLING
 70
     1
  9
$HANDSEED
  5
7EC
  9
$SURFTAB1
 70
     6
  9
$SURFTAB2
 70
     6
  9
$SURFTYPE
 70
     6
  9
$SURFU
 70
     6
  9
$SURFV
 70
     6
  9
$UCSNAME
  2

  9
$UCSORG
 10
0.0
 20
0.0
 30
0.0
  9
$UCSXDIR
 10
1.0
 20
0.0
 30
0.0
  9
$UCSYDIR
 10
0.0
 20
1.0
 30
0.0
  9
$PUCSNAME
  2

  9
$PUCSORG
 10
0.0
 20
1.0
 30
0.0
  9
$PUCSXDIR
 10
1.0
 20
0.0
 30
0.0
  9
$PUCSYDIR
 10
0.0
 20
1.0
 30
0.0
  9
$USERI1
 70
     0
  9
$USERI2
 70
     0
  9
$USERI3
 70
     0
  9
$USERI4
 70
     0
  9
$USERI5
 70
     0
  9
$USERR1
 40
0.0
  9
$USERR2
 40
0.0
  9
$USERR3
 40
0.0
  9
$USERR4
 40
0.0
  9
$USERR5
 40
0.0
  9
$WORLDVIEW
 70
     1
  9
$SHADEDGE
 70
     3
  9
$SHADEDIF
 70
    70
  9
$TILEMODE
 70
     1
  9
$MAXACTVP
 70
    16
  9
$PINSBASE
 10
0.0
 20
1.0
 30
0.0
  9
$PLIMCHECK
 70
     0
  9
$PEXTMIN
 10
1.00000000000000E+020
 20
1.00000000000000E+020
 30
1.00000000000000E+020
  9
$PEXTMAX
 10
-1.00000000000000E+020
 20
-1.00000000000000E+020
 30
-1.00000000000000E+020
  9
$PLIMMIN
 10
-36.5
 20
-263.918782008654
  9
$PLIMMAX
 10
766.599999999981
 20
259.0
  9
$UNITMODE
 70
     0
  9
$VISRETAIN
 70
     0
  9
$PLINEGEN
 70
     0
  9
$PSLTSCALE
 70
     0
  9
$TREEDEPTH
 70
  3020
  9
$PICKSTYLE
 70
     1
  9
$CMLSTYLE
  2
STANDARD
  9
$CMLJUST
 70
     0
  9
$CMLSCALE
 40
1.0
  9
$PROXYGRAPHICS
 70
     1
  9
$MEASUREMENT
 70
     1
  0
ENDSEC
  0
SECTION
  2
CLASSES
  0
CLASS
  1
LWPOLYLINE
  2
AcDbPolyline
  3
"AutoCAD"
 90
        0
280
     0
281
     1
  0
CLASS
  1
DICTIONARYVAR
  2
AcDbDictionaryVar
  3
"AutoCAD"
 90
        0
280
     0
281
     1
  0
CLASS
  1
HATCH
  2
AcDbHatch
  3
"AutoCAD"
 90
        0
280
     0
281
     1
  0
ENDSEC
  0
SECTION
  2
TABLES
  0
TABLE
  2
VPORT
  5
8
100
AcDbSymbolTable
 70
     1
  0
VPORT
  5
7DE
100
AcDbSymbolTableRecord
100
AcDbViewportTableRecord
  2
*ACTIVE
 70
     0
 10
0.0
 20
0.0
 11
1.0
 21
1.0
 12
365.049999999991
 22
-2.45939100432713
 13
0.0
 23
0.0
 14
0.0
 24
0.0
 15
0.0
 25
0.0
 16
0.0
 26
0.0
 36
1.0
 17
0.0
 27
0.0
 37
0.0
 40
803.099999999981
 41
1.5
 42
50.0
 43
0.0
 44
0.0
 50
0.0
 51
0.0
 71
     0
 72
   100
 73
     1
 74
     1
 75
     0
 76
     0
 77
     0
 78
     0
  0
ENDTAB
  0
TABLE
  2
LTYPE
  5
5
100
AcDbSymbolTable
 70
    20
  0
LTYPE
  5
7DF
100
AcDbSymbolTableRecord
100
AcDbLinetypeTableRecord
  2
BYBLOCK
 70
     0
  3

 72
    65
 73
     0
 40
0.0
  0
LTYPE
  5
7E0
100
AcDbSymbolTableRecord
100
AcDbLinetypeTableRecord
  2
BYLAYER
 70
     0
  3

 72
    65
 73
     0
 40
0.0
  0
LTYPE
  5
7E1
100
AcDbSymbolTableRecord
100
AcDbLinetypeTableRecord
  2
CONTINUOUS
 70
    64
  3
solid line
 72
    65
 73
     0
 40
0.0
  0
LTYPE
  5
7E2
100
AcDbSymbolTableRecord
100
AcDbLinetypeTableRecord
  2
HIDDEN
 70
    64
  3
HIDDEN
 72
    65
 73
     0
 40
0.0
  0
LTYPE
  5
7E3
100
AcDbSymbolTableRecord
100
AcDbLinetypeTableRecord
  2
CENTER
 70
    64
  3
--- - --- - --- - --- - --- -
 72
    65
 73
     4
 40
6.0
 49
3.0
 74
     0
 49
-1.0
 74
     0
 49
1.0
 74
     0
 49
-1.0
 74
     0
  0
LTYPE
  5
7E4
100
AcDbSymbolTableRecord
100
AcDbLinetypeTableRecord
  2
CENTER2
 70
    64
  3
CENTER2
 72
    65
 73
     0
 40
0.0
  0
LTYPE
  5
7E5
100
AcDbSymbolTableRecord
100
AcDbLinetypeTableRecord
  2
PHANTOM
 70
    64
  3
----- - - ----- - - ----- - -
 72
    65
 73
     6
 40
12.0
 49
7.0
 74
     0
 49
-1.0
 74
     0
 49
1.0
 74
     0
 49
-1.0
 74
     0
 49
1.0
 74
     0
 49
-1.0
 74
     0
  0
ENDTAB
  0
TABLE
  2
LAYER
  5
2
100
AcDbSymbolTable
 70
    20
  0
LAYER
  5
7E6
100
AcDbSymbolTableRecord
100
AcDbLayerTableRecord
  2
0
 70
    64
 62
     7
  6
CONTINUOUS
  0
LAYER
  5
28
100
AcDbSymbolTableRecord
100
AcDbLayerTableRecord
  2
2
 70
    64
 62
     7
  6
CONTINUOUS
  0
LAYER
  5
82
100
AcDbSymbolTableRecord
100
AcDbLayerTableRecord
  2
7
 70
    64
 62
     7
  6
CONTINUOUS
  0
LAYER
  5
84
100
AcDbSymbolTableRecord
100
AcDbLayerTableRecord
  2
6
 70
    64
 62
     7
  6
CONTINUOUS
  0
LAYER
  5
15B
100
AcDbSymbolTableRecord
100
AcDbLayerTableRecord
  2
8
 70
    64
 62
     7
  6
CONTINUOUS
  0
LAYER
  5
1DD
100
AcDbSymbolTableRecord
100
AcDbLayerTableRecord
  2
9
 70
    64
 62
     7
  6
CONTINUOUS
  0
LAYER
  5
24B
100
AcDbSymbolTableRecord
100
AcDbLayerTableRecord
  2
4
 70
    64
 62
     7
  6
CONTINUOUS
  0
LAYER
  5
7E7
100
AcDbSymbolTableRecord
100
AcDbLayerTableRecord
  2
DEFPOINTS
 70
     0
 62
    -7
  6
CONTINUOUS
  0
ENDTAB
  0
TABLE
  2
STYLE
  5
3
100
AcDbSymbolTable
 70
     4
  0
STYLE
  5
7E8
100
AcDbSymbolTableRecord
100
AcDbTextStyleTableRecord
  2
STANDARD
 70
    64
 40
0.0
 41
1.0
 50
0.0
 71
     0
 42
3.0
  3
monotxt
  4

  0
STYLE
  5
7E9
100
AcDbSymbolTableRecord
100
AcDbTextStyleTableRecord
  2
BIGFONT
 70
    64
 40
0.0
 41
1.0
 50
0.0
 71
     0
 42
3.0
  3
monotxt
  4
bigfont
  0
ENDTAB
  0
TABLE
  2
VIEW
  5
6
100
AcDbSymbolTable
 70
     0
  0
ENDTAB
  0
TABLE
  2
UCS
  5
7
100
AcDbSymbolTable
 70
     0
  0
ENDTAB
  0
TABLE
  2
APPID
  5
9
100
AcDbSymbolTable
 70
     1
  0
APPID
  5
7EA
100
AcDbSymbolTableRecord
100
AcDbRegAppTableRecord
  2
ACAD
 70
     0
  0
ENDTAB
  0
TABLE
  2
DIMSTYLE
  5
A
100
AcDbSymbolTable
 70
     8
  0
DIMSTYLE
105
7EB
100
AcDbSymbolTableRecord
100
AcDbDimStyleTableRecord
  2
ISO-25
 70
     0
  3

  4

  5

  6

  7

 40
1.0
 41
2.0
 42
1.0
 43
5.0
 44
1.0
 45
0.0
 46
3.0
 47
0.0
 48
0.0
140
3.5
141
2.0
142
0.0
143
0.0393700787401575
144
1.0
145
1.0
146
1.0
147
0.5
 71
     0
 72
     0
 73
     0
 74
     0
 75
     0
 76
     0
 77
     1
 78
     8
170
     0
171
     0
172
     1
173
     0
174
     0
175
     0
176
     0
177
     0
178
     0
270
     2
271
     3
272
     3
273
     8
274
     4
340
7E8
275
     0
280
     0
281
     0
282
     0
283
     1
284
     1
285
     0
286
     0
287
     3
288
     0
  0
ENDTAB
  0
TABLE
  2
BLOCK_RECORD
  5
1
100
AcDbSymbolTable
 70
     2
  0
BLOCK_RECORD
  5
20
100
AcDbSymbolTableRecord
100
AcDbBlockTableRecord
  2
*MODEL_SPACE
  0
BLOCK_RECORD
  5
22
100
AcDbSymbolTableRecord
100
AcDbBlockTableRecord
  2
*PAPER_SPACE
  0
BLOCK_RECORD
  5
361
100
AcDbSymbolTableRecord
100
AcDbBlockTableRecord
  2
MARK1_1
  0
BLOCK_RECORD
  5
2BF
100
AcDbSymbolTableRecord
100
AcDbBlockTableRecord
  2
*D1
  0
BLOCK_RECORD
  5
2CF
100
AcDbSymbolTableRecord
100
AcDbBlockTableRecord
  2
*D2
  0
BLOCK_RECORD
  5
2DE
100
AcDbSymbolTableRecord
100
AcDbBlockTableRecord
  2
*D3
  0
BLOCK_RECORD
  5
2EE
100
AcDbSymbolTableRecord
100
AcDbBlockTableRecord
  2
*D4
  0
BLOCK_RECORD
  5
2FE
100
AcDbSymbolTableRecord
100
AcDbBlockTableRecord
  2
*D5
  0
BLOCK_RECORD
  5
30E
100
AcDbSymbolTableRecord
100
AcDbBlockTableRecord
  2
*D6
  0
BLOCK_RECORD
  5
31E
100
AcDbSymbolTableRecord
100
AcDbBlockTableRecord
  2
*D7
  0
BLOCK_RECORD
  5
32D
100
AcDbSymbolTableRecord
100
AcDbBlockTableRecord
  2
*D8
  0
BLOCK_RECORD
  5
33C
100
AcDbSymbolTableRecord
100
AcDbBlockTableRecord
  2
*D9
  0
BLOCK_RECORD
  5
34D
100
AcDbSymbolTableRecord
100
AcDbBlockTableRecord
  2
*D10
  0
BLOCK_RECORD
  5
6BA
100
AcDbSymbolTableRecord
100
AcDbBlockTableRecord
  2
*D11
  0
BLOCK_RECORD
  5
6CA
100
AcDbSymbolTableRecord
100
AcDbBlockTableRecord
  2
*D12
  0
BLOCK_RECORD
  5
6DA
100
AcDbSymbolTableRecord
100
AcDbBlockTableRecord
  2
*D13
  0
BLOCK_RECORD
  5
6E9
100
AcDbSymbolTableRecord
100
AcDbBlockTableRecord
  2
*D14
  0
BLOCK_RECORD
  5
6F8
100
AcDbSymbolTableRecord
100
AcDbBlockTableRecord
  2
*D15
  0
BLOCK_RECORD
  5
708
100
AcDbSymbolTableRecord
100
AcDbBlockTableRecord
  2
*D16
  0
BLOCK_RECORD
  5
718
100
AcDbSymbolTableRecord
100
AcDbBlockTableRecord
  2
*D17
  0
BLOCK_RECORD
  5
728
100
AcDbSymbolTableRecord
100
AcDbBlockTableRecord
  2
*D18
  0
BLOCK_RECORD
  5
73A
100
AcDbSymbolTableRecord
100
AcDbBlockTableRecord
  2
*D19
  0
BLOCK_RECORD
  5
74E
100
AcDbSymbolTableRecord
100
AcDbBlockTableRecord
  2
*D20
  0
BLOCK_RECORD
  5
2AD
100
AcDbSymbolTableRecord
100
AcDbBlockTableRecord
  2
M10_0001
  0
BLOCK_RECORD
  5
2B3
100
AcDbSymbolTableRecord
100
AcDbBlockTableRecord
  2
M10_0002
  0
BLOCK_RECORD
  5
2B9
100
AcDbSymbolTableRecord
100
AcDbBlockTableRecord
  2
M10_0003
  0
BLOCK_RECORD
  5
3B0
100
AcDbSymbolTableRecord
100
AcDbBlockTableRecord
  2
M6_0004
  0
BLOCK_RECORD
  5
24
100
AcDbSymbolTableRecord
100
AcDbBlockTableRecord
  2
SUB1
  0
BLOCK_RECORD
  5
11C
100
AcDbSymbolTableRecord
100
AcDbBlockTableRecord
  2
SUB2
  0
BLOCK_RECORD
  5
12A
100
AcDbSymbolTableRecord
100
AcDbBlockTableRecord
  2
SUB3
  0
BLOCK_RECORD
  5
138
100
AcDbSymbolTableRecord
100
AcDbBlockTableRecord
  2
SUB4
  0
BLOCK_RECORD
  5
146
100
AcDbSymbolTableRecord
100
AcDbBlockTableRecord
  2
SUB5
  0
BLOCK_RECORD
  5
1B5
100
AcDbSymbolTableRecord
100
AcDbBlockTableRecord
  2
SUB6
  0
BLOCK_RECORD
  5
1C8
100
AcDbSymbolTableRecord
100
AcDbBlockTableRecord
  2
SUB7
  0
BLOCK_RECORD
  5
1DB
100
AcDbSymbolTableRecord
100
AcDbBlockTableRecord
  2
SUB8
  0
BLOCK_RECORD
  5
1EE
100
AcDbSymbolTableRecord
100
AcDbBlockTableRecord
  2
SUB9
  0
BLOCK_RECORD
  5
21D
100
AcDbSymbolTableRecord
100
AcDbBlockTableRecord
  2
SUB10
  0
BLOCK_RECORD
  5
22B
100
AcDbSymbolTableRecord
100
AcDbBlockTableRecord
  2
SUB11
  0
BLOCK_RECORD
  5
24C
100
AcDbSymbolTableRecord
100
AcDbBlockTableRecord
  2
SUB12
  0
BLOCK_RECORD
  5
257
100
AcDbSymbolTableRecord
100
AcDbBlockTableRecord
  2
SUB13
  0
BLOCK_RECORD
  5
26F
100
AcDbSymbolTableRecord
100
AcDbBlockTableRecord
  2
SUB14
  0
BLOCK_RECORD
  5
279
100
AcDbSymbolTableRecord
100
AcDbBlockTableRecord
  2
SUB15
  0
BLOCK_RECORD
  5
281
100
AcDbSymbolTableRecord
100
AcDbBlockTableRecord
  2
SUB16
  0
BLOCK_RECORD
  5
382
100
AcDbSymbolTableRecord
100
AcDbBlockTableRecord
  2
SUB17
  0
BLOCK_RECORD
  5
390
100
AcDbSymbolTableRecord
100
AcDbBlockTableRecord
  2
SUB18
  0
BLOCK_RECORD
  5
39F
100
AcDbSymbolTableRecord
100
AcDbBlockTableRecord
  2
SUB19
  0
BLOCK_RECORD
  5
3FB
100
AcDbSymbolTableRecord
100
AcDbBlockTableRecord
  2
SUB20
  0
BLOCK_RECORD
  5
402
100
AcDbSymbolTableRecord
100
AcDbBlockTableRecord
  2
SUB21
  0
BLOCK_RECORD
  5
415
100
AcDbSymbolTableRecord
100
AcDbBlockTableRecord
  2
SUB22
  0
BLOCK_RECORD
  5
41C
100
AcDbSymbolTableRecord
100
AcDbBlockTableRecord
  2
SUB23
  0
BLOCK_RECORD
  5
4BE
100
AcDbSymbolTableRecord
100
AcDbBlockTableRecord
  2
SUB24
  0
BLOCK_RECORD
  5
4CC
100
AcDbSymbolTableRecord
100
AcDbBlockTableRecord
  2
SUB25
  0
BLOCK_RECORD
  5
4DA
100
AcDbSymbolTableRecord
100
AcDbBlockTableRecord
  2
SUB26
  0
BLOCK_RECORD
  5
4E8
100
AcDbSymbolTableRecord
100
AcDbBlockTableRecord
  2
SUB27
  0
BLOCK_RECORD
  5
4F6
100
AcDbSymbolTableRecord
100
AcDbBlockTableRecord
  2
SUB28
  0
BLOCK_RECORD
  5
570
100
AcDbSymbolTableRecord
100
AcDbBlockTableRecord
  2
SUB29
  0
BLOCK_RECORD
  5
577
100
AcDbSymbolTableRecord
100
AcDbBlockTableRecord
  2
SUB30
  0
BLOCK_RECORD
  5
57E
100
AcDbSymbolTableRecord
100
AcDbBlockTableRecord
  2
SUB31
  0
BLOCK_RECORD
  5
585
100
AcDbSymbolTableRecord
100
AcDbBlockTableRecord
  2
SUB32
  0
BLOCK_RECORD
  5
58C
100
AcDbSymbolTableRecord
100
AcDbBlockTableRecord
  2
SUB33
  0
BLOCK_RECORD
  5
595
100
AcDbSymbolTableRecord
100
AcDbBlockTableRecord
  2
SUB34
  0
BLOCK_RECORD
  5
5A3
100
AcDbSymbolTableRecord
100
AcDbBlockTableRecord
  2
SUB35
  0
BLOCK_RECORD
  5
5B3
100
AcDbSymbolTableRecord
100
AcDbBlockTableRecord
  2
SUB36
  0
BLOCK_RECORD
  5
5C2
100
AcDbSymbolTableRecord
100
AcDbBlockTableRecord
  2
SUB37
  0
BLOCK_RECORD
  5
76B
100
AcDbSymbolTableRecord
100
AcDbBlockTableRecord
  2
COMP1
  0
BLOCK_RECORD
  5
773
100
AcDbSymbolTableRecord
100
AcDbBlockTableRecord
  2
COMP2
  0
ENDTAB
  0
ENDSEC
  0
SECTION
  2
BLOCKS
  0
BLOCK
  5
21
100
AcDbEntity
  8
0
100
AcDbBlockBegin
  2
*MODEL_SPACE
 70
     0
 10
0.0
 20
0.0
 30
0.0
  3
*MODEL_SPACE
  1

  0
ENDBLK
  5
7D8
100
AcDbEntity
  8
0
100
AcDbBlockEnd
  0
BLOCK
  5
23
100
AcDbEntity
 67
     1
  8
0
100
AcDbBlockBegin
  2
*PAPER_SPACE
 70
     0
 10
0.0
 20
0.0
 30
0.0
  3
*PAPER_SPACE
  1

  0
ENDBLK
  5
7D9
100
AcDbEntity
 67
     1
  8
0
100
AcDbBlockEnd
  0
BLOCK
  5
7DA
100
AcDbEntity
  8
0
100
AcDbBlockBegin
  2
MARK1_1
 70
    64
 10
0.0
 20
0.0
  0
LINE
  5
7DB
100
AcDbEntity
  8
0
  6
CONTINUOUS
 62
     0
100
AcDbLine
 10
1.0
 20
0.25
 11
0.0
 21
0.0
  0
LINE
  5
7DC
100
AcDbEntity
  8
0
  6
CONTINUOUS
 62
     0
100
AcDbLine
 10
0.0
 20
0.0
 11
1.0
 21
-0.25
  0
ENDBLK
  5
7DD
100
AcDbEntity
  8
0
100
AcDbBlockEnd
  0
BLOCK
  5
2C0
100
AcDbEntity
  8
0
100
AcDbBlockBegin
  2
*D1
 70
    65
 10
0.0
 20
0.0
  0
LINE
  5
2C1
100
AcDbEntity
  8
0
  6
CONTINUOUS
 62
     2
100
AcDbLine
 10
-15.0
 20
-93.5000000000001
 11
-15.0
 21
-136.750000000001
  0
LINE
  5
2C2
100
AcDbEntity
  8
0
  6
CONTINUOUS
 62
     2
100
AcDbLine
 10
-14.5
 20
-95.5000000000001
 11
-15.0
 21
-93.5000000000001
  0
LINE
  5
2C3
100
AcDbEntity
  8
0
  6
CONTINUOUS
 62
     2
100
AcDbLine
 10
-15.0
 20
-93.5000000000001
 11
-15.5
 21
-95.5000000000001
  0
LINE
  5
2C4
100
AcDbEntity
  8
0
  6
CONTINUOUS
 62
     2
100
AcDbLine
 10
-15.0
 20
-180.000000000001
 11
-15.0
 21
-136.750000000001
  0
LINE
  5
2C5
100
AcDbEntity
  8
0
  6
CONTINUOUS
 62
     2
100
AcDbLine
 10
-15.5
 20
-178.000000000001
 11
-15.0
 21
-180.000000000001
  0
LINE
  5
2C6
100
AcDbEntity
  8
0
  6
CONTINUOUS
 62
     2
100
AcDbLine
 10
-15.0
 20
-180.000000000001
 11
-14.5
 21
-178.000000000001
  0
LINE
  5
2C7
100
AcDbEntity
  8
0
  6
CONTINUOUS
 62
     2
100
AcDbLine
 10
48.5000000000001
 20
-93.5000000000001
 11
-16.0
 21
-93.5000000000001
  0
LINE
  5
2C8
100
AcDbEntity
  8
0
  6
CONTINUOUS
 62
     2
100
AcDbLine
 10
19.5000000000001
 20
-180.000000000001
 11
-16.0
 21
-180.000000000001
  0
MTEXT
  5
2C9
100
AcDbEntity
  8
0
  6
CONTINUOUS
 62
     2
100
AcDbMText
 10
-15.5
 20
-141.562500000001
 40
3.5
 41
0.0
 11
6.12323399573677E-017
 21
1.0
 71
     7
 72
     5
  7
STANDARD
  1
{\T1.60714;\W0.666667;86.5}
 73
     1
 44
1.0
  0
POINT
  5
2CA
100
AcDbEntity
  8
DEFPOINTS
  6
BYBLOCK
 62
     0
100
AcDbPoint
 10
49.0000000000001
 20
-93.5000000000001
  0
POINT
  5
2CB
100
AcDbEntity
  8
DEFPOINTS
  6
BYBLOCK
 62
     0
100
AcDbPoint
 10
20.0000000000001
 20
-180.000000000001
  0
POINT
  5
2CC
100
AcDbEntity
  8
DEFPOINTS
  6
BYBLOCK
 62
     0
100
AcDbPoint
 10
-15.0
 20
-180.000000000001
  0
ENDBLK
  5
2CD
100
AcDbEntity
  8
4
100
AcDbBlockEnd
  0
BLOCK
  5
2D0
100
AcDbEntity
  8
0
100
AcDbBlockBegin
  2
*D2
 70
    65
 10
0.0
 20
0.0
  0
LINE
  5
2D1
100
AcDbEntity
  8
0
  6
CONTINUOUS
 62
     2
100
AcDbLine
 10
-15.0
 20
-180.000000000001
 11
-15.0
 21
-212.000000000001
  0
LINE
  5
2D2
100
AcDbEntity
  8
0
  6
CONTINUOUS
 62
     2
100
AcDbLine
 10
-14.5
 20
-182.000000000001
 11
-15.0
 21
-180.000000000001
  0
LINE
  5
2D3
100
AcDbEntity
  8
0
  6
CONTINUOUS
 62
     2
100
AcDbLine
 10
-15.0
 20
-180.000000000001
 11
-15.5
 21
-182.000000000001
  0
LINE
  5
2D4
100
AcDbEntity
  8
0
  6
CONTINUOUS
 62
     2
100
AcDbLine
 10
-15.0
 20
-244.0
 11
-15.0
 21
-212.000000000001
  0
LINE
  5
2D5
100
AcDbEntity
  8
0
  6
CONTINUOUS
 62
     2
100
AcDbLine
 10
-15.5
 20
-242.0
 11
-15.0
 21
-244.0
  0
LINE
  5
2D6
100
AcDbEntity
  8
0
  6
CONTINUOUS
 62
     2
100
AcDbLine
 10
-15.0
 20
-244.0
 11
-14.5
 21
-242.0
  0
LINE
  5
2D7
100
AcDbEntity
  8
0
  6
CONTINUOUS
 62
     2
100
AcDbLine
 10
79.5000000000001
 20
-244.0
 11
-16.0
 21
-244.0
  0
MTEXT
  5
2D8
100
AcDbEntity
  8
0
  6
CONTINUOUS
 62
     2
100
AcDbMText
 10
-15.5
 20
-214.187500000001
 40
3.5
 41
0.0
 11
6.12323399573677E-017
 21
1.0
 71
     7
 72
     5
  7
STANDARD
  1
{\T1.60714;\W0.666667;64}
 73
     1
 44
1.0
  0
POINT
  5
2D9
100
AcDbEntity
  8
DEFPOINTS
  6
BYBLOCK
 62
     0
100
AcDbPoint
 10
20.0000000000001
 20
-180.000000000001
  0
POINT
  5
2DA
100
AcDbEntity
  8
DEFPOINTS
  6
BYBLOCK
 62
     0
100
AcDbPoint
 10
80.0000000000001
 20
-244.0
  0
POINT
  5
2DB
100
AcDbEntity
  8
DEFPOINTS
  6
BYBLOCK
 62
     0
100
AcDbPoint
 10
-15.0
 20
-244.0
  0
ENDBLK
  5
2DC
100
AcDbEntity
  8
4
100
AcDbBlockEnd
  0
BLOCK
  5
2DF
100
AcDbEntity
  8
0
100
AcDbBlockBegin
  2
*D3
 70
    65
 10
0.0
 20
0.0
  0
ARC
  5
2E0
100
AcDbEntity
  8
0
  6
CONTINUOUS
 62
     2
100
AcDbCircle
 10
80.0000000000019
 20
-180.000000000001
 40
80.0000000000019
100
AcDbArc
 50
150.000000000008
 51
165.000000000004
  0
LINE
  5
2E1
100
AcDbEntity
  8
0
  6
CONTINUOUS
 62
     2
100
AcDbLine
 10
10.1509803991323
 20
-141.982050807578
 11
10.7179676972398
 21
-140.000000000009
  0
LINE
  5
2E2
100
AcDbEntity
  8
0
  6
CONTINUOUS
 62
     2
100
AcDbLine
 10
10.7179676972398
 20
-140.000000000009
 11
9.28495499534775
 21
-141.482050807579
  0
ARC
  5
2E3
100
AcDbEntity
  8
0
  6
CONTINUOUS
 62
     2
100
AcDbCircle
 10
80.0000000000019
 20
-180.000000000001
 40
80.0000000000019
100
AcDbArc
 50
165.000000000004
 51
180.0
  0
LINE
  5
2E4
100
AcDbEntity
  8
0
  6
CONTINUOUS
 62
     2
100
AcDbLine
 10
-0.5
 20
-178.000000000001
 11
0.0
 21
-180.000000000001
  0
LINE
  5
2E5
100
AcDbEntity
  8
0
  6
CONTINUOUS
 62
     2
100
AcDbLine
 10
0.0
 20
-180.000000000001
 11
0.5
 21
-178.000000000001
  0
LINE
  5
2E6
100
AcDbEntity
  8
0
  6
CONTINUOUS
 62
     2
100
AcDbLine
 10
27.158977278853
 20
-149.4922213077
 11
9.85194229345527
 21
-139.50000000001
  0
LINE
  5
2E7
100
AcDbEntity
  8
0
  6
CONTINUOUS
 62
     2
100
AcDbLine
 10
19.5000000000001
 20
-180.000000000001
 11
-1.0
 21
-180.000000000001
  0
MTEXT
  5
2E8
100
AcDbEntity
  8
0
  6
CONTINUOUS
 62
     2
100
AcDbMText
 10
1.33710432587006
 20
-162.545807261265
 40
3.5
 41
0.0
 11
0.258819045102456
 21
0.965925826289086
 71
     7
 72
     5
  7
STANDARD
  1
{\T1.60714;\W0.666667;30%%d}
 73
     1
 44
1.0
  0
POINT
  5
2E9
100
AcDbEntity
  8
DEFPOINTS
  6
BYBLOCK
 62
     0
100
AcDbPoint
 10
27.5919899807452
 20
-149.7422213077
  0
POINT
  5
2EA
100
AcDbEntity
  8
DEFPOINTS
  6
BYBLOCK
 62
     0
100
AcDbPoint
 10
20.0000000000001
 20
-180.000000000001
  0
POINT
  5
2EB
100
AcDbEntity
  8
DEFPOINTS
  6
BYBLOCK
 62
     0
100
AcDbPoint
 10
80.0000000000019
 20
-180.000000000001
  0
ENDBLK
  5
2EC
100
AcDbEntity
  8
4
100
AcDbBlockEnd
  0
BLOCK
  5
2EF
100
AcDbEntity
  8
0
100
AcDbBlockBegin
  2
*D4
 70
    65
 10
0.0
 20
0.0
  0
ARC
  5
2F0
100
AcDbEntity
  8
0
  6
CONTINUOUS
 62
     2
100
AcDbCircle
 10
79.9999999999983
 20
-180.000000000001
 40
75.0000000000018
100
AcDbArc
 50
0.0
 51
15.0000000000158
  0
LINE
  5
2F1
100
AcDbEntity
  8
0
  6
CONTINUOUS
 62
     2
100
AcDbLine
 10
154.5
 20
-178.000000000001
 11
155.0
 21
-180.000000000001
  0
LINE
  5
2F2
100
AcDbEntity
  8
0
  6
CONTINUOUS
 62
     2
100
AcDbLine
 10
155.0
 20
-180.000000000001
 11
155.5
 21
-178.000000000001
  0
ARC
  5
2F3
100
AcDbEntity
  8
0
  6
CONTINUOUS
 62
     2
100
AcDbCircle
 10
79.9999999999983
 20
-180.000000000001
 40
75.0000000000018
100
AcDbArc
 50
15.0000000000158
 51
30.0000000000316
  0
LINE
  5
2F4
100
AcDbEntity
  8
0
  6
CONTINUOUS
 62
     2
100
AcDbLine
 10
146.384917985705
 20
-143.982050807532
 11
144.951905283812
 21
-142.499999999964
  0
LINE
  5
2F5
100
AcDbEntity
  8
0
  6
CONTINUOUS
 62
     2
100
AcDbLine
 10
144.951905283812
 20
-142.499999999964
 11
145.518892581921
 21
-144.482050807533
  0
LINE
  5
2F6
100
AcDbEntity
  8
0
  6
CONTINUOUS
 62
     2
100
AcDbLine
 10
135.925625842186
 20
-180.000000000001
 11
156.0
 21
-180.000000000001
  0
LINE
  5
2F7
100
AcDbEntity
  8
0
  6
CONTINUOUS
 62
     2
100
AcDbLine
 10
132.841022721126
 20
-149.492221307664
 11
145.817930687596
 21
-141.999999999964
  0
MTEXT
  5
2F8
100
AcDbEntity
  8
0
  6
CONTINUOUS
 62
     2
100
AcDbMText
 10
152.02153322696
 20
-157.078421702729
 40
3.5
 41
0.0
 11
0.258819045102787
 21
-0.965925826288997
 71
     7
 72
     5
  7
STANDARD
  1
{\T1.60714;\W0.666667;30%%d}
 73
     1
 44
1.0
  0
POINT
  5
2F9
100
AcDbEntity
  8
DEFPOINTS
  6
BYBLOCK
 62
     0
100
AcDbPoint
 10
135.425625842186
 20
-180.000000000001
  0
POINT
  5
2FA
100
AcDbEntity
  8
DEFPOINTS
  6
BYBLOCK
 62
     0
100
AcDbPoint
 10
132.408010019234
 20
-149.742221307664
  0
POINT
  5
2FB
100
AcDbEntity
  8
DEFPOINTS
  6
BYBLOCK
 62
     0
100
AcDbPoint
 10
79.9999999999983
 20
-180.000000000001
  0
ENDBLK
  5
2FC
100
AcDbEntity
  8
4
100
AcDbBlockEnd
  0
BLOCK
  5
2FF
100
AcDbEntity
  8
0
100
AcDbBlockBegin
  2
*D5
 70
    65
 10
0.0
 20
0.0
  0
LINE
  5
300
100
AcDbEntity
  8
0
  6
CONTINUOUS
 62
     2
100
AcDbLine
 10
92.7
 20
-262.918782008654
 11
80.0000000000001
 21
-262.918782008654
  0
LINE
  5
301
100
AcDbEntity
  8
0
  6
CONTINUOUS
 62
     2
100
AcDbLine
 10
90.7
 20
-263.418782008654
 11
92.7
 21
-262.918782008654
  0
LINE
  5
302
100
AcDbEntity
  8
0
  6
CONTINUOUS
 62
     2
100
AcDbLine
 10
92.7
 20
-262.918782008654
 11
90.7
 21
-262.418782008654
  0
LINE
  5
303
100
AcDbEntity
  8
0
  6
CONTINUOUS
 62
     2
100
AcDbLine
 10
67.3000000000002
 20
-262.918782008654
 11
80.0000000000001
 21
-262.918782008654
  0
LINE
  5
304
100
AcDbEntity
  8
0
  6
CONTINUOUS
 62
     2
100
AcDbLine
 10
69.3000000000002
 20
-262.418782008654
 11
67.3000000000002
 21
-262.918782008654
  0
LINE
  5
305
100
AcDbEntity
  8
0
  6
CONTINUOUS
 62
     2
100
AcDbLine
 10
67.3000000000002
 20
-262.918782008654
 11
69.3000000000002
 21
-263.418782008654
  0
LINE
  5
306
100
AcDbEntity
  8
0
  6
CONTINUOUS
 62
     2
100
AcDbLine
 10
92.7
 20
-191.0337552658
 11
92.7
 21
-263.918782008654
  0
LINE
  5
307
100
AcDbEntity
  8
0
  6
CONTINUOUS
 62
     2
100
AcDbLine
 10
67.3000000000002
 20
-191.0337552658
 11
67.3000000000002
 21
-263.918782008654
  0
MTEXT
  5
308
100
AcDbEntity
  8
0
  6
CONTINUOUS
 62
     2
100
AcDbMText
 10
73.8750000000001
 20
-262.418782008654
 40
3.5
 41
0.0
 11
1.0
 21
0.0
 71
     7
 72
     5
  7
STANDARD
  1
{\T1.60714;\W0.666667;□25.4}
 73
     1
 44
1.0
  0
POINT
  5
309
100
AcDbEntity
  8
DEFPOINTS
  6
BYBLOCK
 62
     0
100
AcDbPoint
 10
92.7
 20
-190.5337552658
  0
POINT
  5
30A
100
AcDbEntity
  8
DEFPOINTS
  6
BYBLOCK
 62
     0
100
AcDbPoint
 10
67.3000000000002
 20
-190.5337552658
  0
POINT
  5
30B
100
AcDbEntity
  8
DEFPOINTS
  6
BYBLOCK
 62
     0
100
AcDbPoint
 10
67.3000000000002
 20
-262.918782008654
  0
ENDBLK
  5
30C
100
AcDbEntity
  8
4
100
AcDbBlockEnd
  0
BLOCK
  5
30F
100
AcDbEntity
  8
0
100
AcDbBlockBegin
  2
*D6
 70
    65
 10
0.0
 20
0.0
  0
LINE
  5
310
100
AcDbEntity
  8
0
  6
CONTINUOUS
 62
     2
100
AcDbLine
 10
112.5
 20
-85.0000000000011
 11
80.0000000000001
 21
-85.0000000000011
  0
LINE
  5
311
100
AcDbEntity
  8
0
  6
CONTINUOUS
 62
     2
100
AcDbLine
 10
110.5
 20
-85.5000000000011
 11
112.5
 21
-85.0000000000011
  0
LINE
  5
312
100
AcDbEntity
  8
0
  6
CONTINUOUS
 62
     2
100
AcDbLine
 10
112.5
 20
-85.0000000000011
 11
110.5
 21
-84.5000000000011
  0
LINE
  5
313
100
AcDbEntity
  8
0
  6
CONTINUOUS
 62
     2
100
AcDbLine
 10
47.5000000000001
 20
-85.0000000000011
 11
80.0000000000001
 21
-85.0000000000011
  0
LINE
  5
314
100
AcDbEntity
  8
0
  6
CONTINUOUS
 62
     2
100
AcDbLine
 10
49.5000000000001
 20
-84.5000000000011
 11
47.5000000000001
 21
-85.0000000000011
  0
LINE
  5
315
100
AcDbEntity
  8
0
  6
CONTINUOUS
 62
     2
100
AcDbLine
 10
47.5000000000001
 20
-85.0000000000011
 11
49.5000000000001
 21
-85.5000000000011
  0
LINE
  5
316
100
AcDbEntity
  8
0
  6
CONTINUOUS
 62
     2
100
AcDbLine
 10
112.5
 20
-94.5000000000001
 11
112.5
 21
-84.0000000000011
  0
LINE
  5
317
100
AcDbEntity
  8
0
  6
CONTINUOUS
 62
     2
100
AcDbLine
 10
47.5000000000001
 20
-94.5000000000001
 11
47.5000000000001
 21
-84.0000000000011
  0
MTEXT
  5
318
100
AcDbEntity
  8
0
  6
CONTINUOUS
 62
     2
100
AcDbMText
 10
77.8125000000001
 20
-84.5000000000011
 40
3.5
 41
0.0
 11
1.0
 21
0.0
 71
     7
 72
     5
  7
STANDARD
  1
{\T1.60714;\W0.666667;65}
 73
     1
 44
1.0
  0
POINT
  5
319
100
AcDbEntity
  8
DEFPOINTS
  6
BYBLOCK
 62
     0
100
AcDbPoint
 10
112.5
 20
-95.0000000000001
  0
POINT
  5
31A
100
AcDbEntity
  8
DEFPOINTS
  6
BYBLOCK
 62
     0
100
AcDbPoint
 10
47.5000000000001
 20
-95.0000000000001
  0
POINT
  5
31B
100
AcDbEntity
  8
DEFPOINTS
  6
BYBLOCK
 62
     0
100
AcDbPoint
 10
47.5000000000001
 20
-85.0000000000011
  0
ENDBLK
  5
31C
100
AcDbEntity
  8
4
100
AcDbBlockEnd
  0
BLOCK
  5
31F
100
AcDbEntity
  8
0
100
AcDbBlockBegin
  2
*D7
 70
    65
 10
0.0
 20
0.0
  0
LINE
  5
320
100
AcDbEntity
  8
0
  6
CONTINUOUS
 62
     2
100
AcDbLine
 10
107.982968132123
 20
-215.241360565628
 11
127.709078170657
 21
-240.084148976884
  0
LINE
  5
321
100
AcDbEntity
  8
0
  6
CONTINUOUS
 62
     2
100
AcDbLine
 10
127.709078170657
 20
-240.084148976884
 11
135.709078170657
 21
-240.084148976884
  0
LINE
  5
322
100
AcDbEntity
  8
0
  6
CONTINUOUS
 62
     2
100
AcDbLine
 10
107.982968132123
 20
-215.241360565628
 11
80.0000000000001
 21
-180.0
  0
LINE
  5
323
100
AcDbEntity
  8
0
  6
CONTINUOUS
 62
     2
100
AcDbLine
 10
106.347709986633
 20
-213.985999741957
 11
107.982968132123
 21
-215.241360565628
  0
LINE
  5
324
100
AcDbEntity
  8
0
  6
CONTINUOUS
 62
     2
100
AcDbLine
 10
107.982968132123
 20
-215.241360565628
 11
107.130851332535
 21
-213.364156005688
  0
LINE
  5
325
100
AcDbEntity
  8
0
  6
CONTINUOUS
 62
     2
100
AcDbLine
 10
52.0170318678774
 20
-144.758639434372
 11
80.0000000000001
 21
-180.0
  0
LINE
  5
326
100
AcDbEntity
  8
0
  6
CONTINUOUS
 62
     2
100
AcDbLine
 10
53.6522900133677
 20
-146.014000258043
 11
52.0170318678774
 21
-144.758639434372
  0
LINE
  5
327
100
AcDbEntity
  8
0
  6
CONTINUOUS
 62
     2
100
AcDbLine
 10
52.0170318678774
 20
-144.758639434372
 11
52.8691486674648
 21
-146.635843994312
  0
MTEXT
  5
328
100
AcDbEntity
  8
0
  6
CONTINUOUS
 62
     2
100
AcDbMText
 10
128.209078170657
 20
-239.584148976884
 40
3.5
 41
0.0
 11
1.0
 21
0.0
 71
     7
 72
     5
  7
STANDARD
  1
{\T1.60714;\W0.666667;%%c90}
 73
     1
 44
1.0
  0
POINT
  5
329
100
AcDbEntity
  8
DEFPOINTS
  6
BYBLOCK
 62
     0
100
AcDbPoint
 10
52.0170318678774
 20
-144.758639434372
  0
POINT
  5
32A
100
AcDbEntity
  8
DEFPOINTS
  6
BYBLOCK
 62
     0
100
AcDbPoint
 10
107.982968132123
 20
-215.241360565628
  0
ENDBLK
  5
32B
100
AcDbEntity
  8
4
100
AcDbBlockEnd
  0
BLOCK
  5
32E
100
AcDbEntity
  8
0
100
AcDbBlockBegin
  2
*D8
 70
    65
 10
0.0
 20
0.0
  0
LINE
  5
32F
100
AcDbEntity
  8
0
  6
CONTINUOUS
 62
     2
100
AcDbLine
 10
27.1594574238206
 20
-216.109237879731
 11
13.0730488287287
 21
-225.735359301515
  0
LINE
  5
330
100
AcDbEntity
  8
0
  6
CONTINUOUS
 62
     2
100
AcDbLine
 10
13.0730488287287
 20
-225.735359301515
 11
2.4480488287287
 21
-225.735359301515
  0
LINE
  5
331
100
AcDbEntity
  8
0
  6
CONTINUOUS
 62
     2
100
AcDbLine
 10
27.1594574238206
 20
-216.109237879731
 11
80.0000000000001
 21
-180.0
  0
LINE
  5
332
100
AcDbEntity
  8
0
  6
CONTINUOUS
 62
     2
100
AcDbLine
 10
28.5286209583909
 20
-214.568007457113
 11
27.1594574238206
 21
-216.109237879731
  0
LINE
  5
333
100
AcDbEntity
  8
0
  6
CONTINUOUS
 62
     2
100
AcDbLine
 10
27.1594574238206
 20
-216.109237879731
 11
29.0928278002616
 21
-215.393640934865
  0
LINE
  5
334
100
AcDbEntity
  8
0
  6
CONTINUOUS
 62
     2
100
AcDbLine
 10
132.84054257618
 20
-143.89076212027
 11
80.0000000000001
 21
-180.0
  0
LINE
  5
335
100
AcDbEntity
  8
0
  6
CONTINUOUS
 62
     2
100
AcDbLine
 10
131.471379041609
 20
-145.431992542888
 11
132.84054257618
 21
-143.89076212027
  0
LINE
  5
336
100
AcDbEntity
  8
0
  6
CONTINUOUS
 62
     2
100
AcDbLine
 10
132.84054257618
 20
-143.89076212027
 11
130.907172199739
 21
-144.606359065135
  0
MTEXT
  5
337
100
AcDbEntity
  8
0
  6
CONTINUOUS
 62
     2
100
AcDbMText
 10
2.9480488287287
 20
-225.235359301515
 40
3.5
 41
0.0
 11
1.0
 21
0.0
 71
     7
 72
     5
  7
STANDARD
  1
{\T1.60714;\W0.666667;%%c128}
 73
     1
 44
1.0
  0
POINT
  5
338
100
AcDbEntity
  8
DEFPOINTS
  6
BYBLOCK
 62
     0
100
AcDbPoint
 10
132.84054257618
 20
-143.89076212027
  0
POINT
  5
339
100
AcDbEntity
  8
DEFPOINTS
  6
BYBLOCK
 62
     0
100
AcDbPoint
 10
27.1594574238206
 20
-216.109237879731
  0
ENDBLK
  5
33A
100
AcDbEntity
  8
4
100
AcDbBlockEnd
  0
BLOCK
  5
33D
100
AcDbEntity
  8
0
100
AcDbBlockBegin
  2
*D9
 70
    65
 10
0.0
 20
0.0
  0
LINE
  5
33E
100
AcDbEntity
  8
0
  6
CONTINUOUS
 62
     2
100
AcDbLine
 10
29.5294463667982
 20
-201.856880288781
 11
17.8559787205185
 21
-206.912215856407
  0
LINE
  5
33F
100
AcDbEntity
  8
0
  6
CONTINUOUS
 62
     2
100
AcDbLine
 10
17.8559787205185
 20
-206.912215856407
 11
7.23097872051846
 21
-206.912215856407
  0
LINE
  5
340
100
AcDbEntity
  8
0
  6
CONTINUOUS
 62
     2
100
AcDbLine
 10
29.5294463667982
 20
-201.856880288781
 11
80.0000000000001
 21
-180.0
  0
LINE
  5
341
100
AcDbEntity
  8
0
  6
CONTINUOUS
 62
     2
100
AcDbLine
 10
31.1660403144712
 20
-200.603261427069
 11
29.5294463667982
 21
-201.856880288781
  0
LINE
  5
342
100
AcDbEntity
  8
0
  6
CONTINUOUS
 62
     2
100
AcDbLine
 10
29.5294463667982
 20
-201.856880288781
 11
31.5634381379035
 21
-201.520907856763
  0
LINE
  5
343
100
AcDbEntity
  8
0
  6
CONTINUOUS
 62
     2
100
AcDbLine
 10
130.470553633202
 20
-158.143119711219
 11
80.0000000000001
 21
-180.0
  0
LINE
  5
344
100
AcDbEntity
  8
0
  6
CONTINUOUS
 62
     2
100
AcDbLine
 10
128.833959685529
 20
-159.396738572931
 11
130.470553633202
 21
-158.143119711219
  0
LINE
  5
345
100
AcDbEntity
  8
0
  6
CONTINUOUS
 62
     2
100
AcDbLine
 10
130.470553633202
 20
-158.143119711219
 11
128.436561862097
 21
-158.479092143237
  0
MTEXT
  5
346
100
AcDbEntity
  8
0
  6
CONTINUOUS
 62
     2
100
AcDbMText
 10
7.73097872051846
 20
-206.412215856407
 40
3.5
 41
0.0
 11
1.0
 21
0.0
 71
     7
 72
     5
  7
STANDARD
  1
{\T1.60714;\W0.666667;%%c110}
 73
     1
 44
1.0
  0
POINT
  5
347
100
AcDbEntity
  8
DEFPOINTS
  6
BYBLOCK
 62
     0
100
AcDbPoint
 10
130.470553633202
 20
-158.143119711219
  0
POINT
  5
348
100
AcDbEntity
  8
DEFPOINTS
  6
BYBLOCK
 62
     0
100
AcDbPoint
 10
29.5294463667982
 20
-201.856880288781
  0
ENDBLK
  5
349
100
AcDbEntity
  8
4
100
AcDbBlockEnd
  0
BLOCK
  5
34E
100
AcDbEntity
  8
0
100
AcDbBlockBegin
  2
*D10
 70
    65
 10
0.0
 20
0.0
  0
LINE
  5
34F
100
AcDbEntity
  8
0
  6
CONTINUOUS
 62
     2
100
AcDbLine
 10
138.5931030166
 20
-70.0000000000011
 11
80.0
 21
-70.0000000000011
  0
LINE
  5
350
100
AcDbEntity
  8
0
  6
CONTINUOUS
 62
     2
100
AcDbLine
 10
136.5931030166
 20
-70.5000000000011
 11
138.5931030166
 21
-70.0000000000011
  0
LINE
  5
351
100
AcDbEntity
  8
0
  6
CONTINUOUS
 62
     2
100
AcDbLine
 10
138.5931030166
 20
-70.0000000000011
 11
136.5931030166
 21
-69.5000000000011
  0
LINE
  5
352
100
AcDbEntity
  8
0
  6
CONTINUOUS
 62
     2
100
AcDbLine
 10
21.4068969833997
 20
-70.0000000000011
 11
80.0
 21
-70.0000000000011
  0
LINE
  5
353
100
AcDbEntity
  8
0
  6
CONTINUOUS
 62
     2
100
AcDbLine
 10
23.4068969833997
 20
-69.5000000000011
 11
21.4068969833997
 21
-70.0000000000011
  0
LINE
  5
354
100
AcDbEntity
  8
0
  6
CONTINUOUS
 62
     2
100
AcDbLine
 10
21.4068969833997
 20
-70.0000000000011
 11
23.4068969833997
 21
-70.5000000000011
  0
LINE
  5
355
100
AcDbEntity
  8
0
  6
CONTINUOUS
 62
     2
100
AcDbLine
 10
138.5931030166
 20
-153.7541599693
 11
138.5931030166
 21
-69.0000000000011
  0
LINE
  5
356
100
AcDbEntity
  8
0
  6
CONTINUOUS
 62
     2
100
AcDbLine
 10
21.4068969833997
 20
-153.7541599693
 11
21.4068969833997
 21
-69.0000000000011
  0
MTEXT
  5
357
100
AcDbEntity
  8
0
  6
CONTINUOUS
 62
     2
100
AcDbMText
 10
73.875
 20
-69.5000000000011
 40
3.5
 41
0.0
 11
1.0
 21
0.0
 71
     7
 72
     5
  7
STANDARD
  1
{\T1.60714;\W0.666667;(117)}
 73
     1
 44
1.0
  0
POINT
  5
358
100
AcDbEntity
  8
DEFPOINTS
  6
BYBLOCK
 62
     0
100
AcDbPoint
 10
138.5931030166
 20
-154.2541599693
  0
POINT
  5
359
100
AcDbEntity
  8
DEFPOINTS
  6
BYBLOCK
 62
     0
100
AcDbPoint
 10
21.4068969833997
 20
-154.2541599693
  0
POINT
  5
35A
100
AcDbEntity
  8
DEFPOINTS
  6
BYBLOCK
 62
     0
100
AcDbPoint
 10
21.4068969833997
 20
-70.0000000000011
  0
ENDBLK
  5
35B
100
AcDbEntity
  8
4
100
AcDbBlockEnd
  0
BLOCK
  5
6BB
100
AcDbEntity
  8
0
100
AcDbBlockBegin
  2
*D11
 70
    65
 10
0.0
 20
0.0
  0
LINE
  5
6BC
100
AcDbEntity
  8
0
  6
CONTINUOUS
 62
     2
100
AcDbLine
 10
653.499999999981
 20
125.0
 11
326.749999999991
 21
125.0
  0
LINE
  5
6BD
100
AcDbEntity
  8
0
  6
CONTINUOUS
 62
     2
100
AcDbLine
 10
651.499999999981
 20
124.5
 11
653.499999999981
 21
125.0
  0
LINE
  5
6BE
100
AcDbEntity
  8
0
  6
CONTINUOUS
 62
     2
100
AcDbLine
 10
653.499999999981
 20
125.0
 11
651.499999999981
 21
125.5
  0
LINE
  5
6BF
100
AcDbEntity
  8
0
  6
CONTINUOUS
 62
     2
100
AcDbLine
 10
0.0
 20
125.0
 11
326.749999999991
 21
125.0
  0
LINE
  5
6C0
100
AcDbEntity
  8
0
  6
CONTINUOUS
 62
     2
100
AcDbLine
 10
2.0
 20
125.5
 11
0.0
 21
125.0
  0
LINE
  5
6C1
100
AcDbEntity
  8
0
  6
CONTINUOUS
 62
     2
100
AcDbLine
 10
0.0
 20
125.0
 11
2.0
 21
124.5
  0
LINE
  5
6C2
100
AcDbEntity
  8
0
  6
CONTINUOUS
 62
     2
100
AcDbLine
 10
653.499999999981
 20
34.499999999999
 11
653.499999999981
 21
126.0
  0
LINE
  5
6C3
100
AcDbEntity
  8
0
  6
CONTINUOUS
 62
     2
100
AcDbLine
 10
0.0
 20
13.2
 11
0.0
 21
126.0
  0
MTEXT
  5
6C4
100
AcDbEntity
  8
0
  6
CONTINUOUS
 62
     2
100
AcDbMText
 10
320.62499999999
 20
125.5
 40
3.5
 41
0.0
 11
1.0
 21
0.0
 71
     7
 72
     5
  7
STANDARD
  1
{\T1.60714;\W0.666667;653.5}
 73
     1
 44
1.0
  0
POINT
  5
6C5
100
AcDbEntity
  8
DEFPOINTS
  6
BYBLOCK
 62
     0
100
AcDbPoint
 10
653.499999999981
 20
33.999999999999
  0
POINT
  5
6C6
100
AcDbEntity
  8
DEFPOINTS
  6
BYBLOCK
 62
     0
100
AcDbPoint
 10
0.0
 20
12.7
  0
POINT
  5
6C7
100
AcDbEntity
  8
DEFPOINTS
  6
BYBLOCK
 62
     0
100
AcDbPoint
 10
0.0
 20
125.0
  0
ENDBLK
  5
6C8
100
AcDbEntity
  8
4
100
AcDbBlockEnd
  0
BLOCK
  5
6CB
100
AcDbEntity
  8
0
100
AcDbBlockBegin
  2
*D12
 70
    65
 10
0.0
 20
0.0
  0
LINE
  5
6CC
100
AcDbEntity
  8
0
  6
CONTINUOUS
 62
     2
100
AcDbLine
 10
653.499999999981
 20
110.0
 11
513.249999999981
 21
110.0
  0
LINE
  5
6CD
100
AcDbEntity
  8
0
  6
CONTINUOUS
 62
     2
100
AcDbLine
 10
651.499999999981
 20
109.5
 11
653.499999999981
 21
110.0
  0
LINE
  5
6CE
100
AcDbEntity
  8
0
  6
CONTINUOUS
 62
     2
100
AcDbLine
 10
653.499999999981
 20
110.0
 11
651.499999999981
 21
110.5
  0
LINE
  5
6CF
100
AcDbEntity
  8
0
  6
CONTINUOUS
 62
     2
100
AcDbLine
 10
372.99999999998
 20
110.0
 11
513.249999999981
 21
110.0
  0
LINE
  5
6D0
100
AcDbEntity
  8
0
  6
CONTINUOUS
 62
     2
100
AcDbLine
 10
374.99999999998
 20
110.5
 11
372.99999999998
 21
110.0
  0
LINE
  5
6D1
100
AcDbEntity
  8
0
  6
CONTINUOUS
 62
     2
100
AcDbLine
 10
372.99999999998
 20
110.0
 11
374.99999999998
 21
109.5
  0
LINE
  5
6D2
100
AcDbEntity
  8
0
  6
CONTINUOUS
 62
     2
100
AcDbLine
 10
653.499999999981
 20
34.999999999999
 11
653.499999999981
 21
111.0
  0
LINE
  5
6D3
100
AcDbEntity
  8
0
  6
CONTINUOUS
 62
     2
100
AcDbLine
 10
372.99999999998
 20
44.499999999999
 11
372.99999999998
 21
111.0
  0
MTEXT
  5
6D4
100
AcDbEntity
  8
0
  6
CONTINUOUS
 62
     2
100
AcDbMText
 10
507.12499999998
 20
110.5
 40
3.5
 41
0.0
 11
1.0
 21
0.0
 71
     7
 72
     5
  7
STANDARD
  1
{\T1.60714;\W0.666667;280.5}
 73
     1
 44
1.0
  0
POINT
  5
6D5
100
AcDbEntity
  8
DEFPOINTS
  6
BYBLOCK
 62
     0
100
AcDbPoint
 10
653.499999999981
 20
34.499999999999
  0
POINT
  5
6D6
100
AcDbEntity
  8
DEFPOINTS
  6
BYBLOCK
 62
     0
100
AcDbPoint
 10
372.99999999998
 20
43.999999999999
  0
POINT
  5
6D7
100
AcDbEntity
  8
DEFPOINTS
  6
BYBLOCK
 62
     0
100
AcDbPoint
 10
372.99999999998
 20
110.0
  0
ENDBLK
  5
6D8
100
AcDbEntity
  8
4
100
AcDbBlockEnd
  0
BLOCK
  5
6DB
100
AcDbEntity
  8
0
100
AcDbBlockBegin
  2
*D13
 70
    65
 10
0.0
 20
0.0
  0
LINE
  5
6DC
100
AcDbEntity
  8
0
  6
CONTINUOUS
 62
     2
100
AcDbLine
 10
372.99999999998
 20
110.0
 11
226.49999999999
 21
110.0
  0
LINE
  5
6DD
100
AcDbEntity
  8
0
  6
CONTINUOUS
 62
     2
100
AcDbLine
 10
370.99999999998
 20
109.5
 11
372.99999999998
 21
110.0
  0
LINE
  5
6DE
100
AcDbEntity
  8
0
  6
CONTINUOUS
 62
     2
100
AcDbLine
 10
372.99999999998
 20
110.0
 11
370.99999999998
 21
110.5
  0
LINE
  5
6DF
100
AcDbEntity
  8
0
  6
CONTINUOUS
 62
     2
100
AcDbLine
 10
80.0
 20
110.0
 11
226.49999999999
 21
110.0
  0
LINE
  5
6E0
100
AcDbEntity
  8
0
  6
CONTINUOUS
 62
     2
100
AcDbLine
 10
82.0
 20
110.5
 11
80.0
 21
110.0
  0
LINE
  5
6E1
100
AcDbEntity
  8
0
  6
CONTINUOUS
 62
     2
100
AcDbLine
 10
80.0
 20
110.0
 11
82.0
 21
109.5
  0
LINE
  5
6E2
100
AcDbEntity
  8
0
  6
CONTINUOUS
 62
     2
100
AcDbLine
 10
80.0
 20
50.652
 11
80.0
 21
111.0
  0
MTEXT
  5
6E3
100
AcDbEntity
  8
0
  6
CONTINUOUS
 62
     2
100
AcDbMText
 10
222.99999999999
 20
110.5
 40
3.5
 41
0.0
 11
1.0
 21
0.0
 71
     7
 72
     5
  7
STANDARD
  1
{\T1.60714;\W0.666667;293}
 73
     1
 44
1.0
  0
POINT
  5
6E4
100
AcDbEntity
  8
DEFPOINTS
  6
BYBLOCK
 62
     0
100
AcDbPoint
 10
372.99999999998
 20
43.999999999999
  0
POINT
  5
6E5
100
AcDbEntity
  8
DEFPOINTS
  6
BYBLOCK
 62
     0
100
AcDbPoint
 10
80.0
 20
50.152
  0
POINT
  5
6E6
100
AcDbEntity
  8
DEFPOINTS
  6
BYBLOCK
 62
     0
100
AcDbPoint
 10
80.0
 20
110.0
  0
ENDBLK
  5
6E7
100
AcDbEntity
  8
4
100
AcDbBlockEnd
  0
BLOCK
  5
6EA
100
AcDbEntity
  8
0
100
AcDbBlockBegin
  2
*D14
 70
    65
 10
0.0
 20
0.0
  0
LINE
  5
6EB
100
AcDbEntity
  8
0
  6
CONTINUOUS
 62
     2
100
AcDbLine
 10
80.0
 20
110.0
 11
40.0
 21
110.0
  0
LINE
  5
6EC
100
AcDbEntity
  8
0
  6
CONTINUOUS
 62
     2
100
AcDbLine
 10
78.0
 20
109.5
 11
80.0
 21
110.0
  0
LINE
  5
6ED
100
AcDbEntity
  8
0
  6
CONTINUOUS
 62
     2
100
AcDbLine
 10
80.0
 20
110.0
 11
78.0
 21
110.5
  0
LINE
  5
6EE
100
AcDbEntity
  8
0
  6
CONTINUOUS
 62
     2
100
AcDbLine
 10
0.0
 20
110.0
 11
40.0
 21
110.0
  0
LINE
  5
6EF
100
AcDbEntity
  8
0
  6
CONTINUOUS
 62
     2
100
AcDbLine
 10
2.0
 20
110.5
 11
0.0
 21
110.0
  0
LINE
  5
6F0
100
AcDbEntity
  8
0
  6
CONTINUOUS
 62
     2
100
AcDbLine
 10
0.0
 20
110.0
 11
2.0
 21
109.5
  0
LINE
  5
6F1
100
AcDbEntity
  8
0
  6
CONTINUOUS
 62
     2
100
AcDbLine
 10
0.0
 20
13.2
 11
0.0
 21
111.0
  0
MTEXT
  5
6F2
100
AcDbEntity
  8
0
  6
CONTINUOUS
 62
     2
100
AcDbMText
 10
37.8125
 20
110.5
 40
3.5
 41
0.0
 11
1.0
 21
0.0
 71
     7
 72
     5
  7
STANDARD
  1
{\T1.60714;\W0.666667;80}
 73
     1
 44
1.0
  0
POINT
  5
6F3
100
AcDbEntity
  8
DEFPOINTS
  6
BYBLOCK
 62
     0
100
AcDbPoint
 10
80.0
 20
50.152
  0
POINT
  5
6F4
100
AcDbEntity
  8
DEFPOINTS
  6
BYBLOCK
 62
     0
100
AcDbPoint
 10
0.0
 20
12.7
  0
POINT
  5
6F5
100
AcDbEntity
  8
DEFPOINTS
  6
BYBLOCK
 62
     0
100
AcDbPoint
 10
0.0
 20
110.0
  0
ENDBLK
  5
6F6
100
AcDbEntity
  8
4
100
AcDbBlockEnd
  0
BLOCK
  5
6F9
100
AcDbEntity
  8
0
100
AcDbBlockBegin
  2
*D15
 70
    65
 10
0.0
 20
0.0
  0
LINE
  5
6FA
100
AcDbEntity
  8
0
  6
CONTINUOUS
 62
     2
100
AcDbLine
 10
0.0
 20
95.0
 11
20.0
 21
95.0
  0
LINE
  5
6FB
100
AcDbEntity
  8
0
  6
CONTINUOUS
 62
     2
100
AcDbLine
 10
2.0
 20
95.5
 11
0.0
 21
95.0
  0
LINE
  5
6FC
100
AcDbEntity
  8
0
  6
CONTINUOUS
 62
     2
100
AcDbLine
 10
0.0
 20
95.0
 11
2.0
 21
94.5
  0
LINE
  5
6FD
100
AcDbEntity
  8
0
  6
CONTINUOUS
 62
     2
100
AcDbLine
 10
40.0
 20
95.0
 11
20.0
 21
95.0
  0
LINE
  5
6FE
100
AcDbEntity
  8
0
  6
CONTINUOUS
 62
     2
100
AcDbLine
 10
38.0
 20
94.5
 11
40.0
 21
95.0
  0
LINE
  5
6FF
100
AcDbEntity
  8
0
  6
CONTINUOUS
 62
     2
100
AcDbLine
 10
40.0
 20
95.0
 11
38.0
 21
95.5
  0
LINE
  5
700
100
AcDbEntity
  8
0
  6
CONTINUOUS
 62
     2
100
AcDbLine
 10
0.0
 20
13.2
 11
0.0
 21
96.0
  0
LINE
  5
701
100
AcDbEntity
  8
0
  6
CONTINUOUS
 62
     2
100
AcDbLine
 10
40.0
 20
17.0
 11
40.0
 21
96.0
  0
MTEXT
  5
702
100
AcDbEntity
  8
0
  6
CONTINUOUS
 62
     2
100
AcDbMText
 10
17.8125
 20
95.5
 40
3.5
 41
0.0
 11
1.0
 21
0.0
 71
     7
 72
     5
  7
STANDARD
  1
{\T1.60714;\W0.666667;40}
 73
     1
 44
1.0
  0
POINT
  5
703
100
AcDbEntity
  8
DEFPOINTS
  6
BYBLOCK
 62
     0
100
AcDbPoint
 10
0.0
 20
12.7
  0
POINT
  5
704
100
AcDbEntity
  8
DEFPOINTS
  6
BYBLOCK
 62
     0
100
AcDbPoint
 10
40.0
 20
16.5
  0
POINT
  5
705
100
AcDbEntity
  8
DEFPOINTS
  6
BYBLOCK
 62
     0
100
AcDbPoint
 10
40.0
 20
95.0
  0
ENDBLK
  5
706
100
AcDbEntity
  8
4
100
AcDbBlockEnd
  0
BLOCK
  5
709
100
AcDbEntity
  8
0
100
AcDbBlockBegin
  2
*D16
 70
    65
 10
0.0
 20
0.0
  0
LINE
  5
70A
100
AcDbEntity
  8
0
  6
CONTINUOUS
 62
     2
100
AcDbLine
 10
0.0
 20
80.0
 11
7.50000059681753
 21
80.0
  0
LINE
  5
70B
100
AcDbEntity
  8
0
  6
CONTINUOUS
 62
     2
100
AcDbLine
 10
2.0
 20
80.5
 11
0.0
 21
80.0
  0
LINE
  5
70C
100
AcDbEntity
  8
0
  6
CONTINUOUS
 62
     2
100
AcDbLine
 10
0.0
 20
80.0
 11
2.0
 21
79.5
  0
LINE
  5
70D
100
AcDbEntity
  8
0
  6
CONTINUOUS
 62
     2
100
AcDbLine
 10
15.0000011936351
 20
80.0
 11
7.50000059681753
 21
80.0
  0
LINE
  5
70E
100
AcDbEntity
  8
0
  6
CONTINUOUS
 62
     2
100
AcDbLine
 10
13.0000011936351
 20
79.5
 11
15.0000011936351
 21
80.0
  0
LINE
  5
70F
100
AcDbEntity
  8
0
  6
CONTINUOUS
 62
     2
100
AcDbLine
 10
15.0000011936351
 20
80.0
 11
13.0000011936351
 21
80.5
  0
LINE
  5
710
100
AcDbEntity
  8
0
  6
CONTINUOUS
 62
     2
100
AcDbLine
 10
0.0
 20
13.2
 11
0.0
 21
81.0
  0
LINE
  5
711
100
AcDbEntity
  8
0
  6
CONTINUOUS
 62
     2
100
AcDbLine
 10
15.0000011936351
 20
13.200000000001
 11
15.0000011936351
 21
81.0
  0
MTEXT
  5
712
100
AcDbEntity
  8
0
  6
CONTINUOUS
 62
     2
100
AcDbMText
 10
5.31250059681702
 20
80.5
 40
3.5
 41
0.0
 11
1.0
 21
0.0
 71
     7
 72
     5
  7
STANDARD
  1
{\T1.60714;\W0.666667;15}
 73
     1
 44
1.0
  0
POINT
  5
713
100
AcDbEntity
  8
DEFPOINTS
  6
BYBLOCK
 62
     0
100
AcDbPoint
 10
0.0
 20
12.7
  0
POINT
  5
714
100
AcDbEntity
  8
DEFPOINTS
  6
BYBLOCK
 62
     0
100
AcDbPoint
 10
15.0000011936351
 20
12.700000000001
  0
POINT
  5
715
100
AcDbEntity
  8
DEFPOINTS
  6
BYBLOCK
 62
     0
100
AcDbPoint
 10
15.0000011936351
 20
80.0
  0
ENDBLK
  5
716
100
AcDbEntity
  8
4
100
AcDbBlockEnd
  0
BLOCK
  5
719
100
AcDbEntity
  8
0
100
AcDbBlockBegin
  2
*D17
 70
    65
 10
0.0
 20
0.0
  0
LINE
  5
71A
100
AcDbEntity
  8
0
  6
CONTINUOUS
 62
     2
100
AcDbLine
 10
-15.0
 20
16.5
 11
-15.0
 21
0.0
  0
LINE
  5
71B
100
AcDbEntity
  8
0
  6
CONTINUOUS
 62
     2
100
AcDbLine
 10
-14.5
 20
14.5
 11
-15.0
 21
16.5
  0
LINE
  5
71C
100
AcDbEntity
  8
0
  6
CONTINUOUS
 62
     2
100
AcDbLine
 10
-15.0
 20
16.5
 11
-15.5
 21
14.5
  0
LINE
  5
71D
100
AcDbEntity
  8
0
  6
CONTINUOUS
 62
     2
100
AcDbLine
 10
-15.0
 20
-16.5
 11
-15.0
 21
0.0
  0
LINE
  5
71E
100
AcDbEntity
  8
0
  6
CONTINUOUS
 62
     2
100
AcDbLine
 10
-15.5
 20
-14.5
 11
-15.0
 21
-16.5
  0
LINE
  5
71F
100
AcDbEntity
  8
0
  6
CONTINUOUS
 62
     2
100
AcDbLine
 10
-15.0
 20
-16.5
 11
-14.5
 21
-14.5
  0
LINE
  5
720
100
AcDbEntity
  8
0
  6
CONTINUOUS
 62
     2
100
AcDbLine
 10
39.5
 20
16.5
 11
-16.0
 21
16.5
  0
LINE
  5
721
100
AcDbEntity
  8
0
  6
CONTINUOUS
 62
     2
100
AcDbLine
 10
39.5
 20
-16.5
 11
-16.0
 21
-16.5
  0
MTEXT
  5
722
100
AcDbEntity
  8
0
  6
CONTINUOUS
 62
     2
100
AcDbMText
 10
-15.5
 20
-3.5
 40
3.5
 41
0.0
 11
6.12323399573677E-017
 21
1.0
 71
     7
 72
     5
  7
STANDARD
  1
{\T1.60714;\W0.666667;%%c33}
 73
     1
 44
1.0
  0
POINT
  5
723
100
AcDbEntity
  8
DEFPOINTS
  6
BYBLOCK
 62
     0
100
AcDbPoint
 10
40.0
 20
16.5
  0
POINT
  5
724
100
AcDbEntity
  8
DEFPOINTS
  6
BYBLOCK
 62
     0
100
AcDbPoint
 10
40.0
 20
-16.5
  0
POINT
  5
725
100
AcDbEntity
  8
DEFPOINTS
  6
BYBLOCK
 62
     0
100
AcDbPoint
 10
-15.0
 20
-16.5
  0
ENDBLK
  5
726
100
AcDbEntity
  8
4
100
AcDbBlockEnd
  0
BLOCK
  5
729
100
AcDbEntity
  8
0
100
AcDbBlockBegin
  2
*D18
 70
    65
 10
0.0
 20
0.0
  0
LINE
  5
72A
100
AcDbEntity
  8
0
  6
CONTINUOUS
 62
     2
100
AcDbLine
 10
-30.0
 20
35.0
 11
-30.0
 21
-1.42108547152020E-013
  0
LINE
  5
72B
100
AcDbEntity
  8
0
  6
CONTINUOUS
 62
     2
100
AcDbLine
 10
-29.5
 20
33.0
 11
-30.0
 21
35.0
  0
LINE
  5
72C
100
AcDbEntity
  8
0
  6
CONTINUOUS
 62
     2
100
AcDbLine
 10
-30.0
 20
35.0
 11
-30.5
 21
33.0
  0
LINE
  5
72D
100
AcDbEntity
  8
0
  6
CONTINUOUS
 62
     2
100
AcDbLine
 10
-30.0
 20
-35.0000000000003
 11
-30.0
 21
-1.42108547152020E-013
  0
LINE
  5
72E
100
AcDbEntity
  8
0
  6
CONTINUOUS
 62
     2
100
AcDbLine
 10
-30.5
 20
-33.0000000000003
 11
-30.0
 21
-35.0000000000003
  0
LINE
  5
72F
100
AcDbEntity
  8
0
  6
CONTINUOUS
 62
     2
100
AcDbLine
 10
-30.0
 20
-35.0000000000003
 11
-29.5
 21
-33.0000000000003
  0
LINE
  5
730
100
AcDbEntity
  8
0
  6
CONTINUOUS
 62
     2
100
AcDbLine
 10
68.5
 20
35.0
 11
-31.0
 21
35.0
  0
LINE
  5
731
100
AcDbEntity
  8
0
  6
CONTINUOUS
 62
     2
100
AcDbLine
 10
68.5
 20
-35.0000000000003
 11
-31.0
 21
-35.0000000000003
  0
MTEXT
  5
732
100
AcDbEntity
  8
0
  6
CONTINUOUS
 62
     2
100
AcDbMText
 10
-31.5
 20
-8.375
 40
3.5
 41
0.0
 11
6.12323399573677E-017
 21
1.0
 71
     7
 72
     5
  7
STANDARD
  1
{\T1.60714;\W0.666667;%%c70}
 73
     1
 44
1.0
  0
MTEXT
  5
733
100
AcDbEntity
  8
0
  6
CONTINUOUS
 62
     2
100
AcDbMText
 10
-33.5
 20
-0.375
 40
2.5
 41
0.0
 11
6.12323399573677E-017
 21
1.0
 71
     7
 72
     5
  7
STANDARD
  1
{\T1.60714;\W0.666667;-0.03}
 73
     1
 44
1.0
  0
MTEXT
  5
734
100
AcDbEntity
  8
0
  6
CONTINUOUS
 62
     2
100
AcDbMText
 10
-30.5
 20
-0.375
 40
2.5
 41
0.0
 11
6.12323399573677E-017
 21
1.0
 71
     7
 72
     5
  7
STANDARD
  1
{\T1.60714;\W0.666667;-0.05}
 73
     1
 44
1.0
  0
POINT
  5
735
100
AcDbEntity
  8
DEFPOINTS
  6
BYBLOCK
 62
     0
100
AcDbPoint
 10
69.0
 20
35.0
  0
POINT
  5
736
100
AcDbEntity
  8
DEFPOINTS
  6
BYBLOCK
 62
     0
100
AcDbPoint
 10
69.0
 20
-35.0000000000003
  0
POINT
  5
737
100
AcDbEntity
  8
DEFPOINTS
  6
BYBLOCK
 62
     0
100
AcDbPoint
 10
-30.0
 20
-35.0000000000003
  0
ENDBLK
  5
738
100
AcDbEntity
  8
4
100
AcDbBlockEnd
  0
BLOCK
  5
73B
100
AcDbEntity
  8
0
100
AcDbBlockBegin
  2
*D19
 70
    65
 10
0.0
 20
0.0
  0
LINE
  5
73C
100
AcDbEntity
  8
0
  6
CONTINUOUS
 62
     2
100
AcDbLine
 10
13.808637427682
 20
-3.02376507375897
 11
-4.9120878674139
 21
-50.5383308474773
  0
LINE
  5
73D
100
AcDbEntity
  8
0
  6
CONTINUOUS
 62
     2
100
AcDbLine
 10
-4.9120878674139
 20
-50.5383308474773
 11
-15.5370878674139
 21
-50.5383308474773
  0
LINE
  5
73E
100
AcDbEntity
  8
0
  6
CONTINUOUS
 62
     2
100
AcDbLine
 10
13.808637427682
 20
-3.02376507375897
 11
15.0
 21
-9.66338120633736E-013
  0
LINE
  5
73F
100
AcDbEntity
  8
0
  6
CONTINUOUS
 62
     2
100
AcDbLine
 10
14.0765889992993
 20
-0.979700017243441
 11
13.808637427682
 21
-3.02376507375897
  0
LINE
  5
740
100
AcDbEntity
  8
0
  6
CONTINUOUS
 62
     2
100
AcDbLine
 10
13.808637427682
 20
-3.02376507375897
 11
15.0069782527634
 21
-1.34627311641812
  0
LINE
  5
741
100
AcDbEntity
  8
0
  6
CONTINUOUS
 62
     2
100
AcDbLine
 10
16.1913625723171
 20
3.02376507375703
 11
15.0
 21
-9.66338120633736E-013
  0
LINE
  5
742
100
AcDbEntity
  8
0
  6
CONTINUOUS
 62
     2
100
AcDbLine
 10
15.9234110006998
 20
0.979700017241506
 11
16.1913625723171
 21
3.02376507375703
  0
LINE
  5
743
100
AcDbEntity
  8
0
  6
CONTINUOUS
 62
     2
100
AcDbLine
 10
16.1913625723171
 20
3.02376507375703
 11
14.9930217472357
 21
1.34627311641617
  0
MTEXT
  5
744
100
AcDbEntity
  8
0
  6
CONTINUOUS
 62
     2
100
AcDbMText
 10
-15.0370878674139
 20
-50.0383308474773
 40
3.5
 41
0.0
 11
1.0
 21
0.0
 71
     7
 72
     5
  7
STANDARD
  1
{\T1.60714;\W0.666667;%%c6.5}
 73
     1
 44
1.0
  0
POINT
  5
745
100
AcDbEntity
  8
DEFPOINTS
  6
BYBLOCK
 62
     0
100
AcDbPoint
 10
16.1913625723171
 20
3.02376507375703
  0
POINT
  5
746
100
AcDbEntity
  8
DEFPOINTS
  6
BYBLOCK
 62
     0
100
AcDbPoint
 10
13.808637427682
 20
-3.02376507375897
  0
ENDBLK
  5
747
100
AcDbEntity
  8
4
100
AcDbBlockEnd
  0
BLOCK
  5
74F
100
AcDbEntity
  8
0
100
AcDbBlockBegin
  2
*D20
 70
    65
 10
0.0
 20
0.0
  0
LINE
  5
750
100
AcDbEntity
  8
0
  6
CONTINUOUS
 62
     2
100
AcDbLine
 10
170.0
 20
-180.000000000001
 11
170.0
 21
-156.750000000001
  0
LINE
  5
751
100
AcDbEntity
  8
0
  6
CONTINUOUS
 62
     2
100
AcDbLine
 10
169.5
 20
-178.000000000001
 11
170.0
 21
-180.000000000001
  0
LINE
  5
752
100
AcDbEntity
  8
0
  6
CONTINUOUS
 62
     2
100
AcDbLine
 10
170.0
 20
-180.000000000001
 11
170.5
 21
-178.000000000001
  0
LINE
  5
753
100
AcDbEntity
  8
0
  6
CONTINUOUS
 62
     2
100
AcDbLine
 10
170.0
 20
-133.5
 11
170.0
 21
-156.750000000001
  0
LINE
  5
754
100
AcDbEntity
  8
0
  6
CONTINUOUS
 62
     2
100
AcDbLine
 10
170.5
 20
-135.5
 11
170.0
 21
-133.5
  0
LINE
  5
755
100
AcDbEntity
  8
0
  6
CONTINUOUS
 62
     2
100
AcDbLine
 10
170.0
 20
-133.5
 11
169.5
 21
-135.5
  0
LINE
  5
756
100
AcDbEntity
  8
0
  6
CONTINUOUS
 62
     2
100
AcDbLine
 10
135.925625842186
 20
-180.000000000001
 11
171.0
 21
-180.000000000001
  0
LINE
  5
757
100
AcDbEntity
  8
0
  6
CONTINUOUS
 62
     2
100
AcDbLine
 10
113.0
 20
-133.5
 11
171.0
 21
-133.5
  0
MTEXT
  5
758
100
AcDbEntity
  8
0
  6
CONTINUOUS
 62
     2
100
AcDbMText
 10
169.5
 20
-161.562500000001
 40
3.5
 41
0.0
 11
6.12323399573677E-017
 21
1.0
 71
     7
 72
     5
  7
STANDARD
  1
{\T1.60714;\W0.666667;46.5}
 73
     1
 44
1.0
  0
POINT
  5
759
100
AcDbEntity
  8
DEFPOINTS
  6
BYBLOCK
 62
     0
100
AcDbPoint
 10
135.425625842186
 20
-180.000000000001
  0
POINT
  5
75A
100
AcDbEntity
  8
DEFPOINTS
  6
BYBLOCK
 62
     0
100
AcDbPoint
 10
112.5
 20
-133.5
  0
POINT
  5
75B
100
AcDbEntity
  8
DEFPOINTS
  6
BYBLOCK
 62
     0
100
AcDbPoint
 10
170.0
 20
-133.5
  0
ENDBLK
  5
75C
100
AcDbEntity
  8
4
100
AcDbBlockEnd
  0
BLOCK
  5
2AF
100
AcDbEntity
  8
0
100
AcDbBlockBegin
  2
M10_0001
 70
    64
 10
0.0
 20
0.0
  0
CIRCLE
  5
2B0
100
AcDbEntity
  8
2
  6
CONTINUOUS
 62
     0
100
AcDbCircle
 10
0.0
 20
0.0
 40
4.25
  0
CIRCLE
  5
2B1
100
AcDbEntity
  8
8
  6
CONTINUOUS
 62
     7
100
AcDbCircle
 10
0.0
 20
0.0
 40
5.0
  0
ENDBLK
  5
2B2
100
AcDbEntity
  8
8
100
AcDbBlockEnd
  0
BLOCK
  5
2B5
100
AcDbEntity
  8
0
100
AcDbBlockBegin
  2
M10_0002
 70
    64
 10
0.0
 20
0.0
  0
CIRCLE
  5
2B6
100
AcDbEntity
  8
2
  6
CONTINUOUS
 62
     0
100
AcDbCircle
 10
0.0
 20
0.0
 40
4.25
  0
CIRCLE
  5
2B7
100
AcDbEntity
  8
8
  6
CONTINUOUS
 62
     7
100
AcDbCircle
 10
0.0
 20
0.0
 40
5.0
  0
ENDBLK
  5
2B8
100
AcDbEntity
  8
8
100
AcDbBlockEnd
  0
BLOCK
  5
2BB
100
AcDbEntity
  8
0
100
AcDbBlockBegin
  2
M10_0003
 70
    64
 10
0.0
 20
0.0
  0
CIRCLE
  5
2BC
100
AcDbEntity
  8
2
  6
CONTINUOUS
 62
     0
100
AcDbCircle
 10
0.0
 20
0.0
 40
4.25
  0
CIRCLE
  5
2BD
100
AcDbEntity
  8
8
  6
CONTINUOUS
 62
     7
100
AcDbCircle
 10
0.0
 20
0.0
 40
5.0
  0
ENDBLK
  5
2BE
100
AcDbEntity
  8
8
100
AcDbBlockEnd
  0
BLOCK
  5
3B2
100
AcDbEntity
  8
0
100
AcDbBlockBegin
  2
M6_0004
 70
    64
 10
0.0
 20
0.0
  0
CIRCLE
  5
3B3
100
AcDbEntity
  8
2
  6
CONTINUOUS
 62
     0
100
AcDbCircle
 10
0.0
 20
0.0
 40
2.6
  0
CIRCLE
  5
3B4
100
AcDbEntity
  8
8
  6
CONTINUOUS
 62
     7
100
AcDbCircle
 10
0.0
 20
0.0
 40
3.0
  0
ENDBLK
  5
3B5
100
AcDbEntity
  8
8
100
AcDbBlockEnd
  0
BLOCK
  5
26
100
AcDbEntity
  8
0
100
AcDbBlockBegin
  2
SUB1
 70
    64
 10
0.0
 20
0.0
  0
LINE
  5
27
100
AcDbEntity
  8
2
  6
CONTINUOUS
 62
     0
100
AcDbLine
 10
599.100000000001
 20
119.854813623827
 11
599.100000000001
 21
85.8548136238267
  0
LINE
  5
29
100
AcDbEntity
  8
2
  6
CONTINUOUS
 62
     0
100
AcDbLine
 10
595.100000000001
 20
90.3548136238267
 11
594.100000000001
 21
90.3548136238267
  0
LINE
  5
2A
100
AcDbEntity
  8
2
  6
CONTINUOUS
 62
     0
100
AcDbLine
 10
595.100000000001
 20
115.354813623827
 11
594.100000000001
 21
115.354813623827
  0
LINE
  5
2B
100
AcDbEntity
  8
2
  6
CONTINUOUS
 62
     0
100
AcDbLine
 10
594.100000000001
 20
86.3548136238267
 11
594.100000000001
 21
119.354813623827
  0
LINE
  5
2C
100
AcDbEntity
  8
2
  6
CONTINUOUS
 62
     0
100
AcDbLine
 10
609.100000000001
 20
86.3548136238267
 11
609.100000000001
 21
119.354813623827
  0
LINE
  5
2D
100
AcDbEntity
  8
2
  6
CONTINUOUS
 62
     0
100
AcDbLine
 10
599.100000000001
 20
86.3548136238267
 11
609.100000000001
 21
86.3548136238267
  0
LINE
  5
2E
100
AcDbEntity
  8
2
  6
CONTINUOUS
 62
     0
100
AcDbLine
 10
609.100000000001
 20
87.8548136238267
 11
599.100000000001
 21
87.8548136238267
  0
LINE
  5
2F
100
AcDbEntity
  8
2
  6
CONTINUOUS
 62
     0
100
AcDbLine
 10
599.100000000001
 20
89.3548136238267
 11
609.100000000001
 21
89.3548136238267
  0
LINE
  5
30
100
AcDbEntity
  8
2
  6
CONTINUOUS
 62
     0
100
AcDbLine
 10
609.100000000001
 20
90.8548136238267
 11
599.100000000001
 21
90.8548136238267
  0
LINE
  5
31
100
AcDbEntity
  8
2
  6
CONTINUOUS
 62
     0
100
AcDbLine
 10
599.100000000001
 20
92.3548136238267
 11
609.100000000001
 21
92.3548136238267
  0
LINE
  5
32
100
AcDbEntity
  8
2
  6
CONTINUOUS
 62
     0
100
AcDbLine
 10
609.100000000001
 20
93.8548136238267
 11
599.100000000001
 21
93.8548136238267
  0
LINE
  5
33
100
AcDbEntity
  8
2
  6
CONTINUOUS
 62
     0
100
AcDbLine
 10
599.100000000001
 20
95.3548136238267
 11
609.100000000001
 21
95.3548136238267
  0
LINE
  5
34
100
AcDbEntity
  8
2
  6
CONTINUOUS
 62
     0
100
AcDbLine
 10
609.100000000001
 20
96.8548136238267
 11
599.100000000001
 21
96.8548136238267
  0
LINE
  5
35
100
AcDbEntity
  8
2
  6
CONTINUOUS
 62
     0
100
AcDbLine
 10
599.100000000001
 20
98.3548136238267
 11
609.100000000001
 21
98.3548136238267
  0
LINE
  5
36
100
AcDbEntity
  8
2
  6
CONTINUOUS
 62
     0
100
AcDbLine
 10
609.100000000001
 20
99.8548136238267
 11
599.100000000001
 21
99.8548136238267
  0
LINE
  5
37
100
AcDbEntity
  8
2
  6
CONTINUOUS
 62
     0
100
AcDbLine
 10
599.100000000001
 20
101.354813623827
 11
609.100000000001
 21
101.354813623827
  0
LINE
  5
38
100
AcDbEntity
  8
2
  6
CONTINUOUS
 62
     0
100
AcDbLine
 10
609.100000000001
 20
102.854813623827
 11
599.100000000001
 21
102.854813623827
  0
LINE
  5
39
100
AcDbEntity
  8
2
  6
CONTINUOUS
 62
     0
100
AcDbLine
 10
599.100000000001
 20
104.354813623827
 11
609.100000000001
 21
104.354813623827
  0
LINE
  5
3A
100
AcDbEntity
  8
2
  6
CONTINUOUS
 62
     0
100
AcDbLine
 10
609.100000000001
 20
105.854813623827
 11
599.100000000001
 21
105.854813623827
  0
LINE
  5
3B
100
AcDbEntity
  8
2
  6
CONTINUOUS
 62
     0
100
AcDbLine
 10
599.100000000001
 20
107.354813623827
 11
609.100000000001
 21
107.354813623827
  0
LINE
  5
3C
100
AcDbEntity
  8
2
  6
CONTINUOUS
 62
     0
100
AcDbLine
 10
609.100000000001
 20
108.854813623827
 11
599.100000000001
 21
108.854813623827
  0
LINE
  5
3D
100
AcDbEntity
  8
2
  6
CONTINUOUS
 62
     0
100
AcDbLine
 10
599.100000000001
 20
110.354813623827
 11
609.100000000001
 21
110.354813623827
  0
LINE
  5
3E
100
AcDbEntity
  8
2
  6
CONTINUOUS
 62
     0
100
AcDbLine
 10
609.100000000001
 20
111.854813623827
 11
599.100000000001
 21
111.854813623827
  0
LINE
  5
3F
100
AcDbEntity
  8
2
  6
CONTINUOUS
 62
     0
100
AcDbLine
 10
599.100000000001
 20
113.354813623827
 11
609.100000000001
 21
113.354813623827
  0
LINE
  5
40
100
AcDbEntity
  8
2
  6
CONTINUOUS
 62
     0
100
AcDbLine
 10
609.100000000001
 20
114.854813623827
 11
599.100000000001
 21
114.854813623827
  0
LINE
  5
41
100
AcDbEntity
  8
2
  6
CONTINUOUS
 62
     0
100
AcDbLine
 10
599.100000000001
 20
116.354813623827
 11
609.100000000001
 21
116.354813623827
  0
LINE
  5
42
100
AcDbEntity
  8
2
  6
CONTINUOUS
 62
     0
100
AcDbLine
 10
609.100000000001
 20
117.854813623827
 11
599.100000000001
 21
117.854813623827
  0
LINE
  5
43
100
AcDbEntity
  8
2
  6
CONTINUOUS
 62
     0
100
AcDbLine
 10
599.100000000001
 20
119.354813623827
 11
609.100000000001
 21
119.354813623827
  0
LINE
  5
44
100
AcDbEntity
  8
2
  6
CONTINUOUS
 62
     0
100
AcDbLine
 10
587.100000000001
 20
87.8548136238267
 11
594.100000000001
 21
87.8548136238267
  0
LINE
  5
45
100
AcDbEntity
  8
2
  6
CONTINUOUS
 62
     0
100
AcDbLine
 10
594.100000000001
 20
89.3548136238267
 11
587.100000000001
 21
89.3548136238267
  0
LINE
  5
46
100
AcDbEntity
  8
2
  6
CONTINUOUS
 62
     0
100
AcDbLine
 10
587.100000000001
 20
90.8548136238267
 11
594.100000000001
 21
90.8548136238267
  0
LINE
  5
47
100
AcDbEntity
  8
2
  6
CONTINUOUS
 62
     0
100
AcDbLine
 10
594.100000000001
 20
92.3548136238267
 11
587.100000000001
 21
92.3548136238267
  0
LINE
  5
48
100
AcDbEntity
  8
2
  6
CONTINUOUS
 62
     0
100
AcDbLine
 10
587.100000000001
 20
93.8548136238267
 11
594.100000000001
 21
93.8548136238267
  0
LINE
  5
49
100
AcDbEntity
  8
2
  6
CONTINUOUS
 62
     0
100
AcDbLine
 10
594.100000000001
 20
95.3548136238267
 11
587.100000000001
 21
95.3548136238267
  0
LINE
  5
4A
100
AcDbEntity
  8
2
  6
CONTINUOUS
 62
     0
100
AcDbLine
 10
587.100000000001
 20
96.8548136238267
 11
594.100000000001
 21
96.8548136238267
  0
LINE
  5
4B
100
AcDbEntity
  8
2
  6
CONTINUOUS
 62
     0
100
AcDbLine
 10
594.100000000001
 20
98.3548136238267
 11
587.100000000001
 21
98.3548136238267
  0
LINE
  5
4C
100
AcDbEntity
  8
2
  6
CONTINUOUS
 62
     0
100
AcDbLine
 10
587.100000000001
 20
99.8548136238267
 11
594.100000000001
 21
99.8548136238267
  0
LINE
  5
4D
100
AcDbEntity
  8
2
  6
CONTINUOUS
 62
     0
100
AcDbLine
 10
594.100000000001
 20
101.354813623827
 11
587.100000000001
 21
101.354813623827
  0
LINE
  5
4E
100
AcDbEntity
  8
2
  6
CONTINUOUS
 62
     0
100
AcDbLine
 10
587.100000000001
 20
102.854813623827
 11
594.100000000001
 21
102.854813623827
  0
LINE
  5
4F
100
AcDbEntity
  8
2
  6
CONTINUOUS
 62
     0
100
AcDbLine
 10
594.100000000001
 20
104.354813623827
 11
587.100000000001
 21
104.354813623827
  0
LINE
  5
50
100
AcDbEntity
  8
2
  6
CONTINUOUS
 62
     0
100
AcDbLine
 10
587.100000000001
 20
105.854813623827
 11
594.100000000001
 21
105.854813623827
  0
LINE
  5
51
100
AcDbEntity
  8
2
  6
CONTINUOUS
 62
     0
100
AcDbLine
 10
594.100000000001
 20
107.354813623827
 11
587.100000000001
 21
107.354813623827
  0
LINE
  5
52
100
AcDbEntity
  8
2
  6
CONTINUOUS
 62
     0
100
AcDbLine
 10
587.100000000001
 20
108.854813623827
 11
594.100000000001
 21
108.854813623827
  0
LINE
  5
53
100
AcDbEntity
  8
2
  6
CONTINUOUS
 62
     0
100
AcDbLine
 10
594.100000000001
 20
110.354813623827
 11
587.100000000001
 21
110.354813623827
  0
LINE
  5
54
100
AcDbEntity
  8
2
  6
CONTINUOUS
 62
     0
100
AcDbLine
 10
587.100000000001
 20
111.854813623827
 11
594.100000000001
 21
111.854813623827
  0
LINE
  5
55
100
AcDbEntity
  8
2
  6
CONTINUOUS
 62
     0
100
AcDbLine
 10
594.100000000001
 20
113.354813623827
 11
587.100000000001
 21
113.354813623827
  0
LINE
  5
56
100
AcDbEntity
  8
2
  6
CONTINUOUS
 62
     0
100
AcDbLine
 10
587.100000000001
 20
114.854813623827
 11
594.100000000001
 21
114.854813623827
  0
LINE
  5
57
100
AcDbEntity
  8
2
  6
CONTINUOUS
 62
     0
100
AcDbLine
 10
594.100000000001
 20
116.354813623827
 11
587.100000000001
 21
116.354813623827
  0
LINE
  5
58
100
AcDbEntity
  8
2
  6
CONTINUOUS
 62
     0
100
AcDbLine
 10
587.100000000001
 20
117.854813623827
 11
594.100000000001
 21
117.854813623827
  0
LINE
  5
59
100
AcDbEntity
  8
2
  6
CONTINUOUS
 62
     0
100
AcDbLine
 10
577.600000000001
 20
91.3548136238267
 11
577.600000000001
 21
114.354813623827
  0
LINE
  5
5A
100
AcDbEntity
  8
2
  6
CONTINUOUS
 62
     0
100
AcDbLine
 10
586.600000000001
 20
94.3548136238267
 11
586.600000000001
 21
96.3548136238267
  0
LINE
  5
5B
100
AcDbEntity
  8
2
  6
CONTINUOUS
 62
     0
100
AcDbLine
 10
586.600000000001
 20
96.3548136238267
 11
578.600000000001
 21
96.3548136238267
  0
ARC
  5
5C
100
AcDbEntity
  8
2
  6
CONTINUOUS
 62
     0
100
AcDbCircle
 10
578.600000000001
 20
95.3548136238267
 40
1.0
100
AcDbArc
 50
90.0
 51
180.0
  0
LINE
  5
5D
100
AcDbEntity
  8
2
  6
CONTINUOUS
 62
     0
100
AcDbLine
 10
578.600000000001
 20
94.3548136238267
 11
586.600000000001
 21
94.3548136238267
  0
POINT
  5
5E
100
AcDbEntity
  8
2
  6
CONTINUOUS
 62
     0
100
AcDbPoint
 10
577.600000000001
 20
95.3548136238267
  0
ARC
  5
5F
100
AcDbEntity
  8
2
  6
CONTINUOUS
 62
     0
100
AcDbCircle
 10
578.600000000001
 20
95.3548136238267
 40
1.0
100
AcDbArc
 50
180.0
 51
270.0
  0
LINE
  5
60
100
AcDbEntity
  8
2
  6
CONTINUOUS
 62
     0
100
AcDbLine
 10
586.600000000001
 20
111.354813623827
 11
586.600000000001
 21
109.354813623827
  0
LINE
  5
61
100
AcDbEntity
  8
2
  6
CONTINUOUS
 62
     0
100
AcDbLine
 10
586.600000000001
 20
109.354813623827
 11
578.600000000001
 21
109.354813623827
  0
ARC
  5
62
100
AcDbEntity
  8
2
  6
CONTINUOUS
 62
     0
100
AcDbCircle
 10
578.600000000001
 20
110.354813623827
 40
1.0
100
AcDbArc
 50
180.0
 51
270.0
  0
LINE
  5
63
100
AcDbEntity
  8
2
  6
CONTINUOUS
 62
     0
100
AcDbLine
 10
578.600000000001
 20
111.354813623827
 11
586.600000000001
 21
111.354813623827
  0
ARC
  5
64
100
AcDbEntity
  8
2
  6
CONTINUOUS
 62
     0
100
AcDbCircle
 10
578.600000000001
 20
110.354813623827
 40
1.0
100
AcDbArc
 50
90.0
 51
180.0
  0
ARC
  5
65
100
AcDbEntity
  8
2
  6
CONTINUOUS
 62
     0
100
AcDbCircle
 10
579.600000000001
 20
114.354813623827
 40
1.99999999999994
100
AcDbArc
 50
90.0
 51
180.0
  0
LINE
  5
66
100
AcDbEntity
  8
2
  6
CONTINUOUS
 62
     0
100
AcDbLine
 10
587.100000000001
 20
116.354813623827
 11
579.600000000001
 21
116.354813623827
  0
LINE
  5
67
100
AcDbEntity
  8
2
  6
CONTINUOUS
 62
     0
100
AcDbLine
 10
594.100000000001
 20
119.354813623827
 11
587.600000000001
 21
119.354813623827
  0
LINE
  5
68
100
AcDbEntity
  8
2
  6
CONTINUOUS
 62
     0
100
AcDbLine
 10
587.100000000001
 20
86.8548136238267
 11
587.100000000001
 21
118.854813623827
  0
ARC
  5
69
100
AcDbEntity
  8
2
  6
CONTINUOUS
 62
     0
100
AcDbCircle
 10
587.600000000001
 20
118.854813623827
 40
0.499999999999943
100
AcDbArc
 50
90.0
 51
180.0
  0
LINE
  5
6A
100
AcDbEntity
  8
2
  6
CONTINUOUS
 62
     0
100
AcDbLine
 10
599.100000000001
 20
119.854813623827
 11
595.600000000001
 21
119.854813623827
  0
ARC
  5
6B
100
AcDbEntity
  8
2
  6
CONTINUOUS
 62
     0
100
AcDbCircle
 10
595.600000000001
 20
119.354813623827
 40
0.499999999999943
100
AcDbArc
 50
90.0
 51
180.0
  0
LINE
  5
6C
100
AcDbEntity
  8
2
  6
CONTINUOUS
 62
     0
100
AcDbLine
 10
612.600000000001
 20
118.854813623827
 11
609.100000000001
 21
118.854813623827
  0
ARC
  5
6D
100
AcDbEntity
  8
2
  6
CONTINUOUS
 62
     0
100
AcDbCircle
 10
612.600000000001
 20
118.354813623827
 40
0.499999999999943
100
AcDbArc
 50
0.0
 51
90.0
  0
LINE
  5
6E
100
AcDbEntity
  8
2
  6
CONTINUOUS
 62
     0
100
AcDbLine
 10
616.100000000001
 20
114.854813623827
 11
613.100000000001
 21
114.854813623827
  0
LINE
  5
6F
100
AcDbEntity
  8
2
  6
CONTINUOUS
 62
     0
100
AcDbLine
 10
575.100000000001
 20
114.354813623827
 11
577.600000000001
 21
114.354813623827
  0
LINE
  5
70
100
AcDbEntity
  8
2
  6
CONTINUOUS
 62
     0
100
AcDbLine
 10
575.100000000001
 20
91.3548136238267
 11
577.600000000001
 21
91.3548136238267
  0
ARC
  5
71
100
AcDbEntity
  8
2
  6
CONTINUOUS
 62
     0
100
AcDbCircle
 10
579.600000000001
 20
91.3548136238267
 40
1.99999999999994
100
AcDbArc
 50
180.0
 51
270.0
  0
LINE
  5
72
100
AcDbEntity
  8
2
  6
CONTINUOUS
 62
     0
100
AcDbLine
 10
587.100000000001
 20
89.3548136238267
 11
579.600000000001
 21
89.3548136238267
  0
LINE
  5
73
100
AcDbEntity
  8
2
  6
CONTINUOUS
 62
     0
100
AcDbLine
 10
594.100000000001
 20
86.3548136238267
 11
587.600000000001
 21
86.3548136238267
  0
ARC
  5
74
100
AcDbEntity
  8
2
  6
CONTINUOUS
 62
     0
100
AcDbCircle
 10
587.600000000001
 20
86.8548136238267
 40
0.499999999999943
100
AcDbArc
 50
180.0
 51
270.0
  0
LINE
  5
75
100
AcDbEntity
  8
2
  6
CONTINUOUS
 62
     0
100
AcDbLine
 10
595.600000000001
 20
85.8548136238267
 11
599.100000000001
 21
85.8548136238267
  0
ARC
  5
76
100
AcDbEntity
  8
2
  6
CONTINUOUS
 62
     0
100
AcDbCircle
 10
595.600000000001
 20
86.3548136238267
 40
0.499999999999943
100
AcDbArc
 50
180.0
 51
270.0
  0
LINE
  5
77
100
AcDbEntity
  8
2
  6
CONTINUOUS
 62
     0
100
AcDbLine
 10
595.100000000001
 20
119.354813623827
 11
595.100000000001
 21
86.3548136238267
  0
LINE
  5
78
100
AcDbEntity
  8
2
  6
CONTINUOUS
 62
     0
100
AcDbLine
 10
599.100000000001
 20
85.8548136238267
 11
608.600000000001
 21
85.8548136238267
  0
ARC
  5
79
100
AcDbEntity
  8
2
  6
CONTINUOUS
 62
     0
100
AcDbCircle
 10
608.600000000001
 20
86.3548136238267
 40
0.499999999999943
100
AcDbArc
 50
270.0
 51
0.0
  0
ARC
  5
7A
100
AcDbEntity
  8
2
  6
CONTINUOUS
 62
     0
100
AcDbCircle
 10
612.600000000001
 20
87.3548136238267
 40
0.499999999999943
100
AcDbArc
 50
270.0
 51
0.0
  0
LINE
  5
7B
100
AcDbEntity
  8
2
  6
CONTINUOUS
 62
     0
100
AcDbLine
 10
609.100000000001
 20
86.8548136238267
 11
612.600000000001
 21
86.8548136238267
  0
LINE
  5
7C
100
AcDbEntity
  8
2
  6
CONTINUOUS
 62
     0
100
AcDbLine
 10
613.100000000001
 20
90.8548136238267
 11
616.100000000001
 21
90.8548136238267
  0
LINE
  5
7D
100
AcDbEntity
  8
2
  6
CONTINUOUS
 62
     0
100
AcDbLine
 10
616.100000000001
 20
90.8548136238267
 11
616.100000000001
 21
114.854813623827
  0
LINE
  5
7E
100
AcDbEntity
  8
2
  6
CONTINUOUS
 62
     0
100
AcDbLine
 10
613.100000000001
 20
87.3548136238267
 11
613.100000000001
 21
118.354813623827
  0
ARC
  5
7F
100
AcDbEntity
  8
2
  6
CONTINUOUS
 62
     0
100
AcDbCircle
 10
608.600000000001
 20
119.354813623827
 40
0.499999999999943
100
AcDbArc
 50
0.0
 51
90.0
  0
LINE
  5
80
100
AcDbEntity
  8
2
  6
CONTINUOUS
 62
     0
100
AcDbLine
 10
608.600000000001
 20
119.854813623827
 11
599.100000000001
 21
119.854813623827
  0
LINE
  5
81
100
AcDbEntity
  8
7
  6
CENTER2
 62
    40
100
AcDbLine
 10
524.2
 20
102.854813623827
 11
626.1
 21
102.854813623827
  0
LINE
  5
83
100
AcDbEntity
  8
6
  6
CENTER
 62
     0
100
AcDbLine
 10
-150.499999999981
 20
-7.14518637617334
 11
523.0
 21
-7.14518637617334
  0
LINE
  5
85
100
AcDbEntity
  8
2
  6
CONTINUOUS
 62
     0
100
AcDbLine
 10
513.0
 20
24.8548136238257
 11
463.000000000001
 21
24.8548136238257
  0
LINE
  5
86
100
AcDbEntity
  8
2
  6
CONTINUOUS
 62
     0
100
AcDbLine
 10
463.000000000001
 20
26.8548136238257
 11
513.0
 21
26.8548136238257
  0
LINE
  5
87
100
AcDbEntity
  8
2
  6
CONTINUOUS
 62
     0
100
AcDbLine
 10
483.2
 20
26.8548136238257
 11
483.2
 21
30.8548136238257
  0
LINE
  5
88
100
AcDbEntity
  8
2
  6
CONTINUOUS
 62
     0
100
AcDbLine
 10
481.2
 20
32.8548136238257
 11
475.000000000001
 21
32.8548136238257
  0
ARC
  5
89
100
AcDbEntity
  8
2
  6
CONTINUOUS
 62
     0
100
AcDbCircle
 10
481.2
 20
30.8548136238257
 40
1.99999999999994
100
AcDbArc
 50
0.0
 51
90.0
  0
LINE
  5
8A
100
AcDbEntity
  8
2
  6
CONTINUOUS
 62
     0
100
AcDbLine
 10
506.3
 20
35.8548136238257
 11
498.000000000001
 21
35.8548136238257
  0
LINE
  5
8B
100
AcDbEntity
  8
2
  6
CONTINUOUS
 62
     0
100
AcDbLine
 10
509.3
 20
26.8548136238257
 11
509.3
 21
32.8548136238257
  0
ARC
  5
8C
100
AcDbEntity
  8
2
  6
CONTINUOUS
 62
     0
100
AcDbCircle
 10
506.3
 20
32.8548136238257
 40
2.99999999999994
100
AcDbArc
 50
0.0
 51
90.0
  0
LINE
  5
8D
100
AcDbEntity
  8
2
  6
CONTINUOUS
 62
     0
100
AcDbLine
 10
489.7
 20
35.8548136238257
 11
498.000000000001
 21
35.8548136238257
  0
LINE
  5
8E
100
AcDbEntity
  8
2
  6
CONTINUOUS
 62
     0
100
AcDbLine
 10
486.7
 20
26.8548136238257
 11
486.7
 21
32.8548136238257
  0
ARC
  5
8F
100
AcDbEntity
  8
2
  6
CONTINUOUS
 62
     0
100
AcDbCircle
 10
489.7
 20
32.8548136238257
 40
2.99999999999994
100
AcDbArc
 50
90.0
 51
180.0
  0
LINE
  5
90
100
AcDbEntity
  8
2
  6
CONTINUOUS
 62
     0
100
AcDbLine
 10
513.0
 20
12.8548136238257
 11
513.0
 21
10.7178136238257
  0
LINE
  5
91
100
AcDbEntity
  8
2
  6
CONTINUOUS
 62
     0
100
AcDbLine
 10
513.0
 20
12.8548136238257
 11
513.0
 21
17.3548136238257
  0
LINE
  5
92
100
AcDbEntity
  8
2
  6
CONTINUOUS
 62
     0
100
AcDbLine
 10
513.0
 20
17.3548136238257
 11
463.000000000001
 21
17.3548136238257
  0
LINE
  5
93
100
AcDbEntity
  8
2
  6
CONTINUOUS
 62
     0
100
AcDbLine
 10
513.0
 20
26.8548136238257
 11
513.0
 21
17.3548136238257
  0
LINE
  5
94
100
AcDbEntity
  8
2
  6
CONTINUOUS
 62
     0
100
AcDbLine
 10
479.3
 20
37.0548136238267
 11
479.3
 21
32.8548136238257
  0
LINE
  5
95
100
AcDbEntity
  8
2
  6
CONTINUOUS
 62
     0
100
AcDbLine
 10
513.0
 20
-36.1451863761743
 11
513.0
 21
10.7178136238257
  0
LINE
  5
96
100
AcDbEntity
  8
2
  6
CONTINUOUS
 62
     0
100
AcDbLine
 10
453.000000000001
 20
-38.1451863761743
 11
511.000000000001
 21
-38.1451863761743
  0
ARC
  5
97
100
AcDbEntity
  8
2
  6
CONTINUOUS
 62
     0
100
AcDbCircle
 10
511.000000000001
 20
-36.1451863761743
 40
2.0
100
AcDbArc
 50
270.0
 51
0.0
  0
ARC
  5
98
100
AcDbEntity
  8
2
  6
CONTINUOUS
 62
     0
100
AcDbCircle
 10
450.7
 20
37.0548136238267
 40
28.6
100
AcDbArc
 50
0.0
 51
90.0
  0
ARC
  5
99
100
AcDbEntity
  8
2
  6
CONTINUOUS
 62
     0
100
AcDbCircle
 10
524.2
 20
76.6548136238267
 40
20.0
100
AcDbArc
 50
90.0
 51
180.0
  0
ARC
  5
9A
100
AcDbEntity
  8
2
  6
CONTINUOUS
 62
     0
100
AcDbCircle
 10
524.2
 20
76.6548136238267
 40
32.4
100
AcDbArc
 50
90.0
 51
180.0
  0
LINE
  5
9B
100
AcDbEntity
  8
2
  6
CONTINUOUS
 62
     0
100
AcDbLine
 10
504.2
 20
76.6548136238267
 11
504.2
 21
35.8548136238257
  0
LINE
  5
9C
100
AcDbEntity
  8
2
  6
CONTINUOUS
 62
     0
100
AcDbLine
 10
491.8
 20
35.8548136238257
 11
491.8
 21
76.6548136238267
  0
LINE
  5
9D
100
AcDbEntity
  8
7
  6
CENTER2
 62
    40
100
AcDbLine
 10
498.000000000001
 20
10.9728009019187
 11
498.000000000001
 21
77.4536380435087
  0
ARC
  5
9E
100
AcDbEntity
  8
7
  6
CENTER2
 62
    40
100
AcDbCircle
 10
524.2
 20
76.6548136238267
 40
26.2
100
AcDbArc
 50
90.0
 51
180.0
  0
LINE
  5
9F
100
AcDbEntity
  8
2
  6
CONTINUOUS
 62
     0
100
AcDbLine
 10
563.100000000001
 20
87.8548136238267
 11
563.100000000001
 21
86.8548136238267
  0
LINE
  5
A0
100
AcDbEntity
  8
2
  6
CONTINUOUS
 62
     0
100
AcDbLine
 10
563.100000000001
 20
117.854813623827
 11
563.100000000001
 21
118.854813623827
  0
ARC
  5
A1
100
AcDbEntity
  8
2
  6
CONTINUOUS
 62
     0
100
AcDbCircle
 10
556.600000000001
 20
92.3548136238267
 40
5.50000000000011
100
AcDbArc
 50
270.0
 51
0.0
  0
LINE
  5
A2
100
AcDbEntity
  8
2
  6
CONTINUOUS
 62
     0
100
AcDbLine
 10
562.100000000001
 20
92.3548136238267
 11
562.100000000001
 21
113.354813623827
  0
ARC
  5
A3
100
AcDbEntity
  8
2
  6
CONTINUOUS
 62
     0
100
AcDbCircle
 10
556.600000000001
 20
113.354813623827
 40
5.50000000000011
100
AcDbArc
 50
0.0
 51
90.0
  0
LINE
  5
A4
100
AcDbEntity
  8
2
  6
CONTINUOUS
 62
     0
100
AcDbLine
 10
562.100000000001
 20
95.3548136238267
 11
551.100000000001
 21
95.3548136238267
  0
LINE
  5
A5
100
AcDbEntity
  8
2
  6
CONTINUOUS
 62
     0
100
AcDbLine
 10
562.100000000001
 20
110.354813623827
 11
551.100000000001
 21
110.354813623827
  0
CIRCLE
  5
A6
100
AcDbEntity
  8
2
  6
CONTINUOUS
 62
     0
100
AcDbCircle
 10
556.600000000001
 20
90.8548136238267
 40
1.5
  0
CIRCLE
  5
A7
100
AcDbEntity
  8
2
  6
CONTINUOUS
 62
     0
100
AcDbCircle
 10
556.600000000001
 20
114.854813623827
 40
3.0
  0
LINE
  5
A8
100
AcDbEntity
  8
2
  6
CONTINUOUS
 62
     0
100
AcDbLine
 10
558.283000000001
 20
112.939813623827
 11
555.783000000001
 21
117.269813623827
  0
LINE
  5
A9
100
AcDbEntity
  8
2
  6
CONTINUOUS
 62
     0
100
AcDbLine
 10
555.783000000001
 20
117.269813623827
 11
554.917000000001
 21
116.769813623827
  0
LINE
  5
AA
100
AcDbEntity
  8
2
  6
CONTINUOUS
 62
     0
100
AcDbLine
 10
554.917000000001
 20
116.769813623827
 11
557.417000000001
 21
112.439813623827
  0
LINE
  5
AB
100
AcDbEntity
  8
2
  6
CONTINUOUS
 62
     0
100
AcDbLine
 10
557.417000000001
 20
112.439813623827
 11
558.283000000001
 21
112.939813623827
  0
LINE
  5
AC
100
AcDbEntity
  8
2
  6
CONTINUOUS
 62
     0
100
AcDbLine
 10
563.600000000001
 20
93.8548136238267
 11
574.600000000001
 21
93.8548136238267
  0
LINE
  5
AD
100
AcDbEntity
  8
2
  6
CONTINUOUS
 62
     0
100
AcDbLine
 10
574.600000000001
 20
96.8548136238267
 11
563.600000000001
 21
96.8548136238267
  0
LINE
  5
AE
100
AcDbEntity
  8
2
  6
CONTINUOUS
 62
     0
100
AcDbLine
 10
574.600000000001
 20
93.8548136238267
 11
574.600000000001
 21
96.8548136238267
  0
LINE
  5
AF
100
AcDbEntity
  8
2
  6
CONTINUOUS
 62
     0
100
AcDbLine
 10
563.600000000001
 20
96.8548136238267
 11
563.600000000001
 21
93.8548136238267
  0
LINE
  5
B0
100
AcDbEntity
  8
2
  6
CONTINUOUS
 62
     0
100
AcDbLine
 10
563.100000000001
 20
117.854813623827
 11
563.100000000001
 21
87.8548136238267
  0
LINE
  5
B1
100
AcDbEntity
  8
2
  6
CONTINUOUS
 62
     0
100
AcDbLine
 10
563.600000000001
 20
111.854813623827
 11
574.600000000001
 21
111.854813623827
  0
LINE
  5
B2
100
AcDbEntity
  8
2
  6
CONTINUOUS
 62
     0
100
AcDbLine
 10
574.600000000001
 20
108.854813623827
 11
563.600000000001
 21
108.854813623827
  0
LINE
  5
B3
100
AcDbEntity
  8
2
  6
CONTINUOUS
 62
     0
100
AcDbLine
 10
574.600000000001
 20
111.854813623827
 11
574.600000000001
 21
108.854813623827
  0
LINE
  5
B4
100
AcDbEntity
  8
2
  6
CONTINUOUS
 62
     0
100
AcDbLine
 10
563.600000000001
 20
108.854813623827
 11
563.600000000001
 21
111.854813623827
  0
LINE
  5
B5
100
AcDbEntity
  8
2
  6
CONTINUOUS
 62
     0
100
AcDbLine
 10
551.100000000001
 20
109.054813623827
 11
524.2
 21
109.054813623827
  0
ARC
  5
B6
100
AcDbEntity
  8
2
  6
CONTINUOUS
 62
     0
100
AcDbCircle
 10
556.600000000001
 20
92.3548136238267
 40
5.50000000000011
100
AcDbArc
 50
180.0
 51
270.0
  0
LINE
  5
B7
100
AcDbEntity
  8
2
  6
CONTINUOUS
 62
     0
100
AcDbLine
 10
551.100000000001
 20
92.3548136238267
 11
551.100000000001
 21
113.354813623827
  0
LINE
  5
B8
100
AcDbEntity
  8
2
  6
CONTINUOUS
 62
     0
100
AcDbLine
 10
563.100000000001
 20
86.8548136238267
 11
556.600000000001
 21
86.8548136238267
  0
ARC
  5
B9
100
AcDbEntity
  8
2
  6
CONTINUOUS
 62
     0
100
AcDbCircle
 10
556.600000000001
 20
113.354813623827
 40
5.50000000000011
100
AcDbArc
 50
90.0
 51
180.0
  0
LINE
  5
BA
100
AcDbEntity
  8
2
  6
CONTINUOUS
 62
     0
100
AcDbLine
 10
563.100000000001
 20
118.854813623827
 11
556.600000000001
 21
118.854813623827
  0
LINE
  5
BB
100
AcDbEntity
  8
2
  6
CONTINUOUS
 62
     0
100
AcDbLine
 10
574.100000000001
 20
117.854813623827
 11
563.100000000001
 21
117.854813623827
  0
ARC
  5
BC
100
AcDbEntity
  8
2
  6
CONTINUOUS
 62
     0
100
AcDbCircle
 10
574.100000000001
 20
116.854813623827
 40
1.0
100
AcDbArc
 50
0.0
 51
90.0
  0
LINE
  5
BD
100
AcDbEntity
  8
2
  6
CONTINUOUS
 62
     0
100
AcDbLine
 10
575.100000000001
 20
88.8548136238267
 11
575.100000000001
 21
116.854813623827
  0
ARC
  5
BE
100
AcDbEntity
  8
2
  6
CONTINUOUS
 62
     0
100
AcDbCircle
 10
574.100000000001
 20
88.8548136238267
 40
1.0
100
AcDbArc
 50
270.0
 51
0.0
  0
LINE
  5
BF
100
AcDbEntity
  8
2
  6
CONTINUOUS
 62
     0
100
AcDbLine
 10
563.100000000001
 20
87.8548136238267
 11
574.100000000001
 21
87.8548136238267
  0
LINE
  5
C0
100
AcDbEntity
  8
2
  6
CONTINUOUS
 62
     0
100
AcDbLine
 10
524.2
 20
96.6548136238267
 11
551.100000000001
 21
96.6548136238267
  0
LINE
  5
C1
100
AcDbEntity
  8
7
  6
CENTER2
 62
    40
100
AcDbLine
 10
-125.499998806346
 20
5.55481362382773
 11
-125.499998806346
 21
-19.8451863761723
  0
LINE
  5
C2
100
AcDbEntity
  8
7
  6
CENTER2
 62
    40
100
AcDbLine
 10
474.999999999999
 20
32.8548136238257
 11
474.999999999999
 21
37.0548136238267
  0
LINE
  5
C3
100
AcDbEntity
  8
2
  6
CONTINUOUS
 62
     0
100
AcDbLine
 10
-76.4999999999806
 20
-24.6451863761733
 11
-72.4999999999806
 21
-24.6451863761733
  0
LINE
  5
C4
100
AcDbEntity
  8
2
  6
CONTINUOUS
 62
     0
100
AcDbLine
 10
-140.499999999981
 20
-17.5216019422513
 11
-100.499999999981
 21
-17.5216019422513
  0
LINE
  5
C5
100
AcDbEntity
  8
2
  6
CONTINUOUS
 62
     0
100
AcDbLine
 10
-140.499999999981
 20
-19.8451863761733
 11
-100.499999999981
 21
-19.8451863761733
  0
LINE
  5
C6
100
AcDbEntity
  8
2
  6
CONTINUOUS
 62
     0
100
AcDbLine
 10
-100.499999999981
 20
-23.6451863761733
 11
-76.4999999999806
 21
-23.6451863761733
  0
LINE
  5
C7
100
AcDbEntity
  8
2
  6
CONTINUOUS
 62
     0
100
AcDbLine
 10
-100.499999999981
 20
9.35481362382666
 11
-100.499999999981
 21
5.5548136238267
  0
LINE
  5
C8
100
AcDbEntity
  8
2
  6
CONTINUOUS
 62
     0
100
AcDbLine
 10
-100.499999999981
 20
3.23122918990669
 11
-100.499999999981
 21
-17.5216019422513
  0
LINE
  5
C9
100
AcDbEntity
  8
2
  6
CONTINUOUS
 62
     0
100
AcDbLine
 10
-100.499999999981
 20
-19.8451863761733
 11
-100.499999999981
 21
-23.6451863761733
  0
LINE
  5
CA
100
AcDbEntity
  8
2
  6
CONTINUOUS
 62
     0
100
AcDbLine
 10
-76.4999999999806
 20
-24.6451863761733
 11
-76.4999999999806
 21
10.3548136238267
  0
LINE
  5
CB
100
AcDbEntity
  8
2
  6
CONTINUOUS
 62
     0
100
AcDbLine
 10
-140.499999999981
 20
3.23122918990669
 11
-100.499999999981
 21
3.23122918990669
  0
LINE
  5
CC
100
AcDbEntity
  8
2
  6
CONTINUOUS
 62
     0
100
AcDbLine
 10
-140.499999999981
 20
5.5548136238267
 11
-100.499999999981
 21
5.5548136238267
  0
LINE
  5
CD
100
AcDbEntity
  8
2
  6
CONTINUOUS
 62
     0
100
AcDbLine
 10
-100.499999999981
 20
9.35481362382666
 11
-76.4999999999806
 21
9.35481362382666
  0
LINE
  5
CE
100
AcDbEntity
  8
2
  6
CONTINUOUS
 62
     0
100
AcDbLine
 10
-140.499999999981
 20
5.5548136238267
 11
-140.499999999981
 21
-19.8451863761733
  0
CIRCLE
  5
CF
100
AcDbEntity
  8
2
  6
CONTINUOUS
 62
     0
100
AcDbCircle
 10
-125.499999999981
 20
-7.14518637617431
 40
3.25
  0
LINE
  5
D0
100
AcDbEntity
  8
2
  6
CONTINUOUS
 62
     0
100
AcDbLine
 10
-72.4999999999806
 20
-42.1451863761733
 11
-60.4999999999806
 21
-42.1451863761733
  0
LINE
  5
D1
100
AcDbEntity
  8
2
  6
CONTINUOUS
 62
     0
100
AcDbLine
 10
-72.4999999999806
 20
27.8548136238267
 11
-72.4999999999806
 21
-42.1451863761733
  0
LINE
  5
D2
100
AcDbEntity
  8
2
  6
CONTINUOUS
 62
     0
100
AcDbLine
 10
-72.4999999999806
 20
27.8548136238267
 11
-60.4999999999806
 21
27.8548136238267
  0
LINE
  5
D3
100
AcDbEntity
  8
2
  6
CONTINUOUS
 62
     0
100
AcDbLine
 10
-49.4999999999806
 20
-61.6451863761753
 11
-49.4999999999806
 21
-43.1451863761743
  0
LINE
  5
D4
100
AcDbEntity
  8
2
  6
CONTINUOUS
 62
     0
100
AcDbLine
 10
-49.4999999999806
 20
28.8548136238257
 11
-49.4999999999806
 21
39.3548136238257
  0
LINE
  5
D5
100
AcDbEntity
  8
2
  6
CONTINUOUS
 62
     0
100
AcDbLine
 10
-60.4999999999806
 20
39.3548136238257
 11
-49.4999999999806
 21
39.3548136238257
  0
LINE
  5
D6
100
AcDbEntity
  8
2
  6
CONTINUOUS
 62
     0
100
AcDbLine
 10
-49.4999999999806
 20
39.3548136238257
 11
137.999999999999
 21
39.3548136238257
  0
LINE
  5
D7
100
AcDbEntity
  8
2
  6
CONTINUOUS
 62
     0
100
AcDbLine
 10
104.499999999999
 20
39.3548136238257
 11
104.499999999999
 21
-71.1451863761743
  0
LINE
  5
D8
100
AcDbEntity
  8
2
  6
CONTINUOUS
 62
     0
100
AcDbLine
 10
118.499999999999
 20
-71.1451863761743
 11
133.499999999999
 21
-56.1451863761743
  0
LINE
  5
D9
100
AcDbEntity
  8
2
  6
CONTINUOUS
 62
     0
100
AcDbLine
 10
257.499999999999
 20
-51.1451863761743
 11
257.499999999999
 21
-48.1451863761743
  0
LINE
  5
DA
100
AcDbEntity
  8
2
  6
CONTINUOUS
 62
     0
100
AcDbLine
 10
257.499999999999
 20
-48.1451863761743
 11
257.499999999999
 21
-42.1451863761743
  0
LINE
  5
DB
100
AcDbEntity
  8
2
  6
CONTINUOUS
 62
     0
100
AcDbLine
 10
257.499999999999
 20
-42.1451863761743
 11
257.499999999999
 21
-35.1451863761743
  0
LINE
  5
DC
100
AcDbEntity
  8
2
  6
CONTINUOUS
 62
     0
100
AcDbLine
 10
257.499999999999
 20
-35.1451863761743
 11
257.499999999999
 21
20.8548136238257
  0
LINE
  5
DD
100
AcDbEntity
  8
2
  6
CONTINUOUS
 62
     0
100
AcDbLine
 10
257.499999999999
 20
20.8548136238257
 11
257.499999999999
 21
27.8548136238257
  0
LINE
  5
DE
100
AcDbEntity
  8
2
  6
CONTINUOUS
 62
     0
100
AcDbLine
 10
257.499999999999
 20
27.8548136238257
 11
257.499999999999
 21
33.8548136238257
  0
LINE
  5
DF
100
AcDbEntity
  8
2
  6
CONTINUOUS
 62
     0
100
AcDbLine
 10
257.499999999999
 20
33.8548136238257
 11
257.499999999999
 21
36.8548136238257
  0
LINE
  5
E0
100
AcDbEntity
  8
2
  6
CONTINUOUS
 62
     0
100
AcDbLine
 10
269.499999999999
 20
-51.1451863761743
 11
269.499999999999
 21
36.8548136238257
  0
LINE
  5
E1
100
AcDbEntity
  8
2
  6
CONTINUOUS
 62
     0
100
AcDbLine
 10
269.499999999999
 20
-19.6451863761743
 11
269.499999999999
 21
-16.6451863761743
  0
LINE
  5
E2
100
AcDbEntity
  8
2
  6
CONTINUOUS
 62
     0
100
AcDbLine
 10
269.499999999999
 20
-16.6451863761743
 11
269.499999999999
 21
-15.6451863761743
  0
LINE
  5
E3
100
AcDbEntity
  8
2
  6
CONTINUOUS
 62
     0
100
AcDbLine
 10
269.499999999999
 20
-15.6451863761743
 11
269.499999999999
 21
1.35481362382569
  0
LINE
  5
E4
100
AcDbEntity
  8
2
  6
CONTINUOUS
 62
     0
100
AcDbLine
 10
269.499999999999
 20
1.35481362382569
 11
269.499999999999
 21
2.35481362382569
  0
LINE
  5
E5
100
AcDbEntity
  8
2
  6
CONTINUOUS
 62
     0
100
AcDbLine
 10
269.499999999999
 20
2.35481362382569
 11
269.499999999999
 21
5.35481362382569
  0
LINE
  5
E6
100
AcDbEntity
  8
2
  6
CONTINUOUS
 62
     0
100
AcDbLine
 10
269.499999999999
 20
-51.1451863761743
 11
232.499999999999
 21
-51.1451863761743
  0
LINE
  5
E7
100
AcDbEntity
  8
2
  6
CONTINUOUS
 62
     0
100
AcDbLine
 10
269.499999999999
 20
-34.1451863761743
 11
269.499999999999
 21
-20.1451863761743
  0
LINE
  5
E8
100
AcDbEntity
  8
2
  6
CONTINUOUS
 62
     0
100
AcDbLine
 10
269.499999999999
 20
36.8548136238257
 11
232.499999999999
 21
36.8548136238257
  0
LINE
  5
E9
100
AcDbEntity
  8
2
  6
CONTINUOUS
 62
     0
100
AcDbLine
 10
269.499999999999
 20
5.85481362382569
 11
269.499999999999
 21
19.8548136238257
  0
ARC
  5
EA
100
AcDbEntity
  8
2
  6
CONTINUOUS
 62
     0
100
AcDbCircle
 10
270.499999999999
 20
24.8548136238257
 40
1.0
100
AcDbArc
 50
180.0
 51
270.0
  0
ARC
  5
EB
100
AcDbEntity
  8
2
  6
CONTINUOUS
 62
     0
100
AcDbCircle
 10
270.499999999999
 20
-39.1451863761743
 40
0.999999999999886
100
AcDbArc
 50
90.0
 51
180.0
  0
LINE
  5
EC
100
AcDbEntity
  8
2
  6
CONTINUOUS
 62
     0
100
AcDbLine
 10
446.500000000001
 20
36.8548136238257
 11
439.500000000001
 21
36.8548136238257
  0
ARC
  5
ED
100
AcDbEntity
  8
2
  6
CONTINUOUS
 62
     0
100
AcDbCircle
 10
439.500000000001
 20
35.8548136238257
 40
1.0
100
AcDbArc
 50
90.0
 51
180.0
  0
LINE
  5
EE
100
AcDbEntity
  8
2
  6
CONTINUOUS
 62
     0
100
AcDbLine
 10
270.499999999999
 20
23.8548136238257
 11
437.500000000001
 21
23.8548136238257
  0
ARC
  5
EF
100
AcDbEntity
  8
2
  6
CONTINUOUS
 62
     0
100
AcDbCircle
 10
437.500000000001
 20
24.8548136238257
 40
1.0
100
AcDbArc
 50
270.0
 51
0.0
  0
LINE
  5
F0
100
AcDbEntity
  8
2
  6
CONTINUOUS
 62
     0
100
AcDbLine
 10
438.500000000001
 20
25.3548136238257
 11
438.500000000001
 21
35.8548136238257
  0
LINE
  5
F1
100
AcDbEntity
  8
2
  6
CONTINUOUS
 62
     0
100
AcDbLine
 10
438.500000000001
 20
25.3548136238257
 11
438.500000000001
 21
10.8178136238257
  0
LINE
  5
F2
100
AcDbEntity
  8
2
  6
CONTINUOUS
 62
     0
100
AcDbLine
 10
453.000000000001
 20
36.8548136238257
 11
453.000000000001
 21
-7.14518637617431
  0
LINE
  5
F3
100
AcDbEntity
  8
2
  6
CONTINUOUS
 62
     0
100
AcDbLine
 10
453.000000000001
 20
36.8548136238257
 11
446.500000000001
 21
36.8548136238257
  0
LINE
  5
F4
100
AcDbEntity
  8
2
  6
CONTINUOUS
 62
     0
100
AcDbLine
 10
446.500000000001
 20
36.8548136238257
 11
446.500000000001
 21
-7.14518637617431
  0
LINE
  5
F5
100
AcDbEntity
  8
2
  6
CONTINUOUS
 62
     0
100
AcDbLine
 10
446.500000000001
 20
-51.1451863761743
 11
439.500000000001
 21
-51.1451863761743
  0
ARC
  5
F6
100
AcDbEntity
  8
2
  6
CONTINUOUS
 62
     0
100
AcDbCircle
 10
439.500000000001
 20
-50.1451863761743
 40
1.0
100
AcDbArc
 50
180.0
 51
270.0
  0
LINE
  5
F7
100
AcDbEntity
  8
2
  6
CONTINUOUS
 62
     0
100
AcDbLine
 10
270.499999999999
 20
-38.1451863761743
 11
437.500000000001
 21
-38.1451863761743
  0
ARC
  5
F8
100
AcDbEntity
  8
2
  6
CONTINUOUS
 62
     0
100
AcDbCircle
 10
437.500000000001
 20
-39.1451863761743
 40
1.0
100
AcDbArc
 50
0.0
 51
90.0
  0
LINE
  5
F9
100
AcDbEntity
  8
2
  6
CONTINUOUS
 62
     0
100
AcDbLine
 10
438.500000000001
 20
-39.6451863761743
 11
438.500000000001
 21
-50.1451863761743
  0
LINE
  5
FA
100
AcDbEntity
  8
2
  6
CONTINUOUS
 62
     0
100
AcDbLine
 10
438.500000000001
 20
-39.6451863761743
 11
438.500000000001
 21
-25.1081863761743
  0
LINE
  5
FB
100
AcDbEntity
  8
2
  6
CONTINUOUS
 62
     0
100
AcDbLine
 10
453.000000000001
 20
-51.1451863761743
 11
453.000000000001
 21
-7.14518637617431
  0
LINE
  5
FC
100
AcDbEntity
  8
2
  6
CONTINUOUS
 62
     0
100
AcDbLine
 10
453.000000000001
 20
-51.1451863761743
 11
446.500000000001
 21
-51.1451863761743
  0
LINE
  5
FD
100
AcDbEntity
  8
2
  6
CONTINUOUS
 62
     0
100
AcDbLine
 10
446.500000000001
 20
-51.1451863761743
 11
446.500000000001
 21
-7.14518637617431
  0
LINE
  5
FE
100
AcDbEntity
  8
2
  6
CONTINUOUS
 62
     0
100
AcDbLine
 10
453.000000000001
 20
23.8548136238257
 11
453.000000000001
 21
-38.1451863761743
  0
LINE
  5
FF
100
AcDbEntity
  8
2
  6
CONTINUOUS
 62
     0
100
AcDbLine
 10
466.8
 20
26.8548136238257
 11
466.8
 21
30.8548136238257
  0
LINE
  5
100
100
AcDbEntity
  8
2
  6
CONTINUOUS
 62
     0
100
AcDbLine
 10
468.8
 20
32.8548136238257
 11
475.000000000001
 21
32.8548136238257
  0
ARC
  5
101
100
AcDbEntity
  8
2
  6
CONTINUOUS
 62
     0
100
AcDbCircle
 10
468.8
 20
30.8548136238257
 40
1.99999999999994
100
AcDbArc
 50
90.0
 51
180.0
  0
LINE
  5
102
100
AcDbEntity
  8
2
  6
CONTINUOUS
 62
     0
100
AcDbLine
 10
453.000000000001
 20
23.8548136238257
 11
463.000000000001
 21
23.8548136238257
  0
LINE
  5
103
100
AcDbEntity
  8
2
  6
CONTINUOUS
 62
     0
100
AcDbLine
 10
463.000000000001
 20
26.8548136238257
 11
463.000000000001
 21
17.3548136238257
  0
LINE
  5
104
100
AcDbEntity
  8
2
  6
CONTINUOUS
 62
     0
100
AcDbLine
 10
470.7
 20
32.8548136238257
 11
470.7
 21
37.0548136238267
  0
LINE
  5
105
100
AcDbEntity
  8
2
  6
CONTINUOUS
 62
     0
100
AcDbLine
 10
437.000000000001
 20
26.3548136238257
 11
437.000000000001
 21
36.3548136238257
  0
LINE
  5
106
100
AcDbEntity
  8
2
  6
CONTINUOUS
 62
     0
100
AcDbLine
 10
431.4
 20
36.3548136238257
 11
438.500000000001
 21
36.3548136238257
  0
LINE
  5
107
100
AcDbEntity
  8
2
  6
CONTINUOUS
 62
     0
100
AcDbLine
 10
431.4
 20
26.3548136238257
 11
438.500000000001
 21
26.3548136238257
  0
LINE
  5
108
100
AcDbEntity
  8
2
  6
CONTINUOUS
 62
     0
100
AcDbLine
 10
431.000000000001
 20
27.0476339468537
 11
431.000000000001
 21
35.6619933007987
  0
LINE
  5
109
100
AcDbEntity
  8
2
  6
CONTINUOUS
 62
     0
100
AcDbLine
 10
431.4
 20
26.3548136238257
 11
431.4
 21
36.3548136238257
  0
LINE
  5
10A
100
AcDbEntity
  8
2
  6
CONTINUOUS
 62
     0
100
AcDbLine
 10
431.4
 20
26.3548136238257
 11
431.000000000001
 21
27.0476339468537
  0
LINE
  5
10B
100
AcDbEntity
  8
2
  6
CONTINUOUS
 62
     0
100
AcDbLine
 10
431.4
 20
36.3548136238257
 11
431.000000000001
 21
35.6619933007987
  0
LINE
  5
10C
100
AcDbEntity
  8
2
  6
CONTINUOUS
 62
     0
100
AcDbLine
 10
437.000000000001
 20
31.3548136238257
 11
438.500000000001
 21
29.2703426365057
  0
LINE
  5
10D
100
AcDbEntity
  8
2
  6
CONTINUOUS
 62
     0
100
AcDbLine
 10
438.500000000001
 20
31.3548136238257
 11
437.000000000001
 21
33.4151814464727
  0
LINE
  5
10E
100
AcDbEntity
  8
2
  6
CONTINUOUS
 62
     0
100
AcDbLine
 10
437.000000000001
 20
-49.6451863761743
 11
437.000000000001
 21
-39.6451863761743
  0
LINE
  5
10F
100
AcDbEntity
  8
2
  6
CONTINUOUS
 62
     0
100
AcDbLine
 10
431.4
 20
-39.6451863761743
 11
438.500000000001
 21
-39.6451863761743
  0
LINE
  5
110
100
AcDbEntity
  8
2
  6
CONTINUOUS
 62
     0
100
AcDbLine
 10
431.4
 20
-49.6451863761743
 11
438.500000000001
 21
-49.6451863761743
  0
LINE
  5
111
100
AcDbEntity
  8
2
  6
CONTINUOUS
 62
     0
100
AcDbLine
 10
431.000000000001
 20
-48.9523660531463
 11
431.000000000001
 21
-40.3380066992013
  0
LINE
  5
112
100
AcDbEntity
  8
2
  6
CONTINUOUS
 62
     0
100
AcDbLine
 10
431.4
 20
-49.6451863761743
 11
431.4
 21
-39.6451863761743
  0
LINE
  5
113
100
AcDbEntity
  8
2
  6
CONTINUOUS
 62
     0
100
AcDbLine
 10
431.4
 20
-49.6451863761743
 11
431.000000000001
 21
-48.9523660531463
  0
LINE
  5
114
100
AcDbEntity
  8
2
  6
CONTINUOUS
 62
     0
100
AcDbLine
 10
431.4
 20
-39.6451863761743
 11
431.000000000001
 21
-40.3380066992013
  0
LINE
  5
115
100
AcDbEntity
  8
2
  6
CONTINUOUS
 62
     0
100
AcDbLine
 10
437.000000000001
 20
-44.6451863761743
 11
438.500000000001
 21
-46.7296573634943
  0
LINE
  5
116
100
AcDbEntity
  8
2
  6
CONTINUOUS
 62
     0
100
AcDbLine
 10
438.500000000001
 20
-44.6451863761743
 11
437.000000000001
 21
-42.5848185535273
  0
LINE
  5
117
100
AcDbEntity
  8
7
  6
CENTER2
 62
    40
100
AcDbLine
 10
-76.9897277413659
 20
-52.1451863761743
 11
-28.0484532918285
 21
-52.1451863761743
  0
LINE
  5
118
100
AcDbEntity
  8
2
  6
CONTINUOUS
 62
     0
100
AcDbLine
 10
-49.4999999999806
 20
-62.1451863761753
 11
-49.4999999999806
 21
39.3548136238257
  0
LINE
  5
119
100
AcDbEntity
  8
2
  6
CONTINUOUS
 62
     0
100
AcDbLine
 10
-24.4999999999806
 20
-62.1451863761743
 11
-9.77756813564355
 21
-53.6451863761733
  0
LINE
  5
11A
100
AcDbEntity
  8
2
  6
CONTINUOUS
 62
     0
100
AcDbLine
 10
94.4999999999995
 20
39.3548136238257
 11
94.4999999999995
 21
-71.1451863761733
  0
LINE
  5
11B
100
AcDbEntity
  8
2
  6
CONTINUOUS
 62
     0
100
AcDbLine
 10
-9.77756813564355
 20
-53.6451863761733
 11
94.4999999999995
 21
-53.6451863761733
  0
INSERT
  5
11D
100
AcDbEntity
  8
2
  6
CONTINUOUS
 62
     0
100
AcDbBlockReference
  2
SUB2
 10
269.499999999999
 20
-45.1451863761733
 41
1.0
 42
1.0
 50
0.0
  0
INSERT
  5
12B
100
AcDbEntity
  8
2
  6
CONTINUOUS
 62
     0
100
AcDbBlockReference
  2
SUB3
 10
269.499999999999
 20
30.8548136238267
 41
1.0
 42
1.0
 50
0.0
  0
INSERT
  5
139
100
AcDbEntity
  8
2
  6
CONTINUOUS
 62
     0
100
AcDbBlockReference
  2
SUB4
 10
94.4999999999995
 20
-62.1451863761743
 41
1.0
 42
1.0
 50
0.0
  0
INSERT
  5
147
100
AcDbEntity
  8
2
  6
CONTINUOUS
 62
     0
100
AcDbBlockReference
  2
SUB5
 10
94.4999999999995
 20
-62.1451863761743
 41
1.0
 42
1.0
 50
0.0
  0
LINE
  5
154
100
AcDbEntity
  8
2
  6
CONTINUOUS
 62
     0
100
AcDbLine
 10
232.499999999999
 20
-51.1451863761743
 11
232.499999999999
 21
36.8548136238257
  0
ARC
  5
155
100
AcDbEntity
  8
2
  6
CONTINUOUS
 62
     0
100
AcDbCircle
 10
450.7
 20
37.0548136238267
 40
20.0
100
AcDbArc
 50
0.0
 51
90.0
  0
ARC
  5
156
100
AcDbEntity
  8
7
  6
CENTER2
 62
    40
100
AcDbCircle
 10
450.7
 20
37.0548136238267
 40
24.3
100
AcDbArc
 50
0.0
 51
90.0
  0
LINE
  5
157
100
AcDbEntity
  8
7
  6
CENTER2
 62
    40
100
AcDbLine
 10
87.2153033965055
 20
61.8548136238257
 11
454.0
 21
61.8548136238257
  0
LINE
  5
158
100
AcDbEntity
  8
2
  6
CONTINUOUS
 62
     0
100
AcDbLine
 10
147.999999999999
 20
50.8548136238257
 11
143.199999999999
 21
50.8548136238257
  0
LINE
  5
159
100
AcDbEntity
  8
2
  6
CONTINUOUS
 62
     0
100
AcDbLine
 10
147.999999999999
 20
50.8548136238257
 11
147.999999999999
 21
72.8548136238257
  0
LINE
  5
15A
100
AcDbEntity
  8
8
  6
CONTINUOUS
 62
     7
100
AcDbLine
 10
147.999999999999
 20
51.3963136238257
 11
147.062094487699
 21
50.8548136238257
  0
LINE
  5
15C
100
AcDbEntity
  8
2
  6
CONTINUOUS
 62
     0
100
AcDbLine
 10
147.999999999999
 20
72.8548136238257
 11
143.199999999999
 21
72.8548136238257
  0
LINE
  5
15D
100
AcDbEntity
  8
8
  6
CONTINUOUS
 62
     7
100
AcDbLine
 10
147.999999999999
 20
72.3133136238257
 11
147.062094487699
 21
72.8548136238257
  0
LINE
  5
15E
100
AcDbEntity
  8
2
  6
CONTINUOUS
 62
     0
100
AcDbLine
 10
209.999999999999
 20
66.1548136238267
 11
450.7
 21
66.1548136238267
  0
LINE
  5
15F
100
AcDbEntity
  8
2
  6
CONTINUOUS
 62
     0
100
AcDbLine
 10
450.7
 20
57.5548136238267
 11
209.999999999999
 21
57.5548136238267
  0
LINE
  5
160
100
AcDbEntity
  8
2
  6
CONTINUOUS
 62
     0
100
AcDbLine
 10
158.999999999999
 20
59.3548136238257
 11
148.999999999999
 21
59.3548136238257
  0
LINE
  5
161
100
AcDbEntity
  8
2
  6
CONTINUOUS
 62
     0
100
AcDbLine
 10
148.999999999999
 20
60.3548136238257
 11
158.999999999999
 21
60.3548136238257
  0
LINE
  5
162
100
AcDbEntity
  8
2
  6
CONTINUOUS
 62
     0
100
AcDbLine
 10
158.999999999999
 20
61.3548136238257
 11
148.999999999999
 21
61.3548136238257
  0
LINE
  5
163
100
AcDbEntity
  8
2
  6
CONTINUOUS
 62
     0
100
AcDbLine
 10
148.999999999999
 20
62.3548136238257
 11
158.999999999999
 21
62.3548136238257
  0
LINE
  5
164
100
AcDbEntity
  8
2
  6
CONTINUOUS
 62
     0
100
AcDbLine
 10
158.999999999999
 20
63.3548136238257
 11
148.999999999999
 21
63.3548136238257
  0
LINE
  5
165
100
AcDbEntity
  8
2
  6
CONTINUOUS
 62
     0
100
AcDbLine
 10
148.999999999999
 20
64.3548136238257
 11
158.999999999999
 21
64.3548136238257
  0
LINE
  5
166
100
AcDbEntity
  8
2
  6
CONTINUOUS
 62
     0
100
AcDbLine
 10
158.999999999999
 20
65.3548136238257
 11
148.999999999999
 21
65.3548136238257
  0
LINE
  5
167
100
AcDbEntity
  8
2
  6
CONTINUOUS
 62
     0
100
AcDbLine
 10
148.999999999999
 20
66.3548136238257
 11
158.999999999999
 21
66.3548136238257
  0
LINE
  5
168
100
AcDbEntity
  8
2
  6
CONTINUOUS
 62
     0
100
AcDbLine
 10
158.999999999999
 20
67.3548136238257
 11
148.999999999999
 21
67.3548136238257
  0
LINE
  5
169
100
AcDbEntity
  8
2
  6
CONTINUOUS
 62
     0
100
AcDbLine
 10
148.999999999999
 20
68.3548136238257
 11
158.999999999999
 21
68.3548136238257
  0
LINE
  5
16A
100
AcDbEntity
  8
2
  6
CONTINUOUS
 62
     0
100
AcDbLine
 10
158.999999999999
 20
69.3548136238257
 11
148.999999999999
 21
69.3548136238257
  0
LINE
  5
16B
100
AcDbEntity
  8
2
  6
CONTINUOUS
 62
     0
100
AcDbLine
 10
148.999999999999
 20
70.3548136238257
 11
158.999999999999
 21
70.3548136238257
  0
LINE
  5
16C
100
AcDbEntity
  8
2
  6
CONTINUOUS
 62
     0
100
AcDbLine
 10
158.999999999999
 20
71.3548136238257
 11
148.999999999999
 21
71.3548136238257
  0
LINE
  5
16D
100
AcDbEntity
  8
2
  6
CONTINUOUS
 62
     0
100
AcDbLine
 10
148.999999999999
 20
72.3548136238257
 11
158.999999999999
 21
72.3548136238257
  0
LINE
  5
16E
100
AcDbEntity
  8
2
  6
CONTINUOUS
 62
     0
100
AcDbLine
 10
158.999999999999
 20
73.3548136238257
 11
148.999999999999
 21
73.3548136238257
  0
LINE
  5
16F
100
AcDbEntity
  8
2
  6
CONTINUOUS
 62
     0
100
AcDbLine
 10
148.999999999999
 20
74.3548136238257
 11
158.999999999999
 21
74.3548136238257
  0
LINE
  5
170
100
AcDbEntity
  8
2
  6
CONTINUOUS
 62
     0
100
AcDbLine
 10
189.499999999999
 20
69.5548136238257
 11
187.499999999999
 21
71.5548136238257
  0
LINE
  5
171
100
AcDbEntity
  8
2
  6
CONTINUOUS
 62
     0
100
AcDbLine
 10
187.499999999999
 20
69.5548136238257
 11
189.499999999999
 21
71.5548136238257
  0
CIRCLE
  5
172
100
AcDbEntity
  8
2
  6
CONTINUOUS
 62
     0
100
AcDbCircle
 10
188.499999999999
 20
70.5548136238257
 40
2.75
  0
LINE
  5
173
100
AcDbEntity
  8
2
  6
CONTINUOUS
 62
     0
100
AcDbLine
 10
189.499999999999
 20
54.1548136238257
 11
187.499999999999
 21
52.1548136238257
  0
LINE
  5
174
100
AcDbEntity
  8
2
  6
CONTINUOUS
 62
     0
100
AcDbLine
 10
187.499999999999
 20
54.1548136238257
 11
189.499999999999
 21
52.1548136238257
  0
CIRCLE
  5
175
100
AcDbEntity
  8
2
  6
CONTINUOUS
 62
     0
100
AcDbCircle
 10
188.499999999999
 20
53.1548136238257
 40
2.75
  0
LINE
  5
176
100
AcDbEntity
  8
2
  6
CONTINUOUS
 62
     0
100
AcDbLine
 10
183.999999999999
 20
51.8548136238257
 11
183.999999999999
 21
71.8548136238257
  0
LINE
  5
177
100
AcDbEntity
  8
2
  6
CONTINUOUS
 62
     0
100
AcDbLine
 10
148.999999999999
 20
48.8548136238257
 11
148.999999999999
 21
74.8548136238257
  0
LINE
  5
178
100
AcDbEntity
  8
2
  6
CONTINUOUS
 62
     0
100
AcDbLine
 10
158.999999999999
 20
74.8548136238257
 11
158.999999999999
 21
48.8548136238257
  0
LINE
  5
179
100
AcDbEntity
  8
2
  6
CONTINUOUS
 62
     0
100
AcDbLine
 10
148.999999999999
 20
49.3548136238257
 11
158.999999999999
 21
49.3548136238257
  0
LINE
  5
17A
100
AcDbEntity
  8
2
  6
CONTINUOUS
 62
     0
100
AcDbLine
 10
158.999999999999
 20
50.3548136238257
 11
148.999999999999
 21
50.3548136238257
  0
LINE
  5
17B
100
AcDbEntity
  8
2
  6
CONTINUOUS
 62
     0
100
AcDbLine
 10
148.999999999999
 20
51.3548136238257
 11
158.999999999999
 21
51.3548136238257
  0
LINE
  5
17C
100
AcDbEntity
  8
2
  6
CONTINUOUS
 62
     0
100
AcDbLine
 10
158.999999999999
 20
52.3548136238257
 11
148.999999999999
 21
52.3548136238257
  0
LINE
  5
17D
100
AcDbEntity
  8
2
  6
CONTINUOUS
 62
     0
100
AcDbLine
 10
148.999999999999
 20
53.3548136238257
 11
158.999999999999
 21
53.3548136238257
  0
LINE
  5
17E
100
AcDbEntity
  8
2
  6
CONTINUOUS
 62
     0
100
AcDbLine
 10
158.999999999999
 20
58.3548136238257
 11
148.999999999999
 21
58.3548136238257
  0
LINE
  5
17F
100
AcDbEntity
  8
2
  6
CONTINUOUS
 62
     0
100
AcDbLine
 10
158.999999999999
 20
57.3548136238257
 11
148.999999999999
 21
57.3548136238257
  0
LINE
  5
180
100
AcDbEntity
  8
2
  6
CONTINUOUS
 62
     0
100
AcDbLine
 10
158.999999999999
 20
56.3548136238257
 11
148.999999999999
 21
56.3548136238257
  0
LINE
  5
181
100
AcDbEntity
  8
2
  6
CONTINUOUS
 62
     0
100
AcDbLine
 10
158.999999999999
 20
55.3548136238257
 11
148.999999999999
 21
55.3548136238257
  0
LINE
  5
182
100
AcDbEntity
  8
2
  6
CONTINUOUS
 62
     0
100
AcDbLine
 10
158.999999999999
 20
54.3548136238257
 11
148.999999999999
 21
54.3548136238257
  0
LINE
  5
183
100
AcDbEntity
  8
2
  6
CONTINUOUS
 62
     0
100
AcDbLine
 10
191.999999999999
 20
71.3548136238257
 11
191.999999999999
 21
52.3548136238257
  0
ARC
  5
184
100
AcDbEntity
  8
2
  6
CONTINUOUS
 62
     0
100
AcDbCircle
 10
189.999999999999
 20
71.3548136238257
 40
1.99999999999994
100
AcDbArc
 50
0.0
 51
90.0
  0
ARC
  5
185
100
AcDbEntity
  8
2
  6
CONTINUOUS
 62
     0
100
AcDbCircle
 10
186.999999999999
 20
71.3548136238257
 40
1.99999999999994
100
AcDbArc
 50
90.0
 51
180.0
  0
LINE
  5
186
100
AcDbEntity
  8
2
  6
CONTINUOUS
 62
     0
100
AcDbLine
 10
186.999999999999
 20
73.3548136238257
 11
189.999999999999
 21
73.3548136238257
  0
ARC
  5
187
100
AcDbEntity
  8
2
  6
CONTINUOUS
 62
     0
100
AcDbCircle
 10
183.915999999999
 20
73.9018136238257
 40
1.99999999999993
100
AcDbArc
 50
259.79599999999
 51
320.44500000002
  0
LINE
  5
188
100
AcDbEntity
  8
2
  6
CONTINUOUS
 62
     0
100
AcDbLine
 10
171.999999999999
 20
73.6548136238257
 11
183.999999999999
 21
71.8548136238257
  0
LINE
  5
189
100
AcDbEntity
  8
2
  6
CONTINUOUS
 62
     0
100
AcDbLine
 10
158.999999999999
 20
74.3548136238257
 11
161.999999999999
 21
74.3548136238257
  0
LINE
  5
18A
100
AcDbEntity
  8
2
  6
CONTINUOUS
 62
     0
100
AcDbLine
 10
161.999999999999
 20
74.3548136238257
 11
161.999999999999
 21
49.3548136238257
  0
LINE
  5
18B
100
AcDbEntity
  8
2
  6
CONTINUOUS
 62
     0
100
AcDbLine
 10
161.999999999999
 20
73.6548136238257
 11
171.999999999999
 21
73.6548136238257
  0
LINE
  5
18C
100
AcDbEntity
  8
2
  6
CONTINUOUS
 62
     0
100
AcDbLine
 10
148.999999999999
 20
74.8548136238257
 11
158.999999999999
 21
74.8548136238257
  0
LINE
  5
18D
100
AcDbEntity
  8
2
  6
CONTINUOUS
 62
     0
100
AcDbLine
 10
147.999999999999
 20
74.3548136238257
 11
148.999999999999
 21
74.3548136238257
  0
LINE
  5
18E
100
AcDbEntity
  8
2
  6
CONTINUOUS
 62
     0
100
AcDbLine
 10
161.999999999999
 20
50.0548136238257
 11
171.999999999999
 21
50.0548136238257
  0
LINE
  5
18F
100
AcDbEntity
  8
2
  6
CONTINUOUS
 62
     0
100
AcDbLine
 10
171.999999999999
 20
50.0548136238257
 11
183.999999999999
 21
51.8548136238257
  0
ARC
  5
190
100
AcDbEntity
  8
2
  6
CONTINUOUS
 62
     0
100
AcDbCircle
 10
183.915999999999
 20
49.8078136238257
 40
1.99999999999995
100
AcDbArc
 50
39.554999999977
 51
100.204000000011
  0
ARC
  5
191
100
AcDbEntity
  8
2
  6
CONTINUOUS
 62
     0
100
AcDbCircle
 10
189.999999999999
 20
52.3548136238257
 40
1.99999999999994
100
AcDbArc
 50
270.0
 51
0.0
  0
LINE
  5
192
100
AcDbEntity
  8
2
  6
CONTINUOUS
 62
     0
100
AcDbLine
 10
189.999999999999
 20
50.3548136238257
 11
186.999999999999
 21
50.3548136238257
  0
ARC
  5
193
100
AcDbEntity
  8
2
  6
CONTINUOUS
 62
     0
100
AcDbCircle
 10
186.999999999999
 20
52.3548136238257
 40
1.99999999999994
100
AcDbArc
 50
180.0
 51
270.0
  0
LINE
  5
194
100
AcDbEntity
  8
2
  6
CONTINUOUS
 62
     0
100
AcDbLine
 10
184.999999999999
 20
52.3548136238257
 11
184.999999999999
 21
71.3548136238257
  0
LINE
  5
195
100
AcDbEntity
  8
2
  6
CONTINUOUS
 62
     0
100
AcDbLine
 10
161.999999999999
 20
49.3548136238257
 11
158.999999999999
 21
49.3548136238257
  0
LINE
  5
196
100
AcDbEntity
  8
2
  6
CONTINUOUS
 62
     0
100
AcDbLine
 10
158.999999999999
 20
48.8548136238257
 11
148.999999999999
 21
48.8548136238257
  0
LINE
  5
197
100
AcDbEntity
  8
2
  6
CONTINUOUS
 62
     0
100
AcDbLine
 10
148.999999999999
 20
49.3548136238257
 11
147.999999999999
 21
49.3548136238257
  0
LINE
  5
198
100
AcDbEntity
  8
2
  6
CONTINUOUS
 62
     0
100
AcDbLine
 10
147.999999999999
 20
49.3548136238257
 11
147.999999999999
 21
74.3548136238257
  0
LINE
  5
199
100
AcDbEntity
  8
2
  6
CONTINUOUS
 62
     0
100
AcDbLine
 10
143.199999999999
 20
47.3548136238257
 11
143.199999999999
 21
76.3548136238257
  0
LINE
  5
19A
100
AcDbEntity
  8
2
  6
CONTINUOUS
 62
     0
100
AcDbLine
 10
143.199999999999
 20
47.3548136238257
 11
141.199999999999
 21
47.3548136238257
  0
LINE
  5
19B
100
AcDbEntity
  8
2
  6
CONTINUOUS
 62
     0
100
AcDbLine
 10
141.199999999999
 20
76.3548136238257
 11
143.199999999999
 21
76.3548136238257
  0
LINE
  5
19C
100
AcDbEntity
  8
2
  6
CONTINUOUS
 62
     0
100
AcDbLine
 10
141.199999999999
 20
44.3548136238257
 11
141.199999999999
 21
79.3548136238257
  0
LINE
  5
19D
100
AcDbEntity
  8
2
  6
CONTINUOUS
 62
     0
100
AcDbLine
 10
137.999999999999
 20
44.3548136238257
 11
141.199999999999
 21
44.3548136238257
  0
LINE
  5
19E
100
AcDbEntity
  8
2
  6
CONTINUOUS
 62
     0
100
AcDbLine
 10
209.999999999999
 20
68.1548136238257
 11
209.999999999999
 21
55.5548136238257
  0
LINE
  5
19F
100
AcDbEntity
  8
2
  6
CONTINUOUS
 62
     0
100
AcDbLine
 10
191.999999999999
 20
55.5548136238257
 11
209.999999999999
 21
55.5548136238257
  0
LINE
  5
1A0
100
AcDbEntity
  8
2
  6
CONTINUOUS
 62
     0
100
AcDbLine
 10
191.999999999999
 20
68.1548136238257
 11
209.999999999999
 21
68.1548136238257
  0
LINE
  5
1A1
100
AcDbEntity
  8
2
  6
CONTINUOUS
 62
     0
100
AcDbLine
 10
137.999999999999
 20
44.8548136238257
 11
137.999999999999
 21
51.9048136238257
  0
LINE
  5
1A2
100
AcDbEntity
  8
2
  6
CONTINUOUS
 62
     0
100
AcDbLine
 10
137.999999999999
 20
71.8048136238257
 11
137.999999999999
 21
79.3548136238257
  0
LINE
  5
1A3
100
AcDbEntity
  8
2
  6
CONTINUOUS
 62
     0
100
AcDbLine
 10
-18.0000000000006
 20
39.3548136238267
 11
-18.0000000000006
 21
42.3548136238257
  0
LINE
  5
1A4
100
AcDbEntity
  8
2
  6
CONTINUOUS
 62
     0
100
AcDbLine
 10
-15.0000000000006
 20
45.3548136238257
 11
-18.0000000000006
 21
42.3548136238257
  0
LINE
  5
1A5
100
AcDbEntity
  8
2
  6
CONTINUOUS
 62
     0
100
AcDbLine
 10
-15.0000000000006
 20
45.3548136238257
 11
137.999999999999
 21
45.3548136238257
  0
LINE
  5
1A6
100
AcDbEntity
  8
7
  6
CENTER2
 62
    40
100
AcDbLine
 10
474.999999999999
 20
8.9350740929807
 11
474.999999999999
 21
37.0548136238267
  0
LINE
  5
1A7
100
AcDbEntity
  8
7
  6
CENTER2
 62
    40
100
AcDbLine
 10
426.279441469443
 20
30.8548136238267
 11
455.670562422479
 21
30.8548136238267
  0
LINE
  5
1A8
100
AcDbEntity
  8
7
  6
CENTER2
 62
    40
100
AcDbLine
 10
426.279441469443
 20
-45.1451863761733
 11
455.670562422479
 21
-45.1451863761733
  0
LINE
  5
1A9
100
AcDbEntity
  8
7
  6
CENTER2
 62
    40
100
AcDbLine
 10
281.720558530556
 20
-45.1451863761733
 11
252.32943757752
 21
-45.1451863761733
  0
LINE
  5
1AA
100
AcDbEntity
  8
7
  6
CENTER2
 62
    40
100
AcDbLine
 10
281.720558530556
 20
30.8548136238267
 11
252.32943757752
 21
30.8548136238267
  0
LINE
  5
1AB
100
AcDbEntity
  8
7
  6
CENTER2
 62
    40
100
AcDbLine
 10
83.0232923532715
 20
-62.1451863761743
 11
124.15335497424
 21
-62.1451863761743
  0
LINE
  5
1AC
100
AcDbEntity
  8
2
  6
CONTINUOUS
 62
     0
100
AcDbLine
 10
-49.4999999999806
 20
-62.1451863761753
 11
-60.4999999999806
 21
-62.1451863761753
  0
LINE
  5
1AD
100
AcDbEntity
  8
2
  6
CONTINUOUS
 62
     0
100
AcDbLine
 10
-49.4999999999806
 20
-62.1451863761743
 11
-24.4999999999806
 21
-62.1451863761743
  0
LINE
  5
1AE
100
AcDbEntity
  8
2
  6
CONTINUOUS
 62
     0
100
AcDbLine
 10
104.499999999999
 20
-71.1451863761743
 11
118.499999999999
 21
-71.1451863761743
  0
LINE
  5
1AF
100
AcDbEntity
  8
2
  6
CONTINUOUS
 62
     0
100
AcDbLine
 10
94.4999999999995
 20
-71.1451863761733
 11
104.499999999999
 21
-71.1451863761733
  0
LINE
  5
1B0
100
AcDbEntity
  8
2
  6
CONTINUOUS
 62
     0
100
AcDbLine
 10
140.499999999999
 20
-38.1451863761743
 11
225.499999999999
 21
-38.1451863761743
  0
LINE
  5
1B1
100
AcDbEntity
  8
2
  6
CONTINUOUS
 62
     0
100
AcDbLine
 10
225.499999999999
 20
-51.1451863761743
 11
232.499999999999
 21
-51.1451863761743
  0
LINE
  5
1B2
100
AcDbEntity
  8
2
  6
CONTINUOUS
 62
     0
100
AcDbLine
 10
225.499999999999
 20
-51.1451863761743
 11
225.499999999999
 21
36.8548136238257
  0
LINE
  5
1B3
100
AcDbEntity
  8
7
  6
CENTER2
 62
    40
100
AcDbLine
 10
216.4480041504
 20
-45.1451863761733
 11
244.475796059281
 21
-45.1451863761733
  0
LINE
  5
1B4
100
AcDbEntity
  8
2
  6
CONTINUOUS
 62
     0
100
AcDbLine
 10
225.499999999999
 20
-51.1451863761743
 11
232.499999999999
 21
-51.1451863761743
  0
INSERT
  5
1B6
100
AcDbEntity
  8
2
  6
CONTINUOUS
 62
     0
100
AcDbBlockReference
  2
SUB6
 10
225.499999999999
 20
-45.1451863761733
 41
1.0
 42
1.0
 50
0.0
  0
LINE
  5
1C3
100
AcDbEntity
  8
2
  6
CONTINUOUS
 62
     0
100
AcDbLine
 10
225.499999999999
 20
-49.9951863761743
 11
269.499999999999
 21
-49.9951863761743
  0
LINE
  5
1C4
100
AcDbEntity
  8
2
  6
CONTINUOUS
 62
     0
100
AcDbLine
 10
140.499999999999
 20
23.8548136238257
 11
225.499999999999
 21
23.8548136238257
  0
LINE
  5
1C5
100
AcDbEntity
  8
2
  6
CONTINUOUS
 62
     0
100
AcDbLine
 10
225.499999999999
 20
36.8548136238257
 11
232.499999999999
 21
36.8548136238257
  0
LINE
  5
1C6
100
AcDbEntity
  8
7
  6
CENTER2
 62
    40
100
AcDbLine
 10
216.4480041504
 20
30.8548136238267
 11
244.475796059281
 21
30.8548136238267
  0
LINE
  5
1C7
100
AcDbEntity
  8
2
  6
CONTINUOUS
 62
     0
100
AcDbLine
 10
225.499999999999
 20
36.8548136238257
 11
232.499999999999
 21
36.8548136238257
  0
INSERT
  5
1C9
100
AcDbEntity
  8
2
  6
CONTINUOUS
 62
     0
100
AcDbBlockReference
  2
SUB7
 10
225.499999999999
 20
30.8548136238267
 41
1.0
 42
1.0
 50
0.0
  0
LINE
  5
1D6
100
AcDbEntity
  8
2
  6
CONTINUOUS
 62
     0
100
AcDbLine
 10
225.499999999999
 20
35.7048136238257
 11
269.499999999999
 21
35.7048136238257
  0
LINE
  5
1D7
100
AcDbEntity
  8
2
  6
CONTINUOUS
 62
     0
100
AcDbLine
 10
140.499999999999
 20
26.3548136238267
 11
140.499999999999
 21
-54.1451863761733
  0
LINE
  5
1D8
100
AcDbEntity
  8
2
  6
CONTINUOUS
 62
     0
100
AcDbLine
 10
133.499999999999
 20
21.2882024743577
 11
140.499999999999
 21
21.2882024743577
  0
LINE
  5
1D9
100
AcDbEntity
  8
2
  6
CONTINUOUS
 62
     0
100
AcDbLine
 10
133.499999999999
 20
11.0480991777927
 11
140.499999999999
 21
11.0480991777927
  0
LINE
  5
1DA
100
AcDbEntity
  8
7
  6
CENTER2
 62
    40
100
AcDbLine
 10
95.7458422196215
 20
12.8548136238267
 11
153.297086777645
 21
12.8548136238267
  0
INSERT
  5
1DC
100
AcDbEntity
  8
9
  6
PHANTOM
 62
    10
100
AcDbBlockReference
  2
SUB8
 10
140.499999999999
 20
12.8548136238267
 41
1.0
 42
1.0
 50
0.0
  0
LINE
  5
1EA
100
AcDbEntity
  8
2
  6
CONTINUOUS
 62
     0
100
AcDbLine
 10
133.499999999999
 20
26.3548136238267
 11
140.499999999999
 21
26.3548136238267
  0
LINE
  5
1EB
100
AcDbEntity
  8
7
  6
CENTER2
 62
    40
100
AcDbLine
 10
95.7458422196215
 20
-47.1451863761733
 11
153.297086777645
 21
-47.1451863761733
  0
LINE
  5
1EC
100
AcDbEntity
  8
2
  6
CONTINUOUS
 62
     0
100
AcDbLine
 10
133.499999999999
 20
-54.1451863761733
 11
140.499999999999
 21
-54.1451863761733
  0
LINE
  5
1ED
100
AcDbEntity
  8
2
  6
CONTINUOUS
 62
     0
100
AcDbLine
 10
140.499999999999
 20
-52.6451863761733
 11
140.499999999999
 21
-38.6451863761733
  0
INSERT
  5
1EF
100
AcDbEntity
  8
9
  6
PHANTOM
 62
    10
100
AcDbBlockReference
  2
SUB9
 10
140.499999999999
 20
-47.1451863761733
 41
1.0
 42
1.0
 50
0.0
  0
LINE
  5
1FC
100
AcDbEntity
  8
2
  6
CONTINUOUS
 62
     0
100
AcDbLine
 10
133.499999999999
 20
-53.7718605808021
 11
140.499999999999
 21
-53.7718605808021
  0
LINE
  5
1FD
100
AcDbEntity
  8
2
  6
CONTINUOUS
 62
     0
100
AcDbLine
 10
133.499999999999
 20
39.3548136238257
 11
133.499999999999
 21
-56.1451863761744
  0
LINE
  5
1FE
100
AcDbEntity
  8
2
  6
CONTINUOUS
 62
     0
100
AcDbLine
 10
94.4999999999995
 20
18.6006536545267
 11
118.499999999999
 21
18.6006536545267
  0
LINE
  5
1FF
100
AcDbEntity
  8
2
  6
CONTINUOUS
 62
     0
100
AcDbLine
 10
94.4999999999995
 20
30.7250093075266
 11
118.499999999999
 21
30.7250093075266
  0
LINE
  5
200
100
AcDbEntity
  8
2
  6
CONTINUOUS
 62
     0
100
AcDbLine
 10
118.499999999999
 20
30.7250093075266
 11
118.499999999999
 21
18.6006536545267
  0
ARC
  5
201
100
AcDbEntity
  8
2
  6
CONTINUOUS
 62
     0
100
AcDbCircle
 10
107.581667228296
 20
67.0539620106834
 40
37.9341903172039
100
AcDbArc
 50
286.727667498733
 51
313.097715093066
  0
ARC
  5
202
100
AcDbEntity
  8
2
  6
CONTINUOUS
 62
     0
100
AcDbCircle
 10
-16.5799177264271
 20
-63.9078327535713
 40
158.285294649672
100
AcDbArc
 50
18.5293773117551
 51
31.417102063391
  0
LINE
  5
203
100
AcDbEntity
  8
2
  6
CONTINUOUS
 62
     0
100
AcDbLine
 10
94.4999999999995
 20
-13.6062145135734
 11
118.499999999999
 21
-13.6062145135734
  0
ARC
  5
204
100
AcDbEntity
  8
2
  6
CONTINUOUS
 62
     0
100
AcDbCircle
 10
112.951503732612
 20
-72.7493655808092
 40
59.4028461354429
100
AcDbArc
 50
69.7621739831971
 51
84.6405009188039
  0
LINE
  5
205
100
AcDbEntity
  8
2
  6
CONTINUOUS
 62
     0
100
AcDbLine
 10
94.4999999999995
 20
-47.1841582386734
 11
118.499999999999
 21
-47.1841582386734
  0
ARC
  5
206
100
AcDbEntity
  8
2
  6
CONTINUOUS
 62
     0
100
AcDbCircle
 10
44.0666060538202
 20
-6.84571977825635
 40
98.1097424833913
100
AcDbArc
 50
319.347514260343
 51
335.72250768287
  0
ARC
  5
207
100
AcDbEntity
  8
2
  6
CONTINUOUS
 62
     0
100
AcDbCircle
 10
112.951503733569
 20
11.9589928282412
 40
59.4028461350336
100
AcDbArc
 50
275.359499080306
 51
290.237826015965
  0
LINE
  5
208
100
AcDbEntity
  8
2
  6
CONTINUOUS
 62
     0
100
AcDbLine
 10
94.4999999999995
 20
-70.7612220903733
 11
118.499999999999
 21
-70.7612220903733
  0
LINE
  5
209
100
AcDbEntity
  8
2
  6
CONTINUOUS
 62
     0
100
AcDbLine
 10
118.499999999999
 20
-70.7612220903733
 11
118.499999999999
 21
-71.1451863761733
  0
LINE
  5
20A
100
AcDbEntity
  8
2
  6
CONTINUOUS
 62
     0
100
AcDbLine
 10
97.9999999999995
 20
79.3548136238256
 11
141.199999999999
 21
79.3548136238256
  0
LINE
  5
20B
100
AcDbEntity
  8
2
  6
CONTINUOUS
 62
     0
100
AcDbLine
 10
87.9999999999995
 20
69.3548136238256
 11
97.9999999999995
 21
79.3548136238256
  0
LINE
  5
20C
100
AcDbEntity
  8
7
  6
CENTER2
 62
    40
100
AcDbLine
 10
112.999999999999
 20
41.3548136238257
 11
112.999999999999
 21
82.9993211134087
  0
LINE
  5
20D
100
AcDbEntity
  8
7
  6
CENTER2
 62
    40
100
AcDbLine
 10
100.999999999999
 20
41.3548136238257
 11
100.999999999999
 21
82.9993211134087
  0
LINE
  5
20E
100
AcDbEntity
  8
2
  6
CONTINUOUS
 62
     0
100
AcDbLine
 10
109.999999999999
 20
74.5548136238257
 11
115.999999999999
 21
74.5548136238257
  0
LINE
  5
20F
100
AcDbEntity
  8
2
  6
CONTINUOUS
 62
     0
100
AcDbLine
 10
109.999999999999
 20
74.5548136238257
 11
109.999999999999
 21
79.3548136238256
  0
LINE
  5
210
100
AcDbEntity
  8
2
  6
CONTINUOUS
 62
     0
100
AcDbLine
 10
115.999999999999
 20
74.5548136238257
 11
115.999999999999
 21
79.3548136238256
  0
LINE
  5
211
100
AcDbEntity
  8
2
  6
CONTINUOUS
 62
     0
100
AcDbLine
 10
97.9999999999995
 20
74.5548136238257
 11
103.999999999999
 21
74.5548136238257
  0
LINE
  5
212
100
AcDbEntity
  8
2
  6
CONTINUOUS
 62
     0
100
AcDbLine
 10
103.999999999999
 20
74.5548136238257
 11
103.999999999999
 21
79.3548136238256
  0
LINE
  5
213
100
AcDbEntity
  8
2
  6
CONTINUOUS
 62
     0
100
AcDbLine
 10
97.9999999999995
 20
74.5548136238257
 11
97.9999999999995
 21
79.3548136238256
  0
LINE
  5
214
100
AcDbEntity
  8
2
  6
CONTINUOUS
 62
     0
100
AcDbLine
 10
89.9999999999995
 20
68.5263864990796
 11
97.9999999999995
 21
76.5263864990796
  0
LINE
  5
215
100
AcDbEntity
  8
2
  6
CONTINUOUS
 62
     0
100
AcDbLine
 10
103.999999999999
 20
77.3548136238256
 11
109.999999999999
 21
77.3548136238256
  0
LINE
  5
216
100
AcDbEntity
  8
2
  6
CONTINUOUS
 62
     0
100
AcDbLine
 10
115.999999999999
 20
77.3548136238256
 11
137.999999999999
 21
77.3548136238256
  0
LINE
  5
217
100
AcDbEntity
  8
2
  6
CONTINUOUS
 62
     0
100
AcDbLine
 10
89.9999999999995
 20
45.3548136238257
 11
89.9999999999995
 21
68.5263864990796
  0
LINE
  5
218
100
AcDbEntity
  8
2
  6
CONTINUOUS
 62
     0
100
AcDbLine
 10
89.9999999999995
 20
68.5263864990796
 11
87.9999999999995
 21
69.3548136238256
  0
LINE
  5
219
100
AcDbEntity
  8
2
  6
CONTINUOUS
 62
     0
100
AcDbLine
 10
87.9999999999995
 20
39.3548136238267
 11
87.9999999999995
 21
69.3548136238256
  0
LINE
  5
21A
100
AcDbEntity
  8
2
  6
CONTINUOUS
 62
     0
100
AcDbLine
 10
137.999999999999
 20
39.3548136238267
 11
137.999999999999
 21
79.3548136238256
  0
LINE
  5
21B
100
AcDbEntity
  8
7
  6
CENTER2
 62
    40
100
AcDbLine
 10
-12.4999999999806
 20
30.4728074334007
 11
-12.4999999999806
 21
48.2524551156787
  0
LINE
  5
21C
100
AcDbEntity
  8
2
  6
CONTINUOUS
 62
     0
100
AcDbLine
 10
-15.0000000000006
 20
39.3548136238267
 11
-15.0000000000006
 21
45.3548136238257
  0
INSERT
  5
21E
100
AcDbEntity
  8
2
  6
CONTINUOUS
 62
     0
100
AcDbBlockReference
  2
SUB10
 10
94.4999999999995
 20
20.3548136238519
 41
1.0
 42
1.0
 50
0.0
  0
INSERT
  5
22C
100
AcDbEntity
  8
2
  6
CONTINUOUS
 62
     0
100
AcDbBlockReference
  2
SUB11
 10
94.4999999999995
 20
20.3548136238519
 41
1.0
 42
1.0
 50
0.0
  0
LINE
  5
239
100
AcDbEntity
  8
7
  6
CENTER2
 62
    40
100
AcDbLine
 10
83.0232923532715
 20
20.3548136238519
 11
124.15335497424
 21
20.3548136238519
  0
LINE
  5
23A
100
AcDbEntity
  8
2
  6
CONTINUOUS
 62
     0
100
AcDbLine
 10
-76.4999999999806
 20
10.3548136238267
 11
-72.4999999999806
 21
10.3548136238267
  0
LINE
  5
23B
100
AcDbEntity
  8
2
  6
CONTINUOUS
 62
     0
100
AcDbLine
 10
-60.4999999999806
 20
-62.1451863761753
 11
-60.4999999999806
 21
39.3548136238257
  0
LINE
  5
23C
100
AcDbEntity
  8
2
  6
CONTINUOUS
 62
     0
100
AcDbLine
 10
-60.4999999999806
 20
-61.6466003656933
 11
-24.4999999999806
 21
-61.6466003656933
  0
LINE
  5
23D
100
AcDbEntity
  8
2
  6
CONTINUOUS
 62
     0
100
AcDbLine
 10
-60.4999999999806
 20
13.7065437583997
 11
-24.4999999999806
 21
13.7065437583997
  0
LINE
  5
23E
100
AcDbEntity
  8
2
  6
CONTINUOUS
 62
     0
100
AcDbLine
 10
-9.77756813564355
 20
-53.6451863761733
 11
-9.77756813564355
 21
39.3548136238257
  0
LINE
  5
23F
100
AcDbEntity
  8
2
  6
CONTINUOUS
 62
     0
100
AcDbLine
 10
-24.4999999999806
 20
-62.1451863761743
 11
-24.4999999999806
 21
-61.6466003656933
  0
LINE
  5
240
100
AcDbEntity
  8
2
  6
CONTINUOUS
 62
     0
100
AcDbLine
 10
-24.4999999999806
 20
13.7065437583997
 11
-24.4999999999806
 21
26.5044974787737
  0
LINE
  5
241
100
AcDbEntity
  8
2
  6
CONTINUOUS
 62
     0
100
AcDbLine
 10
-60.4999999999806
 20
26.5044974787737
 11
-24.4999999999806
 21
26.5044974787737
  0
ARC
  5
242
100
AcDbEntity
  8
2
  6
CONTINUOUS
 62
     0
100
AcDbCircle
 10
-44.8905146032688
 20
72.1976290364593
 40
50.0363403671258
100
AcDbArc
 50
294.04877031141
 51
314.567486891764
  0
ARC
  5
243
100
AcDbEntity
  8
2
  6
CONTINUOUS
 62
     0
100
AcDbCircle
 10
-163.481629286416
 20
-75.2396318066517
 40
165.007016295554
100
AcDbArc
 50
21.3301177631352
 51
32.6186384961628
  0
ARC
  5
244
100
AcDbEntity
  8
2
  6
CONTINUOUS
 62
     0
100
AcDbCircle
 10
-87.4534345777089
 20
2.6232133811161
 40
89.9652370873433
100
AcDbArc
 50
314.407181626096
 51
329.700354748334
  0
LINE
  5
245
100
AcDbEntity
  8
7
  6
CENTER2
 62
    40
100
AcDbLine
 10
-76.9897277413659
 20
15.3548136238484
 11
-28.0484532918284
 21
15.3548136238484
  0
LINE
  5
246
100
AcDbEntity
  8
2
  6
CONTINUOUS
 62
     0
100
AcDbLine
 10
89.9999999999995
 20
39.3548136238267
 11
89.9999999999995
 21
45.3548136238257
  0
LINE
  5
247
100
AcDbEntity
  8
2
  6
CONTINUOUS
 62
     0
100
AcDbLine
 10
137.999999999999
 20
77.3548136238256
 11
141.199999999999
 21
77.3548136238256
  0
LINE
  5
248
100
AcDbEntity
  8
2
  6
CONTINUOUS
 62
     0
100
AcDbLine
 10
137.999999999999
 20
46.3548136238257
 11
141.199999999999
 21
46.3548136238257
  0
LINE
  5
249
100
AcDbEntity
  8
2
  6
CONTINUOUS
 62
     0
100
AcDbLine
 10
136.999999999999
 20
39.3548136238267
 11
136.999999999999
 21
45.3548136238257
  0
MTEXT
  5
24A
100
AcDbEntity
  8
4
  6
CONTINUOUS
 62
     2
100
AcDbMText
 10
320.020104640882
 20
-30.7642722076716
 40
3.5
 41
0.0
 11
1.0
 21
0.0
 71
     7
 72
     5
  7
STANDARD
  1
{\T1.60714;\W0.666667;UNR-G100-7000NT}
  0
INSERT
  5
24D
100
AcDbEntity
  8
2
  6
CONTINUOUS
 62
     0
100
AcDbBlockReference
  2
SUB12
 10
112.999999999999
 20
73.8548136238256
 41
1.0
 42
1.0
 50
0.0
  0
INSERT
  5
258
100
AcDbEntity
  8
2
  6
CONTINUOUS
 62
     0
100
AcDbBlockReference
  2
SUB13
 10
100.999999999999
 20
73.8548136238256
 41
1.0
 42
1.0
 50
0.0
  0
ENDBLK
  5
262
100
AcDbEntity
  8
2
100
AcDbBlockEnd
  0
BLOCK
  5
11E
100
AcDbEntity
  8
2
100
AcDbBlockBegin
  2
SUB2
 70
    64
 10
0.0
 20
0.0
  0
LINE
  5
11F
100
AcDbEntity
  8
2
  6
CONTINUOUS
 62
     0
100
AcDbLine
 10
0.0
 20
-5.0
 11
0.0
 21
5.0
  0
LINE
  5
120
100
AcDbEntity
  8
2
  6
CONTINUOUS
 62
     0
100
AcDbLine
 10
1.5
 20
-5.0
 11
1.5
 21
5.0
  0
LINE
  5
121
100
AcDbEntity
  8
2
  6
CONTINUOUS
 62
     0
100
AcDbLine
 10
7.10000000000002
 20
5.0
 11
0.0
 21
5.0
  0
LINE
  5
122
100
AcDbEntity
  8
2
  6
CONTINUOUS
 62
     0
100
AcDbLine
 10
7.10000000000002
 20
-5.0
 11
0.0
 21
-5.0
  0
LINE
  5
123
100
AcDbEntity
  8
2
  6
CONTINUOUS
 62
     0
100
AcDbLine
 10
7.5
 20
-4.30717967697194
 11
7.5
 21
4.30717967697302
  0
LINE
  5
124
100
AcDbEntity
  8
2
  6
CONTINUOUS
 62
     0
100
AcDbLine
 10
7.10000000000002
 20
-5.0
 11
7.10000000000002
 21
5.0
  0
LINE
  5
125
100
AcDbEntity
  8
2
  6
CONTINUOUS
 62
     0
100
AcDbLine
 10
7.10000000000002
 20
-5.0
 11
7.5
 21
-4.30717967697194
  0
LINE
  5
126
100
AcDbEntity
  8
2
  6
CONTINUOUS
 62
     0
100
AcDbLine
 10
7.10000000000002
 20
5.0
 11
7.5
 21
4.30717967697302
  0
LINE
  5
127
100
AcDbEntity
  8
2
  6
CONTINUOUS
 62
     0
100
AcDbLine
 10
1.5
 20
0.0
 11
0.0
 21
-2.08447098731995
  0
LINE
  5
128
100
AcDbEntity
  8
2
  6
CONTINUOUS
 62
     0
100
AcDbLine
 10
0.0
 20
0.0
 11
1.5
 21
2.06036782264704
  0
ENDBLK
  5
129
100
AcDbEntity
  8
2
100
AcDbBlockEnd
  0
BLOCK
  5
12C
100
AcDbEntity
  8
2
100
AcDbBlockBegin
  2
SUB3
 70
    64
 10
0.0
 20
0.0
  0
LINE
  5
12D
100
AcDbEntity
  8
2
  6
CONTINUOUS
 62
     0
100
AcDbLine
 10
0.0
 20
-5.0
 11
0.0
 21
5.0
  0
LINE
  5
12E
100
AcDbEntity
  8
2
  6
CONTINUOUS
 62
     0
100
AcDbLine
 10
1.5
 20
-5.0
 11
1.5
 21
5.0
  0
LINE
  5
12F
100
AcDbEntity
  8
2
  6
CONTINUOUS
 62
     0
100
AcDbLine
 10
7.10000000000002
 20
5.0
 11
0.0
 21
5.0
  0
LINE
  5
130
100
AcDbEntity
  8
2
  6
CONTINUOUS
 62
     0
100
AcDbLine
 10
7.10000000000002
 20
-5.0
 11
0.0
 21
-5.0
  0
LINE
  5
131
100
AcDbEntity
  8
2
  6
CONTINUOUS
 62
     0
100
AcDbLine
 10
7.5
 20
-4.30717967697194
 11
7.5
 21
4.30717967697302
  0
LINE
  5
132
100
AcDbEntity
  8
2
  6
CONTINUOUS
 62
     0
100
AcDbLine
 10
7.10000000000002
 20
-5.0
 11
7.10000000000002
 21
5.0
  0
LINE
  5
133
100
AcDbEntity
  8
2
  6
CONTINUOUS
 62
     0
100
AcDbLine
 10
7.10000000000002
 20
-5.0
 11
7.5
 21
-4.30717967697194
  0
LINE
  5
134
100
AcDbEntity
  8
2
  6
CONTINUOUS
 62
     0
100
AcDbLine
 10
7.10000000000002
 20
5.0
 11
7.5
 21
4.30717967697302
  0
LINE
  5
135
100
AcDbEntity
  8
2
  6
CONTINUOUS
 62
     0
100
AcDbLine
 10
1.5
 20
0.0
 11
0.0
 21
-2.08447098731995
  0
LINE
  5
136
100
AcDbEntity
  8
2
  6
CONTINUOUS
 62
     0
100
AcDbLine
 10
0.0
 20
0.0
 11
1.5
 21
2.06036782264704
  0
ENDBLK
  5
137
100
AcDbEntity
  8
2
100
AcDbBlockEnd
  0
BLOCK
  5
13A
100
AcDbEntity
  8
2
100
AcDbBlockBegin
  2
SUB4
 70
    64
 10
0.0
 20
0.0
  0
LINE
  5
13B
100
AcDbEntity
  8
2
  6
CONTINUOUS
 62
     0
100
AcDbLine
 10
0.0
 20
-6.5
 11
0.0
 21
6.5
  0
LINE
  5
13C
100
AcDbEntity
  8
2
  6
CONTINUOUS
 62
     0
100
AcDbLine
 10
-2.0
 20
-6.5
 11
-2.0
 21
6.5
  0
LINE
  5
13D
100
AcDbEntity
  8
2
  6
CONTINUOUS
 62
     0
100
AcDbLine
 10
-9.5
 20
6.5
 11
0.0
 21
6.5
  0
LINE
  5
13E
100
AcDbEntity
  8
2
  6
CONTINUOUS
 62
     0
100
AcDbLine
 10
-9.5
 20
-6.5
 11
0.0
 21
-6.5
  0
LINE
  5
13F
100
AcDbEntity
  8
2
  6
CONTINUOUS
 62
     0
100
AcDbLine
 10
-10.0
 20
-5.63397459621598
 11
-10.0
 21
5.63397459621598
  0
LINE
  5
140
100
AcDbEntity
  8
2
  6
CONTINUOUS
 62
     0
100
AcDbLine
 10
-9.5
 20
-6.5
 11
-9.5
 21
6.5
  0
LINE
  5
141
100
AcDbEntity
  8
2
  6
CONTINUOUS
 62
     0
100
AcDbLine
 10
-9.5
 20
-6.5
 11
-10.0
 21
-5.63397459621598
  0
LINE
  5
142
100
AcDbEntity
  8
2
  6
CONTINUOUS
 62
     0
100
AcDbLine
 10
-9.5
 20
6.5
 11
-10.0
 21
5.63397459621598
  0
LINE
  5
143
100
AcDbEntity
  8
2
  6
CONTINUOUS
 62
     0
100
AcDbLine
 10
-2.0
 20
0.0
 11
0.0
 21
-2.686240434647
  0
LINE
  5
144
100
AcDbEntity
  8
2
  6
CONTINUOUS
 62
     0
100
AcDbLine
 10
0.0
 20
0.0
 11
-2.0
 21
2.60311198234598
  0
ENDBLK
  5
145
100
AcDbEntity
  8
2
100
AcDbBlockEnd
  0
BLOCK
  5
148
100
AcDbEntity
  8
2
100
AcDbBlockBegin
  2
SUB5
 70
    64
 10
0.0
 20
0.0
  0
LINE
  5
149
100
AcDbEntity
  8
2
  6
CONTINUOUS
 62
     0
100
AcDbLine
 10
0.0
 20
-6.5
 11
0.0
 21
6.5
  0
LINE
  5
14A
100
AcDbEntity
  8
2
  6
CONTINUOUS
 62
     0
100
AcDbLine
 10
-2.0
 20
-6.5
 11
-2.0
 21
6.5
  0
LINE
  5
14B
100
AcDbEntity
  8
2
  6
CONTINUOUS
 62
     0
100
AcDbLine
 10
-9.5
 20
6.5
 11
0.0
 21
6.5
  0
LINE
  5
14C
100
AcDbEntity
  8
2
  6
CONTINUOUS
 62
     0
100
AcDbLine
 10
-9.5
 20
-6.5
 11
0.0
 21
-6.5
  0
LINE
  5
14D
100
AcDbEntity
  8
2
  6
CONTINUOUS
 62
     0
100
AcDbLine
 10
-10.0
 20
-5.63397459621598
 11
-10.0
 21
5.63397459621598
  0
LINE
  5
14E
100
AcDbEntity
  8
2
  6
CONTINUOUS
 62
     0
100
AcDbLine
 10
-9.5
 20
-6.5
 11
-9.5
 21
6.5
  0
LINE
  5
14F
100
AcDbEntity
  8
2
  6
CONTINUOUS
 62
     0
100
AcDbLine
 10
-9.5
 20
-6.5
 11
-10.0
 21
-5.63397459621598
  0
LINE
  5
150
100
AcDbEntity
  8
2
  6
CONTINUOUS
 62
     0
100
AcDbLine
 10
-9.5
 20
6.5
 11
-10.0
 21
5.63397459621598
  0
LINE
  5
151
100
AcDbEntity
  8
2
  6
CONTINUOUS
 62
     0
100
AcDbLine
 10
-2.0
 20
0.0
 11
0.0
 21
-2.686240434647
  0
LINE
  5
152
100
AcDbEntity
  8
2
  6
CONTINUOUS
 62
     0
100
AcDbLine
 10
0.0
 20
0.0
 11
-2.0
 21
2.60311198234598
  0
ENDBLK
  5
153
100
AcDbEntity
  8
2
100
AcDbBlockEnd
  0
BLOCK
  5
1B7
100
AcDbEntity
  8
2
100
AcDbBlockBegin
  2
SUB6
 70
    64
 10
0.0
 20
0.0
  0
LINE
  5
1B8
100
AcDbEntity
  8
2
  6
CONTINUOUS
 62
     0
100
AcDbLine
 10
0.0
 20
-5.0
 11
0.0
 21
5.0
  0
LINE
  5
1B9
100
AcDbEntity
  8
2
  6
CONTINUOUS
 62
     0
100
AcDbLine
 10
-1.5
 20
-5.0
 11
-1.5
 21
5.0
  0
LINE
  5
1BA
100
AcDbEntity
  8
2
  6
CONTINUOUS
 62
     0
100
AcDbLine
 10
-7.09999999999991
 20
5.0
 11
0.0
 21
5.0
  0
LINE
  5
1BB
100
AcDbEntity
  8
2
  6
CONTINUOUS
 62
     0
100
AcDbLine
 10
-7.09999999999991
 20
-5.0
 11
0.0
 21
-5.0
  0
LINE
  5
1BC
100
AcDbEntity
  8
2
  6
CONTINUOUS
 62
     0
100
AcDbLine
 10
-7.5
 20
-4.30717967697194
 11
-7.5
 21
4.30717967697302
  0
LINE
  5
1BD
100
AcDbEntity
  8
2
  6
CONTINUOUS
 62
     0
100
AcDbLine
 10
-7.09999999999991
 20
-5.0
 11
-7.09999999999991
 21
5.0
  0
LINE
  5
1BE
100
AcDbEntity
  8
2
  6
CONTINUOUS
 62
     0
100
AcDbLine
 10
-7.09999999999991
 20
-5.0
 11
-7.5
 21
-4.30717967697194
  0
LINE
  5
1BF
100
AcDbEntity
  8
2
  6
CONTINUOUS
 62
     0
100
AcDbLine
 10
-7.09999999999991
 20
5.0
 11
-7.5
 21
4.30717967697302
  0
LINE
  5
1C0
100
AcDbEntity
  8
2
  6
CONTINUOUS
 62
     0
100
AcDbLine
 10
-1.5
 20
0.0
 11
0.0
 21
-2.08447098731995
  0
LINE
  5
1C1
100
AcDbEntity
  8
2
  6
CONTINUOUS
 62
     0
100
AcDbLine
 10
0.0
 20
0.0
 11
-1.5
 21
2.06036782264704
  0
ENDBLK
  5
1C2
100
AcDbEntity
  8
2
100
AcDbBlockEnd
  0
BLOCK
  5
1CA
100
AcDbEntity
  8
2
100
AcDbBlockBegin
  2
SUB7
 70
    64
 10
0.0
 20
0.0
  0
LINE
  5
1CB
100
AcDbEntity
  8
2
  6
CONTINUOUS
 62
     0
100
AcDbLine
 10
0.0
 20
-5.0
 11
0.0
 21
5.0
  0
LINE
  5
1CC
100
AcDbEntity
  8
2
  6
CONTINUOUS
 62
     0
100
AcDbLine
 10
-1.5
 20
-5.0
 11
-1.5
 21
5.0
  0
LINE
  5
1CD
100
AcDbEntity
  8
2
  6
CONTINUOUS
 62
     0
100
AcDbLine
 10
-7.09999999999991
 20
5.0
 11
0.0
 21
5.0
  0
LINE
  5
1CE
100
AcDbEntity
  8
2
  6
CONTINUOUS
 62
     0
100
AcDbLine
 10
-7.09999999999991
 20
-5.0
 11
0.0
 21
-5.0
  0
LINE
  5
1CF
100
AcDbEntity
  8
2
  6
CONTINUOUS
 62
     0
100
AcDbLine
 10
-7.5
 20
-4.30717967697194
 11
-7.5
 21
4.30717967697302
  0
LINE
  5
1D0
100
AcDbEntity
  8
2
  6
CONTINUOUS
 62
     0
100
AcDbLine
 10
-7.09999999999991
 20
-5.0
 11
-7.09999999999991
 21
5.0
  0
LINE
  5
1D1
100
AcDbEntity
  8
2
  6
CONTINUOUS
 62
     0
100
AcDbLine
 10
-7.09999999999991
 20
-5.0
 11
-7.5
 21
-4.30717967697194
  0
LINE
  5
1D2
100
AcDbEntity
  8
2
  6
CONTINUOUS
 62
     0
100
AcDbLine
 10
-7.09999999999991
 20
5.0
 11
-7.5
 21
4.30717967697302
  0
LINE
  5
1D3
100
AcDbEntity
  8
2
  6
CONTINUOUS
 62
     0
100
AcDbLine
 10
-1.5
 20
0.0
 11
0.0
 21
-2.08447098731995
  0
LINE
  5
1D4
100
AcDbEntity
  8
2
  6
CONTINUOUS
 62
     0
100
AcDbLine
 10
0.0
 20
0.0
 11
-1.5
 21
2.06036782264704
  0
ENDBLK
  5
1D5
100
AcDbEntity
  8
2
100
AcDbBlockEnd
  0
BLOCK
  5
1DE
100
AcDbEntity
  8
9
100
AcDbBlockBegin
  2
SUB8
 70
    64
 10
0.0
 20
0.0
  0
LINE
  5
1DF
100
AcDbEntity
  8
2
  6
CONTINUOUS
 62
     0
100
AcDbLine
 10
0.0
 20
-6.5
 11
0.0
 21
6.5
  0
LINE
  5
1E0
100
AcDbEntity
  8
2
  6
CONTINUOUS
 62
     0
100
AcDbLine
 10
2.0
 20
-6.5
 11
2.0
 21
6.5
  0
LINE
  5
1E1
100
AcDbEntity
  8
2
  6
CONTINUOUS
 62
     0
100
AcDbLine
 10
9.5
 20
6.5
 11
0.0
 21
6.5
  0
LINE
  5
1E2
100
AcDbEntity
  8
2
  6
CONTINUOUS
 62
     0
100
AcDbLine
 10
9.5
 20
-6.5
 11
0.0
 21
-6.5
  0
LINE
  5
1E3
100
AcDbEntity
  8
2
  6
CONTINUOUS
 62
     0
100
AcDbLine
 10
10.0
 20
-5.63397459621558
 11
10.0
 21
5.63397459621558
  0
LINE
  5
1E4
100
AcDbEntity
  8
2
  6
CONTINUOUS
 62
     0
100
AcDbLine
 10
9.5
 20
-6.5
 11
9.5
 21
6.5
  0
LINE
  5
1E5
100
AcDbEntity
  8
2
  6
CONTINUOUS
 62
     0
100
AcDbLine
 10
9.5
 20
-6.5
 11
10.0
 21
-5.63397459621558
  0
LINE
  5
1E6
100
AcDbEntity
  8
2
  6
CONTINUOUS
 62
     0
100
AcDbLine
 10
9.5
 20
6.5
 11
10.0
 21
5.63397459621558
  0
LINE
  5
1E7
100
AcDbEntity
  8
2
  6
CONTINUOUS
 62
     0
100
AcDbLine
 10
2.0
 20
0.0
 11
0.0
 21
-2.68624043464661
  0
LINE
  5
1E8
100
AcDbEntity
  8
2
  6
CONTINUOUS
 62
     0
100
AcDbLine
 10
0.0
 20
0.0
 11
2.0
 21
2.60311198234558
  0
ENDBLK
  5
1E9
100
AcDbEntity
  8
2
100
AcDbBlockEnd
  0
BLOCK
  5
1F0
100
AcDbEntity
  8
9
100
AcDbBlockBegin
  2
SUB9
 70
    64
 10
0.0
 20
0.0
  0
LINE
  5
1F1
100
AcDbEntity
  8
2
  6
CONTINUOUS
 62
     0
100
AcDbLine
 10
0.0
 20
-6.5
 11
0.0
 21
6.5
  0
LINE
  5
1F2
100
AcDbEntity
  8
2
  6
CONTINUOUS
 62
     0
100
AcDbLine
 10
2.0
 20
-6.5
 11
2.0
 21
6.5
  0
LINE
  5
1F3
100
AcDbEntity
  8
2
  6
CONTINUOUS
 62
     0
100
AcDbLine
 10
9.5
 20
6.5
 11
0.0
 21
6.5
  0
LINE
  5
1F4
100
AcDbEntity
  8
2
  6
CONTINUOUS
 62
     0
100
AcDbLine
 10
9.5
 20
-6.5
 11
0.0
 21
-6.5
  0
LINE
  5
1F5
100
AcDbEntity
  8
2
  6
CONTINUOUS
 62
     0
100
AcDbLine
 10
10.0
 20
-5.63397459621552
 11
10.0
 21
5.63397459621558
  0
LINE
  5
1F6
100
AcDbEntity
  8
2
  6
CONTINUOUS
 62
     0
100
AcDbLine
 10
9.5
 20
-6.5
 11
9.5
 21
6.5
  0
LINE
  5
1F7
100
AcDbEntity
  8
2
  6
CONTINUOUS
 62
     0
100
AcDbLine
 10
9.5
 20
-6.5
 11
10.0
 21
-5.63397459621552
  0
LINE
  5
1F8
100
AcDbEntity
  8
2
  6
CONTINUOUS
 62
     0
100
AcDbLine
 10
9.5
 20
6.5
 11
10.0
 21
5.63397459621558
  0
LINE
  5
1F9
100
AcDbEntity
  8
2
  6
CONTINUOUS
 62
     0
100
AcDbLine
 10
2.0
 20
0.0
 11
0.0
 21
-2.68624043464661
  0
LINE
  5
1FA
100
AcDbEntity
  8
2
  6
CONTINUOUS
 62
     0
100
AcDbLine
 10
0.0
 20
0.0
 11
2.0
 21
2.60311198234558
  0
ENDBLK
  5
1FB
100
AcDbEntity
  8
2
100
AcDbBlockEnd
  0
BLOCK
  5
21F
100
AcDbEntity
  8
2
100
AcDbBlockBegin
  2
SUB10
 70
    64
 10
0.0
 20
0.0
  0
LINE
  5
220
100
AcDbEntity
  8
2
  6
CONTINUOUS
 62
     0
100
AcDbLine
 10
0.0
 20
-6.5
 11
0.0
 21
6.5
  0
LINE
  5
221
100
AcDbEntity
  8
2
  6
CONTINUOUS
 62
     0
100
AcDbLine
 10
-2.0
 20
-6.5
 11
-2.0
 21
6.5
  0
LINE
  5
222
100
AcDbEntity
  8
2
  6
CONTINUOUS
 62
     0
100
AcDbLine
 10
-9.5
 20
6.5
 11
0.0
 21
6.5
  0
LINE
  5
223
100
AcDbEntity
  8
2
  6
CONTINUOUS
 62
     0
100
AcDbLine
 10
-9.5
 20
-6.5
 11
0.0
 21
-6.5
  0
LINE
  5
224
100
AcDbEntity
  8
2
  6
CONTINUOUS
 62
     0
100
AcDbLine
 10
-10.0
 20
-5.63397459621604
 11
-10.0
 21
5.63397459621604
  0
LINE
  5
225
100
AcDbEntity
  8
2
  6
CONTINUOUS
 62
     0
100
AcDbLine
 10
-9.5
 20
-6.5
 11
-9.5
 21
6.5
  0
LINE
  5
226
100
AcDbEntity
  8
2
  6
CONTINUOUS
 62
     0
100
AcDbLine
 10
-9.5
 20
-6.5
 11
-10.0
 21
-5.63397459621604
  0
LINE
  5
227
100
AcDbEntity
  8
2
  6
CONTINUOUS
 62
     0
100
AcDbLine
 10
-9.5
 20
6.5
 11
-10.0
 21
5.63397459621604
  0
LINE
  5
228
100
AcDbEntity
  8
2
  6
CONTINUOUS
 62
     0
100
AcDbLine
 10
-2.0
 20
0.0
 11
0.0
 21
-2.686240434647
  0
LINE
  5
229
100
AcDbEntity
  8
2
  6
CONTINUOUS
 62
     0
100
AcDbLine
 10
0.0
 20
0.0
 11
-2.0
 21
2.60311198234598
  0
ENDBLK
  5
22A
100
AcDbEntity
  8
2
100
AcDbBlockEnd
  0
BLOCK
  5
22D
100
AcDbEntity
  8
2
100
AcDbBlockBegin
  2
SUB11
 70
    64
 10
0.0
 20
0.0
  0
LINE
  5
22E
100
AcDbEntity
  8
2
  6
CONTINUOUS
 62
     0
100
AcDbLine
 10
0.0
 20
-6.5
 11
0.0
 21
6.5
  0
LINE
  5
22F
100
AcDbEntity
  8
2
  6
CONTINUOUS
 62
     0
100
AcDbLine
 10
-2.0
 20
-6.5
 11
-2.0
 21
6.5
  0
LINE
  5
230
100
AcDbEntity
  8
2
  6
CONTINUOUS
 62
     0
100
AcDbLine
 10
-9.5
 20
6.5
 11
0.0
 21
6.5
  0
LINE
  5
231
100
AcDbEntity
  8
2
  6
CONTINUOUS
 62
     0
100
AcDbLine
 10
-9.5
 20
-6.5
 11
0.0
 21
-6.5
  0
LINE
  5
232
100
AcDbEntity
  8
2
  6
CONTINUOUS
 62
     0
100
AcDbLine
 10
-10.0
 20
-5.63397459621604
 11
-10.0
 21
5.63397459621604
  0
LINE
  5
233
100
AcDbEntity
  8
2
  6
CONTINUOUS
 62
     0
100
AcDbLine
 10
-9.5
 20
-6.5
 11
-9.5
 21
6.5
  0
LINE
  5
234
100
AcDbEntity
  8
2
  6
CONTINUOUS
 62
     0
100
AcDbLine
 10
-9.5
 20
-6.5
 11
-10.0
 21
-5.63397459621604
  0
LINE
  5
235
100
AcDbEntity
  8
2
  6
CONTINUOUS
 62
     0
100
AcDbLine
 10
-9.5
 20
6.5
 11
-10.0
 21
5.63397459621604
  0
LINE
  5
236
100
AcDbEntity
  8
2
  6
CONTINUOUS
 62
     0
100
AcDbLine
 10
-2.0
 20
0.0
 11
0.0
 21
-2.686240434647
  0
LINE
  5
237
100
AcDbEntity
  8
2
  6
CONTINUOUS
 62
     0
100
AcDbLine
 10
0.0
 20
0.0
 11
-2.0
 21
2.60311198234598
  0
ENDBLK
  5
238
100
AcDbEntity
  8
2
100
AcDbBlockEnd
  0
BLOCK
  5
24E
100
AcDbEntity
  8
2
100
AcDbBlockBegin
  2
SUB12
 70
    64
 10
0.0
 20
0.0
  0
LINE
  5
24F
100
AcDbEntity
  8
2
  6
CONTINUOUS
 62
     0
100
AcDbLine
 10
-2.75
 20
0.700000000000045
 11
2.75
 21
0.700000000000045
  0
LINE
  5
250
100
AcDbEntity
  8
2
  6
CONTINUOUS
 62
     0
100
AcDbLine
 10
2.75
 20
3.5
 11
2.75
 21
0.700000000000045
  0
LINE
  5
251
100
AcDbEntity
  8
2
  6
CONTINUOUS
 62
     0
100
AcDbLine
 10
-2.75
 20
3.5
 11
-2.75
 21
0.700000000000045
  0
LINE
  5
252
100
AcDbEntity
  8
2
  6
CONTINUOUS
 62
     0
100
AcDbLine
 10
-2.40358983848625
 20
3.70000000000005
 11
2.4035898384862
 21
3.70000000000005
  0
LINE
  5
253
100
AcDbEntity
  8
2
  6
CONTINUOUS
 62
     0
100
AcDbLine
 10
-2.75
 20
3.5
 11
2.75
 21
3.5
  0
LINE
  5
254
100
AcDbEntity
  8
2
  6
CONTINUOUS
 62
     0
100
AcDbLine
 10
2.75
 20
3.5
 11
2.4035898384862
 21
3.70000000000005
  0
LINE
  5
255
100
AcDbEntity
  8
2
  6
CONTINUOUS
 62
     0
100
AcDbLine
 10
-2.75
 20
3.5
 11
-2.40358983848625
 21
3.70000000000005
  0
ENDBLK
  5
256
100
AcDbEntity
  8
2
100
AcDbBlockEnd
  0
BLOCK
  5
259
100
AcDbEntity
  8
2
100
AcDbBlockBegin
  2
SUB13
 70
    64
 10
0.0
 20
0.0
  0
LINE
  5
25A
100
AcDbEntity
  8
2
  6
CONTINUOUS
 62
     0
100
AcDbLine
 10
-2.75
 20
0.700000000000045
 11
2.75
 21
0.700000000000045
  0
LINE
  5
25B
100
AcDbEntity
  8
2
  6
CONTINUOUS
 62
     0
100
AcDbLine
 10
2.75
 20
3.5
 11
2.75
 21
0.700000000000045
  0
LINE
  5
25C
100
AcDbEntity
  8
2
  6
CONTINUOUS
 62
     0
100
AcDbLine
 10
-2.75
 20
3.5
 11
-2.75
 21
0.700000000000045
  0
LINE
  5
25D
100
AcDbEntity
  8
2
  6
CONTINUOUS
 62
     0
100
AcDbLine
 10
-2.40358983848625
 20
3.70000000000005
 11
2.4035898384862
 21
3.70000000000005
  0
LINE
  5
25E
100
AcDbEntity
  8
2
  6
CONTINUOUS
 62
     0
100
AcDbLine
 10
-2.75
 20
3.5
 11
2.75
 21
3.5
  0
LINE
  5
25F
100
AcDbEntity
  8
2
  6
CONTINUOUS
 62
     0
100
AcDbLine
 10
2.75
 20
3.5
 11
2.4035898384862
 21
3.70000000000005
  0
LINE
  5
260
100
AcDbEntity
  8
2
  6
CONTINUOUS
 62
     0
100
AcDbLine
 10
-2.75
 20
3.5
 11
-2.40358983848625
 21
3.70000000000005
  0
ENDBLK
  5
261
100
AcDbEntity
  8
2
100
AcDbBlockEnd
  0
BLOCK
  5
271
100
AcDbEntity
  8
2
100
AcDbBlockBegin
  2
SUB14
 70
    64
 10
0.0
 20
0.0
  0
CIRCLE
  5
272
100
AcDbEntity
  8
2
  6
CONTINUOUS
 62
     0
100
AcDbCircle
 10
0.0
 20
0.0
 40
5.0
  0
CIRCLE
  5
273
100
AcDbEntity
  8
2
  6
CONTINUOUS
 62
     0
100
AcDbCircle
 10
0.0
 20
0.0
 40
4.42
  0
LWPOLYLINE
  5
274
100
AcDbEntity
  8
2
  6
CONTINUOUS
 62
     0
100
AcDbPolyline
 90
        6
 70
     1
 43
0.0
 10
2.87971936475697
 20
0.201369594469952
 10
1.26546849801798
 20
2.59459492288511
 10
-1.61425086673898
 20
2.39322532841504
 10
-2.87971936475697
 20
-0.201369594469043
 10
-1.26546849801798
 20
-2.59459492288397
 10
1.61425086673796
 20
-2.39322532841402
  0
ENDBLK
  5
275
100
AcDbEntity
  8
2
100
AcDbBlockEnd
  0
BLOCK
  5
27B
100
AcDbEntity
  8
2
100
AcDbBlockBegin
  2
SUB15
 70
    64
 10
0.0
 20
0.0
  0
CIRCLE
  5
27C
100
AcDbEntity
  8
2
  6
CONTINUOUS
 62
     0
100
AcDbCircle
 10
0.0
 20
0.0
 40
5.0
  0
CIRCLE
  5
27D
100
AcDbEntity
  8
2
  6
CONTINUOUS
 62
     0
100
AcDbCircle
 10
0.0
 20
0.0
 40
4.42
  0
LWPOLYLINE
  5
27E
100
AcDbEntity
  8
2
  6
CONTINUOUS
 62
     0
100
AcDbPolyline
 90
        6
 70
     1
 43
0.0
 10
-1.61425086673898
 20
2.39322532841402
 10
-2.87971936475697
 20
-0.201369594469952
 10
-1.26546849801798
 20
-2.59459492288488
 10
1.61425086673898
 20
-2.39322532841493
 10
2.87971936475708
 20
0.201369594469043
 10
1.26546849801798
 20
2.59459492288397
  0
ENDBLK
  5
27F
100
AcDbEntity
  8
2
100
AcDbBlockEnd
  0
BLOCK
  5
283
100
AcDbEntity
  8
2
100
AcDbBlockBegin
  2
SUB16
 70
    64
 10
0.0
 20
0.0
  0
CIRCLE
  5
284
100
AcDbEntity
  8
2
  6
CONTINUOUS
 62
     0
100
AcDbCircle
 10
0.0
 20
0.0
 40
5.0
  0
CIRCLE
  5
285
100
AcDbEntity
  8
2
  6
CONTINUOUS
 62
     0
100
AcDbCircle
 10
0.0
 20
0.0
 40
4.42
  0
LWPOLYLINE
  5
286
100
AcDbEntity
  8
2
  6
CONTINUOUS
 62
     0
100
AcDbPolyline
 90
        6
 70
     1
 43
0.0
 10
-1.26546849801798
 20
-2.59459492288397
 10
1.61425086673898
 20
-2.39322532841493
 10
2.87971936475708
 20
0.201369594469043
 10
1.26546849801798
 20
2.59459492288397
 10
-1.61425086673898
 20
2.39322532841516
 10
-2.87971936475697
 20
-0.201369594469043
  0
ENDBLK
  5
287
100
AcDbEntity
  8
2
100
AcDbBlockEnd
  0
BLOCK
  5
384
100
AcDbEntity
  8
2
100
AcDbBlockBegin
  2
SUB17
 70
    64
 10
0.0
 20
0.0
  0
LINE
  5
385
100
AcDbEntity
  8
2
  6
CONTINUOUS
 62
     0
100
AcDbLine
 10
2.75
 20
0.0
 11
-2.75
 21
0.0
  0
LINE
  5
386
100
AcDbEntity
  8
2
  6
CONTINUOUS
 62
     0
100
AcDbLine
 10
2.75
 20
-0.700000000000045
 11
-2.75
 21
-0.700000000000045
  0
LINE
  5
387
100
AcDbEntity
  8
2
  6
CONTINUOUS
 62
     0
100
AcDbLine
 10
-2.75
 20
-3.5
 11
-2.75
 21
0.0
  0
LINE
  5
388
100
AcDbEntity
  8
2
  6
CONTINUOUS
 62
     0
100
AcDbLine
 10
2.75
 20
-3.5
 11
2.75
 21
0.0
  0
LINE
  5
389
100
AcDbEntity
  8
2
  6
CONTINUOUS
 62
     0
100
AcDbLine
 10
2.40358983848614
 20
-3.70000000000005
 11
-2.40358983848637
 21
-3.70000000000005
  0
LINE
  5
38A
100
AcDbEntity
  8
2
  6
CONTINUOUS
 62
     0
100
AcDbLine
 10
2.75
 20
-3.5
 11
-2.75
 21
-3.5
  0
LINE
  5
38B
100
AcDbEntity
  8
2
  6
CONTINUOUS
 62
     0
100
AcDbLine
 10
-2.75
 20
-3.5
 11
-2.40358983848637
 21
-3.70000000000005
  0
LINE
  5
38C
100
AcDbEntity
  8
2
  6
CONTINUOUS
 62
     0
100
AcDbLine
 10
2.75
 20
-3.5
 11
2.40358983848614
 21
-3.70000000000005
  0
LINE
  5
38D
100
AcDbEntity
  8
2
  6
CONTINUOUS
 62
     0
100
AcDbLine
 10
0.0
 20
-0.700000000000045
 11
0.885575294494629
 21
0.0
  0
LINE
  5
38E
100
AcDbEntity
  8
2
  6
CONTINUOUS
 62
     0
100
AcDbLine
 10
0.0
 20
0.0
 11
-0.883089601993561
 21
-0.700000000000045
  0
ENDBLK
  5
38F
100
AcDbEntity
  8
2
100
AcDbBlockEnd
  0
BLOCK
  5
392
100
AcDbEntity
  8
2
100
AcDbBlockBegin
  2
SUB18
 70
    64
 10
0.0
 20
0.0
  0
LINE
  5
393
100
AcDbEntity
  8
2
  6
CONTINUOUS
 62
     0
100
AcDbLine
 10
-1.375
 20
2.38156986040724
 11
1.375
 21
-2.38156986040724
  0
LINE
  5
394
100
AcDbEntity
  8
2
  6
CONTINUOUS
 62
     0
100
AcDbLine
 10
-0.76878221735069
 20
2.73156986040715
 11
1.98121778264931
 21
-2.03156986040722
  0
LINE
  5
395
100
AcDbEntity
  8
2
  6
CONTINUOUS
 62
     0
100
AcDbLine
 10
4.40608891324564
 20
-0.63156986040724
 11
1.375
 21
-2.38156986040724
  0
LINE
  5
396
100
AcDbEntity
  8
2
  6
CONTINUOUS
 62
     0
100
AcDbLine
 10
1.65608891324564
 20
4.13156986040724
 11
-1.375
 21
2.38156986040724
  0
LINE
  5
397
100
AcDbEntity
  8
2
  6
CONTINUOUS
 62
     0
100
AcDbLine
 10
2.00249907475927
 20
3.93156986040719
 11
4.40608891324564
 21
-0.231569860407262
  0
LINE
  5
398
100
AcDbEntity
  8
2
  6
CONTINUOUS
 62
     0
100
AcDbLine
 10
1.65608891324564
 20
4.13156986040724
 11
4.40608891324564
 21
-0.63156986040724
  0
LINE
  5
399
100
AcDbEntity
  8
2
  6
CONTINUOUS
 62
     0
100
AcDbLine
 10
4.40608891324564
 20
-0.63156986040724
 11
4.40608891324564
 21
-0.231569860407262
  0
LINE
  5
39A
100
AcDbEntity
  8
2
  6
CONTINUOUS
 62
     0
100
AcDbLine
 10
1.65608891324564
 20
4.13156986040724
 11
2.00249907475927
 21
3.93156986040719
  0
LINE
  5
39B
100
AcDbEntity
  8
2
  6
CONTINUOUS
 62
     0
100
AcDbLine
 10
0.60621778264931
 20
0.350000000000023
 11
-0.442787647247314
 21
0.766930701996216
  0
LINE
  5
39C
100
AcDbEntity
  8
2
  6
CONTINUOUS
 62
     0
100
AcDbLine
 10
0.0
 20
0.0
 11
1.04776258364609
 21
-0.414778029144372
  0
ENDBLK
  5
39D
100
AcDbEntity
  8
2
100
AcDbBlockEnd
  0
BLOCK
  5
3A1
100
AcDbEntity
  8
2
100
AcDbBlockBegin
  2
SUB19
 70
    64
 10
0.0
 20
0.0
  0
LINE
  5
3A2
100
AcDbEntity
  8
2
  6
CONTINUOUS
 62
     0
100
AcDbLine
 10
-1.375
 20
-2.38156986040724
 11
1.375
 21
2.38156986040724
  0
LINE
  5
3A3
100
AcDbEntity
  8
2
  6
CONTINUOUS
 62
     0
100
AcDbLine
 10
-1.98121778264886
 20
-2.03156986040722
 11
0.768782217351145
 21
2.73156986040726
  0
LINE
  5
3A4
100
AcDbEntity
  8
2
  6
CONTINUOUS
 62
     0
100
AcDbLine
 10
-1.65608891324541
 20
4.13156986040724
 11
1.375
 21
2.38156986040724
  0
LINE
  5
3A5
100
AcDbEntity
  8
2
  6
CONTINUOUS
 62
     0
100
AcDbLine
 10
-4.40608891324541
 20
-0.63156986040724
 11
-1.375
 21
-2.38156986040724
  0
LINE
  5
3A6
100
AcDbEntity
  8
2
  6
CONTINUOUS
 62
     0
100
AcDbLine
 10
-4.40608891324541
 20
-0.231569860407262
 11
-2.00249907475927
 21
3.93156986040731
  0
LINE
  5
3A7
100
AcDbEntity
  8
2
  6
CONTINUOUS
 62
     0
100
AcDbLine
 10
-4.40608891324541
 20
-0.63156986040724
 11
-1.65608891324541
 21
4.13156986040724
  0
LINE
  5
3A8
100
AcDbEntity
  8
2
  6
CONTINUOUS
 62
     0
100
AcDbLine
 10
-1.65608891324541
 20
4.13156986040724
 11
-2.00249907475927
 21
3.93156986040731
  0
LINE
  5
3A9
100
AcDbEntity
  8
2
  6
CONTINUOUS
 62
     0
100
AcDbLine
 10
-4.40608891324541
 20
-0.63156986040724
 11
-4.40608891324541
 21
-0.231569860407262
  0
LINE
  5
3AA
100
AcDbEntity
  8
2
  6
CONTINUOUS
 62
     0
100
AcDbLine
 10
-0.606217782648855
 20
0.350000000000023
 11
-0.442787647247314
 21
-0.766930701996216
  0
LINE
  5
3AB
100
AcDbEntity
  8
2
  6
CONTINUOUS
 62
     0
100
AcDbLine
 10
0.0
 20
0.0
 11
-0.164672981652075
 21
1.1147780291443
  0
ENDBLK
  5
3AC
100
AcDbEntity
  8
2
100
AcDbBlockEnd
  0
BLOCK
  5
3FD
100
AcDbEntity
  8
2
100
AcDbBlockBegin
  2
SUB20
 70
    64
 10
0.0
 20
0.0
  0
CIRCLE
  5
3FE
100
AcDbEntity
  8
2
  6
CONTINUOUS
 62
     0
100
AcDbCircle
 10
0.0
 20
0.0
 40
2.75
  0
CIRCLE
  5
3FF
100
AcDbEntity
  8
2
  6
CONTINUOUS
 62
     0
100
AcDbCircle
 10
0.0
 20
0.0
 40
2.41
  0
LWPOLYLINE
  5
400
100
AcDbEntity
  8
2
  6
CONTINUOUS
 62
     0
100
AcDbPolyline
 90
        6
 70
     1
 43
0.0
 10
1.44337567297407
 20
0.0
 10
0.721687836487035
 20
1.25
 10
-0.721687836487035
 20
1.25
 10
-1.44337567297407
 20
0.0
 10
-0.721687836487035
 20
-1.25
 10
0.721687836487035
 20
-1.25
  0
ENDBLK
  5
401
100
AcDbEntity
  8
2
100
AcDbBlockEnd
  0
BLOCK
  5
404
100
AcDbEntity
  8
2
100
AcDbBlockBegin
  2
SUB21
 70
    64
 10
0.0
 20
0.0
  0
CIRCLE
  5
405
100
AcDbEntity
  8
2
  6
CONTINUOUS
 62
     0
100
AcDbCircle
 10
0.0
 20
0.0
 40
2.75
  0
CIRCLE
  5
406
100
AcDbEntity
  8
2
  6
CONTINUOUS
 62
     0
100
AcDbCircle
 10
0.0
 20
0.0
 40
2.41
  0
LWPOLYLINE
  5
407
100
AcDbEntity
  8
2
  6
CONTINUOUS
 62
     0
100
AcDbPolyline
 90
        6
 70
     1
 43
0.0
 10
1.44337567297407
 20
0.0
 10
0.721687836487035
 20
1.25
 10
-0.721687836487035
 20
1.25
 10
-1.44337567297407
 20
0.0
 10
-0.721687836487035
 20
-1.25
 10
0.721687836487035
 20
-1.25
  0
ENDBLK
  5
408
100
AcDbEntity
  8
2
100
AcDbBlockEnd
  0
BLOCK
  5
417
100
AcDbEntity
  8
2
100
AcDbBlockBegin
  2
SUB22
 70
    64
 10
0.0
 20
0.0
  0
CIRCLE
  5
418
100
AcDbEntity
  8
2
  6
CONTINUOUS
 62
     0
100
AcDbCircle
 10
0.0
 20
0.0
 40
2.75
  0
CIRCLE
  5
419
100
AcDbEntity
  8
2
  6
CONTINUOUS
 62
     0
100
AcDbCircle
 10
0.0
 20
0.0
 40
2.41
  0
LWPOLYLINE
  5
41A
100
AcDbEntity
  8
2
  6
CONTINUOUS
 62
     0
100
AcDbPolyline
 90
        6
 70
     1
 43
0.0
 10
1.44337567297407
 20
0.0
 10
0.721687836487035
 20
1.25
 10
-0.721687836487035
 20
1.25
 10
-1.44337567297407
 20
0.0
 10
-0.721687836487035
 20
-1.25
 10
0.721687836487035
 20
-1.25
  0
ENDBLK
  5
41B
100
AcDbEntity
  8
2
100
AcDbBlockEnd
  0
BLOCK
  5
41E
100
AcDbEntity
  8
2
100
AcDbBlockBegin
  2
SUB23
 70
    64
 10
0.0
 20
0.0
  0
CIRCLE
  5
41F
100
AcDbEntity
  8
2
  6
CONTINUOUS
 62
     0
100
AcDbCircle
 10
0.0
 20
0.0
 40
2.75
  0
CIRCLE
  5
420
100
AcDbEntity
  8
2
  6
CONTINUOUS
 62
     0
100
AcDbCircle
 10
0.0
 20
0.0
 40
2.41
  0
LWPOLYLINE
  5
421
100
AcDbEntity
  8
2
  6
CONTINUOUS
 62
     0
100
AcDbPolyline
 90
        6
 70
     1
 43
0.0
 10
1.44337567297407
 20
0.0
 10
0.721687836487035
 20
1.25
 10
-0.721687836487035
 20
1.25
 10
-1.44337567297407
 20
0.0
 10
-0.721687836487035
 20
-1.25
 10
0.721687836487035
 20
-1.25
  0
ENDBLK
  5
422
100
AcDbEntity
  8
2
100
AcDbBlockEnd
  0
BLOCK
  5
4C0
100
AcDbEntity
  8
2
100
AcDbBlockBegin
  2
SUB24
 70
    64
 10
0.0
 20
0.0
  0
LINE
  5
4C1
100
AcDbEntity
  8
2
  6
CONTINUOUS
 62
     0
100
AcDbLine
 10
0.0
 20
-5.0
 11
0.0
 21
5.0
  0
LINE
  5
4C2
100
AcDbEntity
  8
2
  6
CONTINUOUS
 62
     0
100
AcDbLine
 10
-1.5
 20
-5.0
 11
-1.5
 21
5.0
  0
LINE
  5
4C3
100
AcDbEntity
  8
2
  6
CONTINUOUS
 62
     0
100
AcDbLine
 10
-7.10000000000014
 20
5.0
 11
0.0
 21
5.0
  0
LINE
  5
4C4
100
AcDbEntity
  8
2
  6
CONTINUOUS
 62
     0
100
AcDbLine
 10
-7.10000000000014
 20
-5.0
 11
0.0
 21
-5.0
  0
LINE
  5
4C5
100
AcDbEntity
  8
2
  6
CONTINUOUS
 62
     0
100
AcDbLine
 10
-7.5
 20
-4.30717967697251
 11
-7.5
 21
4.30717967697251
  0
LINE
  5
4C6
100
AcDbEntity
  8
2
  6
CONTINUOUS
 62
     0
100
AcDbLine
 10
-7.10000000000014
 20
-5.0
 11
-7.10000000000014
 21
5.0
  0
LINE
  5
4C7
100
AcDbEntity
  8
2
  6
CONTINUOUS
 62
     0
100
AcDbLine
 10
-7.10000000000014
 20
-5.0
 11
-7.5
 21
-4.30717967697251
  0
LINE
  5
4C8
100
AcDbEntity
  8
2
  6
CONTINUOUS
 62
     0
100
AcDbLine
 10
-7.10000000000014
 20
5.0
 11
-7.5
 21
4.30717967697251
  0
LINE
  5
4C9
100
AcDbEntity
  8
2
  6
CONTINUOUS
 62
     0
100
AcDbLine
 10
-1.5
 20
0.0
 11
0.0
 21
-2.08447098731995
  0
LINE
  5
4CA
100
AcDbEntity
  8
2
  6
CONTINUOUS
 62
     0
100
AcDbLine
 10
0.0
 20
0.0
 11
-1.5
 21
2.06036782264709
  0
ENDBLK
  5
4CB
100
AcDbEntity
  8
2
100
AcDbBlockEnd
  0
BLOCK
  5
4CE
100
AcDbEntity
  8
2
100
AcDbBlockBegin
  2
SUB25
 70
    64
 10
0.0
 20
0.0
  0
LINE
  5
4CF
100
AcDbEntity
  8
2
  6
CONTINUOUS
 62
     0
100
AcDbLine
 10
0.0
 20
-5.0
 11
0.0
 21
5.0
  0
LINE
  5
4D0
100
AcDbEntity
  8
2
  6
CONTINUOUS
 62
     0
100
AcDbLine
 10
-1.5
 20
-5.0
 11
-1.5
 21
5.0
  0
LINE
  5
4D1
100
AcDbEntity
  8
2
  6
CONTINUOUS
 62
     0
100
AcDbLine
 10
-7.09999999999991
 20
5.0
 11
0.0
 21
5.0
  0
LINE
  5
4D2
100
AcDbEntity
  8
2
  6
CONTINUOUS
 62
     0
100
AcDbLine
 10
-7.09999999999991
 20
-5.0
 11
0.0
 21
-5.0
  0
LINE
  5
4D3
100
AcDbEntity
  8
2
  6
CONTINUOUS
 62
     0
100
AcDbLine
 10
-7.5
 20
-4.30717967697251
 11
-7.5
 21
4.30717967697251
  0
LINE
  5
4D4
100
AcDbEntity
  8
2
  6
CONTINUOUS
 62
     0
100
AcDbLine
 10
-7.09999999999991
 20
-5.0
 11
-7.09999999999991
 21
5.0
  0
LINE
  5
4D5
100
AcDbEntity
  8
2
  6
CONTINUOUS
 62
     0
100
AcDbLine
 10
-7.09999999999991
 20
-5.0
 11
-7.5
 21
-4.30717967697251
  0
LINE
  5
4D6
100
AcDbEntity
  8
2
  6
CONTINUOUS
 62
     0
100
AcDbLine
 10
-7.09999999999991
 20
5.0
 11
-7.5
 21
4.30717967697251
  0
LINE
  5
4D7
100
AcDbEntity
  8
2
  6
CONTINUOUS
 62
     0
100
AcDbLine
 10
-1.5
 20
0.0
 11
0.0
 21
-2.08447098731995
  0
LINE
  5
4D8
100
AcDbEntity
  8
2
  6
CONTINUOUS
 62
     0
100
AcDbLine
 10
0.0
 20
0.0
 11
-1.5
 21
2.06036782264709
  0
ENDBLK
  5
4D9
100
AcDbEntity
  8
2
100
AcDbBlockEnd
  0
BLOCK
  5
4DC
100
AcDbEntity
  8
2
100
AcDbBlockBegin
  2
SUB26
 70
    64
 10
0.0
 20
0.0
  0
LINE
  5
4DD
100
AcDbEntity
  8
2
  6
CONTINUOUS
 62
     0
100
AcDbLine
 10
0.0
 20
-5.0
 11
0.0
 21
5.0
  0
LINE
  5
4DE
100
AcDbEntity
  8
2
  6
CONTINUOUS
 62
     0
100
AcDbLine
 10
1.5
 20
-5.0
 11
1.5
 21
5.0
  0
LINE
  5
4DF
100
AcDbEntity
  8
2
  6
CONTINUOUS
 62
     0
100
AcDbLine
 10
7.09999999999991
 20
5.0
 11
0.0
 21
5.0
  0
LINE
  5
4E0
100
AcDbEntity
  8
2
  6
CONTINUOUS
 62
     0
100
AcDbLine
 10
7.09999999999991
 20
-5.0
 11
0.0
 21
-5.0
  0
LINE
  5
4E1
100
AcDbEntity
  8
2
  6
CONTINUOUS
 62
     0
100
AcDbLine
 10
7.5
 20
-4.30717967697251
 11
7.5
 21
4.30717967697251
  0
LINE
  5
4E2
100
AcDbEntity
  8
2
  6
CONTINUOUS
 62
     0
100
AcDbLine
 10
7.09999999999991
 20
-5.0
 11
7.09999999999991
 21
5.0
  0
LINE
  5
4E3
100
AcDbEntity
  8
2
  6
CONTINUOUS
 62
     0
100
AcDbLine
 10
7.09999999999991
 20
-5.0
 11
7.5
 21
-4.30717967697251
  0
LINE
  5
4E4
100
AcDbEntity
  8
2
  6
CONTINUOUS
 62
     0
100
AcDbLine
 10
7.09999999999991
 20
5.0
 11
7.5
 21
4.30717967697251
  0
LINE
  5
4E5
100
AcDbEntity
  8
2
  6
CONTINUOUS
 62
     0
100
AcDbLine
 10
1.5
 20
0.0
 11
0.0
 21
-2.08447098731995
  0
LINE
  5
4E6
100
AcDbEntity
  8
2
  6
CONTINUOUS
 62
     0
100
AcDbLine
 10
0.0
 20
0.0
 11
1.5
 21
2.06036782264709
  0
ENDBLK
  5
4E7
100
AcDbEntity
  8
2
100
AcDbBlockEnd
  0
BLOCK
  5
4EA
100
AcDbEntity
  8
2
100
AcDbBlockBegin
  2
SUB27
 70
    64
 10
0.0
 20
0.0
  0
LINE
  5
4EB
100
AcDbEntity
  8
2
  6
CONTINUOUS
 62
     0
100
AcDbLine
 10
0.0
 20
-6.5
 11
0.0
 21
6.5
  0
LINE
  5
4EC
100
AcDbEntity
  8
2
  6
CONTINUOUS
 62
     0
100
AcDbLine
 10
-2.0
 20
-6.5
 11
-2.0
 21
6.5
  0
LINE
  5
4ED
100
AcDbEntity
  8
2
  6
CONTINUOUS
 62
     0
100
AcDbLine
 10
-9.5
 20
6.5
 11
0.0
 21
6.5
  0
LINE
  5
4EE
100
AcDbEntity
  8
2
  6
CONTINUOUS
 62
     0
100
AcDbLine
 10
-9.5
 20
-6.5
 11
0.0
 21
-6.5
  0
LINE
  5
4EF
100
AcDbEntity
  8
2
  6
CONTINUOUS
 62
     0
100
AcDbLine
 10
-10.0
 20
-5.63397459621558
 11
-10.0
 21
5.63397459621558
  0
LINE
  5
4F0
100
AcDbEntity
  8
2
  6
CONTINUOUS
 62
     0
100
AcDbLine
 10
-9.5
 20
-6.5
 11
-9.5
 21
6.5
  0
LINE
  5
4F1
100
AcDbEntity
  8
2
  6
CONTINUOUS
 62
     0
100
AcDbLine
 10
-9.5
 20
-6.5
 11
-10.0
 21
-5.63397459621558
  0
LINE
  5
4F2
100
AcDbEntity
  8
2
  6
CONTINUOUS
 62
     0
100
AcDbLine
 10
-9.5
 20
6.5
 11
-10.0
 21
5.63397459621558
  0
LINE
  5
4F3
100
AcDbEntity
  8
2
  6
CONTINUOUS
 62
     0
100
AcDbLine
 10
-2.0
 20
0.0
 11
0.0
 21
-2.68624043464661
  0
LINE
  5
4F4
100
AcDbEntity
  8
2
  6
CONTINUOUS
 62
     0
100
AcDbLine
 10
0.0
 20
0.0
 11
-2.0
 21
2.60311198234558
  0
ENDBLK
  5
4F5
100
AcDbEntity
  8
2
100
AcDbBlockEnd
  0
BLOCK
  5
4F8
100
AcDbEntity
  8
2
100
AcDbBlockBegin
  2
SUB28
 70
    64
 10
0.0
 20
0.0
  0
LINE
  5
4F9
100
AcDbEntity
  8
2
  6
CONTINUOUS
 62
     0
100
AcDbLine
 10
0.0
 20
-6.5
 11
0.0
 21
6.5
  0
LINE
  5
4FA
100
AcDbEntity
  8
2
  6
CONTINUOUS
 62
     0
100
AcDbLine
 10
-2.0
 20
-6.5
 11
-2.0
 21
6.5
  0
LINE
  5
4FB
100
AcDbEntity
  8
2
  6
CONTINUOUS
 62
     0
100
AcDbLine
 10
-9.5
 20
6.5
 11
0.0
 21
6.5
  0
LINE
  5
4FC
100
AcDbEntity
  8
2
  6
CONTINUOUS
 62
     0
100
AcDbLine
 10
-9.5
 20
-6.5
 11
0.0
 21
-6.5
  0
LINE
  5
4FD
100
AcDbEntity
  8
2
  6
CONTINUOUS
 62
     0
100
AcDbLine
 10
-10.0
 20
-5.63397459621558
 11
-10.0
 21
5.63397459621558
  0
LINE
  5
4FE
100
AcDbEntity
  8
2
  6
CONTINUOUS
 62
     0
100
AcDbLine
 10
-9.5
 20
-6.5
 11
-9.5
 21
6.5
  0
LINE
  5
4FF
100
AcDbEntity
  8
2
  6
CONTINUOUS
 62
     0
100
AcDbLine
 10
-9.5
 20
-6.5
 11
-10.0
 21
-5.63397459621558
  0
LINE
  5
500
100
AcDbEntity
  8
2
  6
CONTINUOUS
 62
     0
100
AcDbLine
 10
-9.5
 20
6.5
 11
-10.0
 21
5.63397459621558
  0
LINE
  5
501
100
AcDbEntity
  8
2
  6
CONTINUOUS
 62
     0
100
AcDbLine
 10
-2.0
 20
0.0
 11
0.0
 21
-2.68624043464661
  0
LINE
  5
502
100
AcDbEntity
  8
2
  6
CONTINUOUS
 62
     0
100
AcDbLine
 10
0.0
 20
0.0
 11
-2.0
 21
2.60311198234558
  0
ENDBLK
  5
503
100
AcDbEntity
  8
2
100
AcDbBlockEnd
  0
BLOCK
  5
572
100
AcDbEntity
  8
2
100
AcDbBlockBegin
  2
SUB29
 70
    64
 10
0.0
 20
0.0
  0
CIRCLE
  5
573
100
AcDbEntity
  8
2
  6
CONTINUOUS
 62
     0
100
AcDbCircle
 10
0.0
 20
0.0
 40
2.75
  0
CIRCLE
  5
574
100
AcDbEntity
  8
2
  6
CONTINUOUS
 62
     0
100
AcDbCircle
 10
0.0
 20
0.0
 40
2.41
  0
LWPOLYLINE
  5
575
100
AcDbEntity
  8
2
  6
CONTINUOUS
 62
     0
100
AcDbPolyline
 90
        6
 70
     1
 43
0.0
 10
1.44337567297407
 20
0.0
 10
0.721687836487035
 20
1.25
 10
-0.721687836487035
 20
1.25
 10
-1.44337567297407
 20
0.0
 10
-0.721687836487035
 20
-1.25
 10
0.721687836487035
 20
-1.25
  0
ENDBLK
  5
576
100
AcDbEntity
  8
2
100
AcDbBlockEnd
  0
BLOCK
  5
579
100
AcDbEntity
  8
2
100
AcDbBlockBegin
  2
SUB30
 70
    64
 10
0.0
 20
0.0
  0
CIRCLE
  5
57A
100
AcDbEntity
  8
2
  6
CONTINUOUS
 62
     0
100
AcDbCircle
 10
0.0
 20
0.0
 40
2.75
  0
CIRCLE
  5
57B
100
AcDbEntity
  8
2
  6
CONTINUOUS
 62
     0
100
AcDbCircle
 10
0.0
 20
0.0
 40
2.41
  0
LWPOLYLINE
  5
57C
100
AcDbEntity
  8
2
  6
CONTINUOUS
 62
     0
100
AcDbPolyline
 90
        6
 70
     1
 43
0.0
 10
1.44337567297407
 20
0.0
 10
0.721687836487035
 20
1.25
 10
-0.721687836487035
 20
1.25
 10
-1.44337567297407
 20
0.0
 10
-0.721687836487035
 20
-1.25
 10
0.721687836487035
 20
-1.25
  0
ENDBLK
  5
57D
100
AcDbEntity
  8
2
100
AcDbBlockEnd
  0
BLOCK
  5
580
100
AcDbEntity
  8
2
100
AcDbBlockBegin
  2
SUB31
 70
    64
 10
0.0
 20
0.0
  0
CIRCLE
  5
581
100
AcDbEntity
  8
2
  6
CONTINUOUS
 62
     0
100
AcDbCircle
 10
0.0
 20
0.0
 40
2.75
  0
CIRCLE
  5
582
100
AcDbEntity
  8
2
  6
CONTINUOUS
 62
     0
100
AcDbCircle
 10
0.0
 20
0.0
 40
2.41
  0
LWPOLYLINE
  5
583
100
AcDbEntity
  8
2
  6
CONTINUOUS
 62
     0
100
AcDbPolyline
 90
        6
 70
     1
 43
0.0
 10
1.44337567297407
 20
0.0
 10
0.721687836487035
 20
1.25
 10
-0.721687836487035
 20
1.25
 10
-1.44337567297407
 20
0.0
 10
-0.721687836487035
 20
-1.25
 10
0.721687836487035
 20
-1.25
  0
ENDBLK
  5
584
100
AcDbEntity
  8
2
100
AcDbBlockEnd
  0
BLOCK
  5
587
100
AcDbEntity
  8
2
100
AcDbBlockBegin
  2
SUB32
 70
    64
 10
0.0
 20
0.0
  0
CIRCLE
  5
588
100
AcDbEntity
  8
2
  6
CONTINUOUS
 62
     0
100
AcDbCircle
 10
0.0
 20
0.0
 40
2.75
  0
CIRCLE
  5
589
100
AcDbEntity
  8
2
  6
CONTINUOUS
 62
     0
100
AcDbCircle
 10
0.0
 20
0.0
 40
2.41
  0
LWPOLYLINE
  5
58A
100
AcDbEntity
  8
2
  6
CONTINUOUS
 62
     0
100
AcDbPolyline
 90
        6
 70
     1
 43
0.0
 10
1.44337567297407
 20
0.0
 10
0.721687836487035
 20
1.25
 10
-0.721687836487035
 20
1.25
 10
-1.44337567297407
 20
0.0
 10
-0.721687836487035
 20
-1.25
 10
0.721687836487035
 20
-1.25
  0
ENDBLK
  5
58B
100
AcDbEntity
  8
2
100
AcDbBlockEnd
  0
BLOCK
  5
58E
100
AcDbEntity
  8
2
100
AcDbBlockBegin
  2
SUB33
 70
    64
 10
0.0
 20
0.0
  0
CIRCLE
  5
58F
100
AcDbEntity
  8
2
  6
CONTINUOUS
 62
     0
100
AcDbCircle
 10
0.0
 20
0.0
 40
2.75
  0
CIRCLE
  5
590
100
AcDbEntity
  8
2
  6
CONTINUOUS
 62
     0
100
AcDbCircle
 10
0.0
 20
0.0
 40
2.41
  0
LWPOLYLINE
  5
591
100
AcDbEntity
  8
2
  6
CONTINUOUS
 62
     0
100
AcDbPolyline
 90
        6
 70
     1
 43
0.0
 10
1.44337567297407
 20
0.0
 10
0.721687836487035
 20
1.25
 10
-0.721687836487035
 20
1.25
 10
-1.44337567297407
 20
0.0
 10
-0.721687836487035
 20
-1.25
 10
0.721687836487035
 20
-1.25
  0
ENDBLK
  5
592
100
AcDbEntity
  8
2
100
AcDbBlockEnd
  0
BLOCK
  5
597
100
AcDbEntity
  8
7
100
AcDbBlockBegin
  2
SUB34
 70
    64
 10
0.0
 20
0.0
  0
LINE
  5
598
100
AcDbEntity
  8
2
  6
CONTINUOUS
 62
     0
100
AcDbLine
 10
0.0
 20
-2.75
 11
0.0
 21
2.75
  0
LINE
  5
599
100
AcDbEntity
  8
2
  6
CONTINUOUS
 62
     0
100
AcDbLine
 10
0.700000000000045
 20
-2.75
 11
0.700000000000045
 21
2.75
  0
LINE
  5
59A
100
AcDbEntity
  8
2
  6
CONTINUOUS
 62
     0
100
AcDbLine
 10
3.5
 20
2.75
 11
0.0
 21
2.75
  0
LINE
  5
59B
100
AcDbEntity
  8
2
  6
CONTINUOUS
 62
     0
100
AcDbLine
 10
3.5
 20
-2.75
 11
0.0
 21
-2.75
  0
LINE
  5
59C
100
AcDbEntity
  8
2
  6
CONTINUOUS
 62
     0
100
AcDbLine
 10
3.70000000000005
 20
-2.40358983848614
 11
3.70000000000005
 21
2.40358983848614
  0
LINE
  5
59D
100
AcDbEntity
  8
2
  6
CONTINUOUS
 62
     0
100
AcDbLine
 10
3.5
 20
-2.75
 11
3.5
 21
2.75
  0
LINE
  5
59E
100
AcDbEntity
  8
2
  6
CONTINUOUS
 62
     0
100
AcDbLine
 10
3.5
 20
2.75
 11
3.70000000000005
 21
2.40358983848614
  0
LINE
  5
59F
100
AcDbEntity
  8
2
  6
CONTINUOUS
 62
     0
100
AcDbLine
 10
3.5
 20
-2.75
 11
3.70000000000005
 21
-2.40358983848614
  0
LINE
  5
5A0
100
AcDbEntity
  8
2
  6
CONTINUOUS
 62
     0
100
AcDbLine
 10
0.700000000000045
 20
0.0
 11
0.0
 21
-0.885575294494629
  0
LINE
  5
5A1
100
AcDbEntity
  8
2
  6
CONTINUOUS
 62
     0
100
AcDbLine
 10
0.0
 20
0.0
 11
0.700000000000045
 21
0.883089601993561
  0
ENDBLK
  5
5A2
100
AcDbEntity
  8
2
100
AcDbBlockEnd
  0
BLOCK
  5
5A5
100
AcDbEntity
  8
7
100
AcDbBlockBegin
  2
SUB35
 70
    64
 10
0.0
 20
0.0
  0
LINE
  5
5A6
100
AcDbEntity
  8
2
  6
CONTINUOUS
 62
     0
100
AcDbLine
 10
0.0
 20
-2.75
 11
0.0
 21
2.75
  0
LINE
  5
5A7
100
AcDbEntity
  8
2
  6
CONTINUOUS
 62
     0
100
AcDbLine
 10
0.700000000000045
 20
-2.75
 11
0.700000000000045
 21
2.75
  0
LINE
  5
5A8
100
AcDbEntity
  8
2
  6
CONTINUOUS
 62
     0
100
AcDbLine
 10
3.5
 20
2.75
 11
0.0
 21
2.75
  0
LINE
  5
5A9
100
AcDbEntity
  8
2
  6
CONTINUOUS
 62
     0
100
AcDbLine
 10
3.5
 20
-2.75
 11
0.0
 21
-2.75
  0
LINE
  5
5AA
100
AcDbEntity
  8
2
  6
CONTINUOUS
 62
     0
100
AcDbLine
 10
3.70000000000005
 20
-2.40358983848614
 11
3.70000000000005
 21
2.40358983848614
  0
LINE
  5
5AB
100
AcDbEntity
  8
2
  6
CONTINUOUS
 62
     0
100
AcDbLine
 10
3.5
 20
-2.75
 11
3.5
 21
2.75
  0
LINE
  5
5AC
100
AcDbEntity
  8
2
  6
CONTINUOUS
 62
     0
100
AcDbLine
 10
3.5
 20
2.75
 11
3.70000000000005
 21
2.40358983848614
  0
LINE
  5
5AD
100
AcDbEntity
  8
2
  6
CONTINUOUS
 62
     0
100
AcDbLine
 10
3.5
 20
-2.75
 11
3.70000000000005
 21
-2.40358983848614
  0
LINE
  5
5AE
100
AcDbEntity
  8
2
  6
CONTINUOUS
 62
     0
100
AcDbLine
 10
0.700000000000045
 20
0.0
 11
0.0
 21
-0.885575294494629
  0
LINE
  5
5AF
100
AcDbEntity
  8
2
  6
CONTINUOUS
 62
     0
100
AcDbLine
 10
0.0
 20
0.0
 11
0.700000000000045
 21
0.883089601993561
  0
ENDBLK
  5
5B0
100
AcDbEntity
  8
2
100
AcDbBlockEnd
  0
BLOCK
  5
5B5
100
AcDbEntity
  8
7
100
AcDbBlockBegin
  2
SUB36
 70
    64
 10
0.0
 20
0.0
  0
LINE
  5
5B6
100
AcDbEntity
  8
2
  6
CONTINUOUS
 62
     0
100
AcDbLine
 10
0.0
 20
-2.75
 11
0.0
 21
2.75
  0
LINE
  5
5B7
100
AcDbEntity
  8
2
  6
CONTINUOUS
 62
     0
100
AcDbLine
 10
0.700000000000045
 20
-2.75
 11
0.700000000000045
 21
2.75
  0
LINE
  5
5B8
100
AcDbEntity
  8
2
  6
CONTINUOUS
 62
     0
100
AcDbLine
 10
3.5
 20
2.75
 11
0.0
 21
2.75
  0
LINE
  5
5B9
100
AcDbEntity
  8
2
  6
CONTINUOUS
 62
     0
100
AcDbLine
 10
3.5
 20
-2.75
 11
0.0
 21
-2.75
  0
LINE
  5
5BA
100
AcDbEntity
  8
2
  6
CONTINUOUS
 62
     0
100
AcDbLine
 10
3.70000000000005
 20
-2.40358983848614
 11
3.70000000000005
 21
2.40358983848614
  0
LINE
  5
5BB
100
AcDbEntity
  8
2
  6
CONTINUOUS
 62
     0
100
AcDbLine
 10
3.5
 20
-2.75
 11
3.5
 21
2.75
  0
LINE
  5
5BC
100
AcDbEntity
  8
2
  6
CONTINUOUS
 62
     0
100
AcDbLine
 10
3.5
 20
2.75
 11
3.70000000000005
 21
2.40358983848614
  0
LINE
  5
5BD
100
AcDbEntity
  8
2
  6
CONTINUOUS
 62
     0
100
AcDbLine
 10
3.5
 20
-2.75
 11
3.70000000000005
 21
-2.40358983848614
  0
LINE
  5
5BE
100
AcDbEntity
  8
2
  6
CONTINUOUS
 62
     0
100
AcDbLine
 10
0.700000000000045
 20
0.0
 11
0.0
 21
-0.885575294494629
  0
LINE
  5
5BF
100
AcDbEntity
  8
2
  6
CONTINUOUS
 62
     0
100
AcDbLine
 10
0.0
 20
0.0
 11
0.700000000000045
 21
0.883089601993561
  0
ENDBLK
  5
5C0
100
AcDbEntity
  8
2
100
AcDbBlockEnd
  0
BLOCK
  5
5C4
100
AcDbEntity
  8
7
100
AcDbBlockBegin
  2
SUB37
 70
    64
 10
0.0
 20
0.0
  0
LINE
  5
5C5
100
AcDbEntity
  8
2
  6
CONTINUOUS
 62
     0
100
AcDbLine
 10
0.0
 20
-2.75
 11
0.0
 21
2.75
  0
LINE
  5
5C6
100
AcDbEntity
  8
2
  6
CONTINUOUS
 62
     0
100
AcDbLine
 10
0.700000000000045
 20
-2.75
 11
0.700000000000045
 21
2.75
  0
LINE
  5
5C7
100
AcDbEntity
  8
2
  6
CONTINUOUS
 62
     0
100
AcDbLine
 10
3.5
 20
2.75
 11
0.0
 21
2.75
  0
LINE
  5
5C8
100
AcDbEntity
  8
2
  6
CONTINUOUS
 62
     0
100
AcDbLine
 10
3.5
 20
-2.75
 11
0.0
 21
-2.75
  0
LINE
  5
5C9
100
AcDbEntity
  8
2
  6
CONTINUOUS
 62
     0
100
AcDbLine
 10
3.70000000000005
 20
-2.40358983848614
 11
3.70000000000005
 21
2.40358983848614
  0
LINE
  5
5CA
100
AcDbEntity
  8
2
  6
CONTINUOUS
 62
     0
100
AcDbLine
 10
3.5
 20
-2.75
 11
3.5
 21
2.75
  0
LINE
  5
5CB
100
AcDbEntity
  8
2
  6
CONTINUOUS
 62
     0
100
AcDbLine
 10
3.5
 20
2.75
 11
3.70000000000005
 21
2.40358983848614
  0
LINE
  5
5CC
100
AcDbEntity
  8
2
  6
CONTINUOUS
 62
     0
100
AcDbLine
 10
3.5
 20
-2.75
 11
3.70000000000005
 21
-2.40358983848614
  0
LINE
  5
5CD
100
AcDbEntity
  8
2
  6
CONTINUOUS
 62
     0
100
AcDbLine
 10
0.700000000000045
 20
0.0
 11
0.0
 21
-0.885575294494629
  0
LINE
  5
5CE
100
AcDbEntity
  8
2
  6
CONTINUOUS
 62
     0
100
AcDbLine
 10
0.0
 20
0.0
 11
0.700000000000045
 21
0.883089601993561
  0
ENDBLK
  5
5CF
100
AcDbEntity
  8
2
100
AcDbBlockEnd
  0
BLOCK
  5
76D
100
AcDbEntity
  8
7
100
AcDbBlockBegin
  2
COMP1
 70
    64
 10
0.0
 20
0.0
  0
ARC
  5
76E
100
AcDbEntity
  8
7
  6
CENTER2
 62
    40
100
AcDbCircle
 10
578.309930085038
 20
221.5
 40
33.0
100
AcDbArc
 50
90.0
 51
150.0
  0
LINE
  5
76F
100
AcDbEntity
  8
7
  6
CENTER2
 62
    40
100
AcDbLine
 10
578.309930085038
 20
254.5
 11
766.599999999981
 21
254.5
  0
ARC
  5
770
100
AcDbEntity
  8
7
  6
CENTER2
 62
    40
100
AcDbCircle
 10
509.027897782283
 20
261.5
 40
47.0
100
AcDbArc
 50
270.0
 51
330.0
  0
LINE
  5
771
100
AcDbEntity
  8
7
  6
CENTER2
 62
    40
100
AcDbLine
 10
272.826048808818
 20
214.5
 11
509.027897782283
 21
214.5
  0
ENDBLK
  5
772
100
AcDbEntity
  8
7
100
AcDbBlockEnd
  0
BLOCK
  5
775
100
AcDbEntity
  8
2
100
AcDbBlockBegin
  2
COMP2
 70
    64
 10
0.0
 20
0.0
  0
LINE
  5
776
100
AcDbEntity
  8
2
  6
CONTINUOUS
 62
     0
100
AcDbLine
 10
335.99999999998
 20
222.2
 11
333.99999999998
 21
224.2
  0
LINE
  5
777
100
AcDbEntity
  8
2
  6
CONTINUOUS
 62
     0
100
AcDbLine
 10
333.99999999998
 20
222.2
 11
335.99999999998
 21
224.2
  0
CIRCLE
  5
778
100
AcDbEntity
  8
2
  6
CONTINUOUS
 62
     0
100
AcDbCircle
 10
334.99999999998
 20
223.2
 40
2.75
  0
LINE
  5
779
100
AcDbEntity
  8
2
  6
CONTINUOUS
 62
     0
100
AcDbLine
 10
330.49999999998
 20
224.5
 11
330.49999999998
 21
204.5
  0
LINE
  5
77A
100
AcDbEntity
  8
2
  6
CONTINUOUS
 62
     0
100
AcDbLine
 10
290.49999999998
 20
227.0
 11
300.49999999998
 21
227.0
  0
LINE
  5
77B
100
AcDbEntity
  8
2
  6
CONTINUOUS
 62
     0
100
AcDbLine
 10
300.49999999998
 20
226.0
 11
290.49999999998
 21
226.0
  0
LINE
  5
77C
100
AcDbEntity
  8
2
  6
CONTINUOUS
 62
     0
100
AcDbLine
 10
290.49999999998
 20
225.0
 11
300.49999999998
 21
225.0
  0
LINE
  5
77D
100
AcDbEntity
  8
2
  6
CONTINUOUS
 62
     0
100
AcDbLine
 10
300.49999999998
 20
224.0
 11
290.49999999998
 21
224.0
  0
LINE
  5
77E
100
AcDbEntity
  8
2
  6
CONTINUOUS
 62
     0
100
AcDbLine
 10
290.49999999998
 20
223.0
 11
300.49999999998
 21
223.0
  0
LINE
  5
77F
100
AcDbEntity
  8
2
  6
CONTINUOUS
 62
     0
100
AcDbLine
 10
300.49999999998
 20
222.0
 11
290.49999999998
 21
222.0
  0
LINE
  5
780
100
AcDbEntity
  8
2
  6
CONTINUOUS
 62
     0
100
AcDbLine
 10
338.49999999998
 20
205.0
 11
338.49999999998
 21
224.0
  0
LINE
  5
781
100
AcDbEntity
  8
2
  6
CONTINUOUS
 62
     0
100
AcDbLine
 10
303.49999999998
 20
227.3
 11
313.49999999998
 21
227.3
  0
ARC
  5
782
100
AcDbEntity
  8
2
  6
CONTINUOUS
 62
     0
100
AcDbCircle
 10
330.41599999998
 20
226.547
 40
1.99999999999995
100
AcDbArc
 50
259.79599999999
 51
320.445000000003
  0
ARC
  5
783
100
AcDbEntity
  8
2
  6
CONTINUOUS
 62
     0
100
AcDbCircle
 10
336.49999999998
 20
224.0
 40
1.99999999999994
100
AcDbArc
 50
0.0
 51
90.0
  0
LINE
  5
784
100
AcDbEntity
  8
2
  6
CONTINUOUS
 62
     0
100
AcDbLine
 10
336.49999999998
 20
226.0
 11
333.49999999998
 21
226.0
  0
ARC
  5
785
100
AcDbEntity
  8
2
  6
CONTINUOUS
 62
     0
100
AcDbCircle
 10
333.49999999998
 20
224.0
 40
1.99999999999994
100
AcDbArc
 50
90.0
 51
180.0
  0
LINE
  5
786
100
AcDbEntity
  8
2
  6
CONTINUOUS
 62
     0
100
AcDbLine
 10
331.49999999998
 20
224.0
 11
331.49999999998
 21
205.0
  0
LINE
  5
787
100
AcDbEntity
  8
2
  6
CONTINUOUS
 62
     0
100
AcDbLine
 10
303.49999999998
 20
228.0
 11
300.49999999998
 21
228.0
  0
LINE
  5
788
100
AcDbEntity
  8
2
  6
CONTINUOUS
 62
     0
100
AcDbLine
 10
300.49999999998
 20
228.5
 11
290.49999999998
 21
228.5
  0
LINE
  5
789
100
AcDbEntity
  8
2
  6
CONTINUOUS
 62
     0
100
AcDbLine
 10
303.49999999998
 20
201.0
 11
303.49999999998
 21
228.0
  0
LINE
  5
78A
100
AcDbEntity
  8
2
  6
CONTINUOUS
 62
     0
100
AcDbLine
 10
300.49999999998
 20
199.9
 11
300.49999999998
 21
229.1
  0
LINE
  5
78B
100
AcDbEntity
  8
2
  6
CONTINUOUS
 62
     0
100
AcDbLine
 10
300.49999999998
 20
221.0
 11
290.49999999998
 21
221.0
  0
LINE
  5
78C
100
AcDbEntity
  8
2
  6
CONTINUOUS
 62
     0
100
AcDbLine
 10
300.49999999998
 20
220.0
 11
290.49999999998
 21
220.0
  0
LINE
  5
78D
100
AcDbEntity
  8
2
  6
CONTINUOUS
 62
     0
100
AcDbLine
 10
300.49999999998
 20
219.0
 11
290.49999999998
 21
219.0
  0
LINE
  5
78E
100
AcDbEntity
  8
2
  6
CONTINUOUS
 62
     0
100
AcDbLine
 10
300.49999999998
 20
218.0
 11
290.49999999998
 21
218.0
  0
LINE
  5
78F
100
AcDbEntity
  8
2
  6
CONTINUOUS
 62
     0
100
AcDbLine
 10
300.49999999998
 20
217.0
 11
290.49999999998
 21
217.0
  0
LINE
  5
790
100
AcDbEntity
  8
2
  6
CONTINUOUS
 62
     0
100
AcDbLine
 10
300.49999999998
 20
207.0
 11
290.49999999998
 21
207.0
  0
LINE
  5
791
100
AcDbEntity
  8
2
  6
CONTINUOUS
 62
     0
100
AcDbLine
 10
290.49999999998
 20
206.0
 11
300.49999999998
 21
206.0
  0
LINE
  5
792
100
AcDbEntity
  8
2
  6
CONTINUOUS
 62
     0
100
AcDbLine
 10
300.49999999998
 20
205.0
 11
290.49999999998
 21
205.0
  0
LINE
  5
793
100
AcDbEntity
  8
2
  6
CONTINUOUS
 62
     0
100
AcDbLine
 10
290.49999999998
 20
204.0
 11
300.49999999998
 21
204.0
  0
LINE
  5
794
100
AcDbEntity
  8
2
  6
CONTINUOUS
 62
     0
100
AcDbLine
 10
300.49999999998
 20
203.0
 11
290.49999999998
 21
203.0
  0
LINE
  5
795
100
AcDbEntity
  8
2
  6
CONTINUOUS
 62
     0
100
AcDbLine
 10
290.49999999998
 20
201.0
 11
300.49999999998
 21
201.0
  0
LINE
  5
796
100
AcDbEntity
  8
2
  6
CONTINUOUS
 62
     0
100
AcDbLine
 10
335.99999999998
 20
206.8
 11
333.99999999998
 21
204.8
  0
LINE
  5
797
100
AcDbEntity
  8
2
  6
CONTINUOUS
 62
     0
100
AcDbLine
 10
333.99999999998
 20
206.8
 11
335.99999999998
 21
204.8
  0
CIRCLE
  5
798
100
AcDbEntity
  8
2
  6
CONTINUOUS
 62
     0
100
AcDbCircle
 10
334.99999999998
 20
205.8
 40
2.75
  0
ARC
  5
799
100
AcDbEntity
  8
2
  6
CONTINUOUS
 62
     0
100
AcDbCircle
 10
336.49999999998
 20
205.0
 40
1.99999999999994
100
AcDbArc
 50
270.0
 51
0.0
  0
ARC
  5
79A
100
AcDbEntity
  8
2
  6
CONTINUOUS
 62
     0
100
AcDbCircle
 10
333.49999999998
 20
205.0
 40
1.99999999999994
100
AcDbArc
 50
180.0
 51
270.0
  0
LINE
  5
79B
100
AcDbEntity
  8
2
  6
CONTINUOUS
 62
     0
100
AcDbLine
 10
333.49999999998
 20
203.0
 11
336.49999999998
 21
203.0
  0
ARC
  5
79C
100
AcDbEntity
  8
2
  6
CONTINUOUS
 62
     0
100
AcDbCircle
 10
330.41599999998
 20
202.453
 40
1.99999999999993
100
AcDbArc
 50
39.5549999999972
 51
100.20400000001
  0
LINE
  5
79D
100
AcDbEntity
  8
2
  6
CONTINUOUS
 62
     0
100
AcDbLine
 10
300.49999999998
 20
201.0
 11
303.49999999998
 21
201.0
  0
LINE
  5
79E
100
AcDbEntity
  8
2
  6
CONTINUOUS
 62
     0
100
AcDbLine
 10
303.49999999998
 20
201.7
 11
313.49999999998
 21
201.7
  0
LINE
  5
79F
100
AcDbEntity
  8
2
  6
CONTINUOUS
 62
     0
100
AcDbLine
 10
290.49999999998
 20
200.5
 11
300.49999999998
 21
200.5
  0
LINE
  5
7A0
100
AcDbEntity
  8
2
  6
CONTINUOUS
 62
     0
100
AcDbLine
 10
300.49999999998
 20
211.0
 11
290.49999999998
 21
211.0
  0
LINE
  5
7A1
100
AcDbEntity
  8
2
  6
CONTINUOUS
 62
     0
100
AcDbLine
 10
290.49999999998
 20
210.0
 11
300.49999999998
 21
210.0
  0
LINE
  5
7A2
100
AcDbEntity
  8
2
  6
CONTINUOUS
 62
     0
100
AcDbLine
 10
300.49999999998
 20
209.0
 11
290.49999999998
 21
209.0
  0
LINE
  5
7A3
100
AcDbEntity
  8
2
  6
CONTINUOUS
 62
     0
100
AcDbLine
 10
290.49999999998
 20
208.0
 11
300.49999999998
 21
208.0
  0
LINE
  5
7A4
100
AcDbEntity
  8
2
  6
CONTINUOUS
 62
     0
100
AcDbLine
 10
300.49999999998
 20
212.0
 11
290.49999999998
 21
212.0
  0
LINE
  5
7A5
100
AcDbEntity
  8
2
  6
CONTINUOUS
 62
     0
100
AcDbLine
 10
300.49999999998
 20
213.0
 11
290.49999999998
 21
213.0
  0
LINE
  5
7A6
100
AcDbEntity
  8
2
  6
CONTINUOUS
 62
     0
100
AcDbLine
 10
300.49999999998
 20
214.0
 11
290.49999999998
 21
214.0
  0
LINE
  5
7A7
100
AcDbEntity
  8
2
  6
CONTINUOUS
 62
     0
100
AcDbLine
 10
300.49999999998
 20
215.0
 11
290.49999999998
 21
215.0
  0
LINE
  5
7A8
100
AcDbEntity
  8
2
  6
CONTINUOUS
 62
     0
100
AcDbLine
 10
300.49999999998
 20
216.0
 11
290.49999999998
 21
216.0
  0
LINE
  5
7A9
100
AcDbEntity
  8
2
  6
CONTINUOUS
 62
     0
100
AcDbLine
 10
287.49999999998
 20
228.0
 11
287.49999999998
 21
201.0
  0
LINE
  5
7AA
100
AcDbEntity
  8
2
  6
CONTINUOUS
 62
     0
100
AcDbLine
 10
290.49999999998
 20
229.1
 11
290.49999999998
 21
199.9
  0
LINE
  5
7AB
100
AcDbEntity
  8
2
  6
CONTINUOUS
 62
     0
100
AcDbLine
 10
287.49999999998
 20
201.0
 11
290.49999999998
 21
201.0
  0
LINE
  5
7AC
100
AcDbEntity
  8
2
  6
CONTINUOUS
 62
     0
100
AcDbLine
 10
287.49999999998
 20
228.0
 11
300.49999999998
 21
228.0
  0
LINE
  5
7AD
100
AcDbEntity
  8
2
  6
CONTINUOUS
 62
     0
100
AcDbLine
 10
330.49999999998
 20
224.5
 11
313.49999999998
 21
227.3
  0
LINE
  5
7AE
100
AcDbEntity
  8
2
  6
CONTINUOUS
 62
     0
100
AcDbLine
 10
300.49999999998
 20
202.0
 11
290.49999999998
 21
202.0
  0
LINE
  5
7AF
100
AcDbEntity
  8
2
  6
CONTINUOUS
 62
     0
100
AcDbLine
 10
330.061693100573
 20
204.421366485447
 11
313.49999999998
 21
201.7
  0
LINE
  5
7B0
100
AcDbEntity
  8
2
  6
CONTINUOUS
 62
     0
100
AcDbLine
 10
290.49999999998
 20
199.9
 11
300.49999999998
 21
199.9
  0
LINE
  5
7B1
100
AcDbEntity
  8
2
  6
CONTINUOUS
 62
     0
100
AcDbLine
 10
290.49999999998
 20
229.1
 11
300.49999999998
 21
229.1
  0
LINE
  5
7B2
100
AcDbEntity
  8
2
  6
CONTINUOUS
 62
     0
100
AcDbLine
 10
766.599999999981
 20
259.0
 11
578.309930085038
 21
259.0
  0
LINE
  5
7B3
100
AcDbEntity
  8
2
  6
CONTINUOUS
 62
     0
100
AcDbLine
 10
578.309930085038
 20
250.0
 11
766.599999999981
 21
250.0
  0
ARC
  5
7B4
100
AcDbEntity
  8
2
  6
CONTINUOUS
 62
     0
100
AcDbCircle
 10
578.309930085038
 20
221.5
 40
37.5
100
AcDbArc
 50
90.0
 51
150.0
  0
ARC
  5
7B5
100
AcDbEntity
  8
2
  6
CONTINUOUS
 62
     0
100
AcDbCircle
 10
578.309930085038
 20
221.5
 40
28.5
100
AcDbArc
 50
90.0
 51
150.0
  0
ARC
  5
7B6
100
AcDbEntity
  8
2
  6
CONTINUOUS
 62
     0
100
AcDbCircle
 10
509.027897782283
 20
261.5
 40
51.5
100
AcDbArc
 50
270.0
 51
330.0
  0
ARC
  5
7B7
100
AcDbEntity
  8
2
  6
CONTINUOUS
 62
     0
100
AcDbCircle
 10
509.027897782283
 20
261.5
 40
42.5
100
AcDbArc
 50
270.0
 51
330.0
  0
LINE
  5
7B8
100
AcDbEntity
  8
2
  6
CONTINUOUS
 62
     0
100
AcDbLine
 10
338.69999999998
 20
210.0
 11
509.027897782283
 21
210.0
  0
LINE
  5
7B9
100
AcDbEntity
  8
2
  6
CONTINUOUS
 62
     0
100
AcDbLine
 10
509.027897782283
 20
219.0
 11
338.69999999998
 21
219.0
  0
ENDBLK
  5
7BA
100
AcDbEntity
  8
2
100
AcDbBlockEnd
  0
ENDSEC
  0
SECTION
  2
ENTITIES
  0
INSERT
  5
25
100
AcDbEntity
  8
0
  6
CONTINUOUS
100
AcDbBlockReference
  2
SUB1
 10
140.499999999981
 20
7.14518637617334
 41
1.0
 42
1.0
 50
0.0
  0
LINE
  5
263
100
AcDbEntity
  8
2
  6
CONTINUOUS
100
AcDbLine
 10
643.499999999981
 20
-64.0000000000011
 11
647.755437353443
 21
-64.0000000000011
  0
LINE
  5
264
100
AcDbEntity
  8
2
  6
CONTINUOUS
100
AcDbLine
 10
659.244562646519
 20
-64.0000000000011
 11
663.499999999981
 21
-64.0000000000011
  0
ARC
  5
265
100
AcDbEntity
  8
2
  6
CONTINUOUS
100
AcDbCircle
 10
663.499999999981
 20
-66.0000000000011
 40
2.0
100
AcDbArc
 50
0.0
 51
90.0
  0
ARC
  5
266
100
AcDbEntity
  8
2
  6
CONTINUOUS
100
AcDbCircle
 10
643.499999999981
 20
-66.0000000000011
 40
2.0
100
AcDbArc
 50
90.0
 51
180.0
  0
LINE
  5
267
100
AcDbEntity
  8
7
  6
CENTER2
 62
    40
100
AcDbLine
 10
132.408010019234
 20
-149.742221307664
 11
80.0000000000001
 21
-180.0
  0
ARC
  5
268
100
AcDbEntity
  8
7
  6
CENTER2
 62
    40
100
AcDbCircle
 10
80.0000000000001
 20
-180.0
 40
45.0
100
AcDbArc
 50
180.0
 51
183.724420952671
  0
ARC
  5
269
100
AcDbEntity
  8
7
  6
CENTER2
 62
    40
100
AcDbCircle
 10
80.0000000000001
 20
-180.0
 40
45.0
100
AcDbArc
 50
242.429230784975
 51
311.89209110845
  0
ARC
  5
26A
100
AcDbEntity
  8
7
  6
CENTER2
 62
    40
100
AcDbCircle
 10
80.0000000000001
 20
-180.0
 40
45.0
100
AcDbArc
 50
5.70869374074661
 51
53.5085226937205
  0
ARC
  5
26B
100
AcDbEntity
  8
7
  6
CENTER2
 62
    40
100
AcDbCircle
 10
80.0000000000001
 20
-180.0
 40
45.0
100
AcDbArc
 50
115.232722438233
 51
180.0
  0
LINE
  5
26C
100
AcDbEntity
  8
7
  6
CENTER2
 62
    40
100
AcDbLine
 10
27.5919899807452
 20
-149.7422213077
 11
80.0000000000001
 21
-180.0
  0
LINE
  5
26D
100
AcDbEntity
  8
7
  6
CENTER2
 62
    40
100
AcDbLine
 10
80.0000000000001
 20
-247.651106295639
 11
80.0000000000001
 21
-90.10880716011
  0
LINE
  5
26E
100
AcDbEntity
  8
7
  6
CENTER2
 62
    40
100
AcDbLine
 10
80.0000000000001
 20
-180.0
 11
95.4977787497701
 21
-227.697258520952
  0
INSERT
  5
270
100
AcDbEntity
  8
2
  6
CONTINUOUS
100
AcDbBlockReference
  2
SUB14
 10
92.9787137637481
 20
-219.944373684397
 41
1.0
 42
1.0
 50
0.0
  0
CIRCLE
  5
276
100
AcDbEntity
  8
7
  6
CENTER2
 62
    40
100
AcDbCircle
 10
80.0000000000001
 20
-180.0
 40
42.0
  0
LINE
  5
277
100
AcDbEntity
  8
2
  6
HIDDEN
100
AcDbLine
 10
92.7
 20
-183.25
 11
67.3000000000002
 21
-183.25
  0
LINE
  5
278
100
AcDbEntity
  8
2
  6
HIDDEN
100
AcDbLine
 10
92.7
 20
-176.75
 11
67.3000000000002
 21
-176.75
  0
INSERT
  5
27A
100
AcDbEntity
  8
2
  6
CONTINUOUS
100
AcDbBlockReference
  2
SUB15
 10
108.103485467072
 20
-148.787917329949
 41
1.0
 42
1.0
 50
0.0
  0
LINE
  5
280
100
AcDbEntity
  8
7
  6
CENTER2
 62
    40
100
AcDbLine
 10
80.0000000000001
 20
-180.0
 11
113.558148195133
 21
-142.729900639993
  0
INSERT
  5
282
100
AcDbEntity
  8
2
  6
CONTINUOUS
100
AcDbBlockReference
  2
SUB16
 10
38.9178007691801
 20
-171.267708985654
 41
1.0
 42
1.0
 50
0.0
  0
LINE
  5
288
100
AcDbEntity
  8
7
  6
CENTER2
 62
    40
100
AcDbLine
 10
80.0000000000001
 20
-180.0
 11
30.9440730550971
 21
-169.572840839056
  0
CIRCLE
  5
289
100
AcDbEntity
  8
2
  6
CONTINUOUS
100
AcDbCircle
 10
118.9711608887
 20
-157.5
 40
5.5
  0
LINE
  5
28A
100
AcDbEntity
  8
2
  6
CONTINUOUS
100
AcDbLine
 10
123.50515804433
 20
-146.350316145053
 11
88.1992046029477
 21
-133.500000000001
  0
LINE
  5
28B
100
AcDbEntity
  8
2
  6
CONTINUOUS
100
AcDbLine
 10
36.4948419556702
 20
-146.350316145053
 11
71.8007953970553
 21
-133.5
  0
LINE
  5
28C
100
AcDbEntity
  8
2
  6
CONTINUOUS
100
AcDbLine
 10
29.1059399301362
 20
-159.148269865427
 11
35.6302164225565
 21
-196.149280523053
  0
LINE
  5
28D
100
AcDbEntity
  8
2
  6
CONTINUOUS
100
AcDbLine
 10
72.6110979744661
 20
-234.50141398952
 11
43.8294210255375
 21
-210.35071947701
  0
LINE
  5
28E
100
AcDbEntity
  8
2
  6
CONTINUOUS
100
AcDbLine
 10
87.3889020255342
 20
-234.50141398952
 11
116.170578974407
 21
-210.350719477057
  0
LINE
  5
28F
100
AcDbEntity
  8
2
  6
CONTINUOUS
100
AcDbLine
 10
130.894060069864
 20
-159.148269865427
 11
124.369783577475
 21
-196.149280522875
  0
CIRCLE
  5
290
100
AcDbEntity
  8
2
  6
CONTINUOUS
100
AcDbCircle
 10
80.0000000000001
 20
-180.0
 40
35.0
  0
ARC
  5
291
100
AcDbEntity
  8
2
  6
CONTINUOUS
100
AcDbCircle
 10
80.0000000000001
 20
-180.0
 40
55.0000000000001
100
AcDbArc
 50
22.2793305874239
 51
37.7206694125759
  0
ARC
  5
292
100
AcDbEntity
  8
2
  6
CONTINUOUS
100
AcDbCircle
 10
80.0000000000001
 20
-180.0
 40
55.0000000000001
100
AcDbArc
 50
142.279330587424
 51
157.720669412576
  0
ARC
  5
293
100
AcDbEntity
  8
2
  6
CONTINUOUS
100
AcDbCircle
 10
80.0000000000001
 20
-180.0
 40
55.0
100
AcDbArc
 50
262.279330587424
 51
277.720669412576
  0
CIRCLE
  5
294
100
AcDbEntity
  8
2
  6
CONTINUOUS
100
AcDbCircle
 10
80.0000000000001
 20
-225.0
 40
5.5
  0
CIRCLE
  5
295
100
AcDbEntity
  8
2
  6
CONTINUOUS
100
AcDbCircle
 10
41.0288391113002
 20
-157.5
 40
5.5
  0
CIRCLE
  5
296
100
AcDbEntity
  8
2
  6
CONTINUOUS
100
AcDbCircle
 10
80.0000000000001
 20
-180.0
 40
17.5
  0
CIRCLE
  5
297
100
AcDbEntity
  8
2
  6
CONTINUOUS
100
AcDbCircle
 10
80.0000000000001
 20
-180.0
 40
16.5
  0
CIRCLE
  5
298
100
AcDbEntity
  8
2
  6
CONTINUOUS
100
AcDbCircle
 10
108.103485467072
 20
-148.787917329949
 40
5.5
  0
CIRCLE
  5
299
100
AcDbEntity
  8
2
  6
CONTINUOUS
100
AcDbCircle
 10
92.9787137637481
 20
-219.944373684397
 40
5.5
  0
CIRCLE
  5
29A
100
AcDbEntity
  8
2
  6
CONTINUOUS
100
AcDbCircle
 10
38.9178007691801
 20
-171.267708985654
 40
5.5
  0
LINE
  5
29B
100
AcDbEntity
  8
2
  6
CONTINUOUS
100
AcDbLine
 10
90.5337552658002
 20
-192.7
 11
69.4662447342001
 21
-192.7
  0
LINE
  5
29C
100
AcDbEntity
  8
2
  6
CONTINUOUS
100
AcDbLine
 10
67.3000000000002
 20
-190.5337552658
 11
67.3000000000002
 21
-169.4662447342
  0
LINE
  5
29D
100
AcDbEntity
  8
2
  6
CONTINUOUS
100
AcDbLine
 10
92.7
 20
-190.5337552658
 11
92.7
 21
-169.4662447342
  0
LINE
  5
29E
100
AcDbEntity
  8
2
  6
CONTINUOUS
100
AcDbLine
 10
90.5337552658002
 20
-167.3
 11
69.4662447342001
 21
-167.3
  0
ARC
  5
29F
100
AcDbEntity
  8
2
  6
CONTINUOUS
100
AcDbCircle
 10
80.0000000000001
 20
-180.0
 40
64.0
100
AcDbArc
 50
263.720711677442
 51
276.279288322558
  0
ARC
  5
2A0
100
AcDbEntity
  8
2
  6
CONTINUOUS
100
AcDbCircle
 10
80.0000000000001
 20
-180.0
 40
64.0
100
AcDbArc
 50
23.7207116775008
 51
36.2792883226125
  0
ARC
  5
2A1
100
AcDbEntity
  8
2
  6
CONTINUOUS
100
AcDbCircle
 10
80.0000000000001
 20
-180.0
 40
64.0
100
AcDbArc
 50
143.720711677388
 51
156.279288322499
  0
LINE
  5
2A2
100
AcDbEntity
  8
2
  6
CONTINUOUS
100
AcDbLine
 10
129.9632987002
 20
-186.4610281374
 11
138.5931030166
 21
-154.2541599693
  0
LINE
  5
2A3
100
AcDbEntity
  8
2
  6
CONTINUOUS
100
AcDbLine
 10
99.3862348485002
 20
-133.5
 11
131.5931030166
 21
-142.1298043163
  0
LINE
  5
2A4
100
AcDbEntity
  8
2
  6
CONTINUOUS
100
AcDbLine
 10
60.6137651514001
 20
-133.5
 11
28.4068969833997
 21
-142.1298043163
  0
LINE
  5
2A5
100
AcDbEntity
  8
2
  6
CONTINUOUS
100
AcDbLine
 10
30.0367012996998
 20
-186.4610281374
 11
21.4068969833997
 21
-154.2541599693
  0
LINE
  5
2A6
100
AcDbEntity
  8
2
  6
CONTINUOUS
100
AcDbLine
 10
49.4229361483001
 20
-220.0389718625
 11
73.0000000000001
 21
-243.6160357142
  0
LINE
  5
2A7
100
AcDbEntity
  8
2
  6
CONTINUOUS
100
AcDbLine
 10
30.0367012996998
 20
-186.4610281374
 11
49.4229361483001
 21
-220.0389718625
  0
LINE
  5
2A8
100
AcDbEntity
  8
2
  6
CONTINUOUS
100
AcDbLine
 10
110.5770638517
 20
-220.0389718625
 11
87.0000000000001
 21
-243.6160357142
  0
LINE
  5
2A9
100
AcDbEntity
  8
2
  6
CONTINUOUS
100
AcDbLine
 10
110.5770638517
 20
-220.0389718625
 11
129.9632987002
 21
-186.4610281374
  0
LINE
  5
2AA
100
AcDbEntity
  8
2
  6
CONTINUOUS
100
AcDbLine
 10
112.5
 20
-133.5
 11
112.5
 21
-127.5
  0
LINE
  5
2AB
100
AcDbEntity
  8
2
  6
CONTINUOUS
100
AcDbLine
 10
47.5000000000001
 20
-133.5
 11
47.5000000000001
 21
-127.5
  0
LINE
  5
2AC
100
AcDbEntity
  8
7
  6
CENTER2
 62
    40
100
AcDbLine
 10
135.425625842186
 20
-180.000000000001
 11
20.0000000000001
 21
-180.000000000001
  0
INSERT
  5
2AE
100
AcDbEntity
  8
0
  6
CENTER2
100
AcDbBlockReference
  2
M10_0001
 10
80.0000000000001
 20
-225.0
 41
1.0
 42
1.0
 50
0.0
  0
INSERT
  5
2B4
100
AcDbEntity
  8
0
  6
CENTER2
100
AcDbBlockReference
  2
M10_0002
 10
118.971143170287
 20
-157.499999999979
 41
1.0
 42
1.0
 50
0.0
  0
INSERT
  5
2BA
100
AcDbEntity
  8
0
  6
CENTER2
100
AcDbBlockReference
  2
M10_0003
 10
41.0288568296974
 20
-157.500000000005
 41
1.0
 42
1.0
 50
0.0
  0
DIMENSION
  5
2CE
100
AcDbEntity
  8
4
  6
CONTINUOUS
 62
     2
100
AcDbDimension
  2
*D1
 10
-15.0
 20
-180.000000000001
 11
-15.0
 21
-136.750000000001
 70
    32
  3
ISO-25
100
AcDbAlignedDimension
 13
49.0000000000001
 23
-93.5000000000001
 14
20.0000000000001
 24
-180.000000000001
 50
270.0
100
AcDbRotatedDimension
  0
DIMENSION
  5
2DD
100
AcDbEntity
  8
4
  6
CONTINUOUS
 62
     2
100
AcDbDimension
  2
*D2
 10
-15.0
 20
-244.0
 11
-15.0
 21
-212.000000000001
 70
    32
  3
ISO-25
100
AcDbAlignedDimension
 13
20.0000000000001
 23
-180.000000000001
 14
80.0000000000001
 24
-244.0
 50
270.0
100
AcDbRotatedDimension
1001
ACAD
1000
DSTYLE
1002
{
1070
    75
1070
     1
1002
}
  0
DIMENSION
  5
2ED
100
AcDbEntity
  8
4
  6
CONTINUOUS
 62
     2
100
AcDbDimension
  2
*D3
 10
2.7259338968732
 20
-159.294476391804
 11
2.7259338968732
 21
-159.294476391804
 70
    37
  3
ISO-25
100
AcDb3PointAngularDimension
 13
27.5919899807452
 23
-149.7422213077
 14
20.0000000000001
 24
-180.000000000001
 15
80.0000000000019
 25
-180.000000000001
  0
DIMENSION
  5
2FD
100
AcDbEntity
  8
4
  6
CONTINUOUS
 62
     2
100
AcDbDimension
  2
*D4
 10
152.444436971675
 20
-160.588571617292
 11
152.444436971675
 21
-160.588571617292
 70
    37
  3
ISO-25
100
AcDb3PointAngularDimension
 13
135.425625842186
 23
-180.000000000001
 14
132.408010019234
 24
-149.742221307664
 15
79.9999999999983
 25
-180.000000000001
  0
DIMENSION
  5
30D
100
AcDbEntity
  8
4
  6
CONTINUOUS
 62
     2
100
AcDbDimension
  2
*D5
 10
67.3000000000002
 20
-262.918782008654
 11
80.0000000000001
 21
-262.918782008654
 70
    32
  3
ISO-25
100
AcDbAlignedDimension
 13
92.7
 23
-190.5337552658
 14
67.3000000000002
 24
-190.5337552658
 50
180.0
100
AcDbRotatedDimension
  0
DIMENSION
  5
31D
100
AcDbEntity
  8
4
  6
CONTINUOUS
 62
     2
100
AcDbDimension
  2
*D6
 10
47.5000000000001
 20
-85.0000000000011
 11
80.0000000000001
 21
-85.0000000000011
 70
    32
  3
ISO-25
100
AcDbAlignedDimension
 13
112.5
 23
-95.0000000000001
 14
47.5000000000001
 24
-95.0000000000001
 50
180.0
100
AcDbRotatedDimension
  0
DIMENSION
  5
32C
100
AcDbEntity
  8
4
  6
CONTINUOUS
 62
     2
100
AcDbDimension
  2
*D7
 10
107.982968132123
 20
-215.241360565628
 11
131.709078170657
 21
-240.084148976884
 70
    35
  3
ISO-25
100
AcDbDiametricDimension
 15
52.0170318678774
 25
-144.758639434372
1001
ACAD
1000
DSTYLE
1002
{
1070
   280
1070
     1
1002
}
  0
DIMENSION
  5
33B
100
AcDbEntity
  8
4
  6
CONTINUOUS
 62
     2
100
AcDbDimension
  2
*D8
 10
27.1594574238206
 20
-216.109237879731
 11
7.7605488287287
 21
-225.735359301515
 70
    35
  3
ISO-25
100
AcDbDiametricDimension
 15
132.84054257618
 25
-143.89076212027
1001
ACAD
1000
DSTYLE
1002
{
1070
   280
1070
     1
1002
}
  0
DIMENSION
  5
34A
100
AcDbEntity
  8
4
  6
CONTINUOUS
 62
     2
100
AcDbDimension
  2
*D9
 10
29.5294463667982
 20
-201.856880288781
 11
12.5434787205185
 21
-206.912215856407
 70
    35
  3
ISO-25
100
AcDbDiametricDimension
 15
130.470553633202
 25
-158.143119711219
1001
ACAD
1000
DSTYLE
1002
{
1070
   280
1070
     1
1002
}
  0
ARC
  5
34B
100
AcDbEntity
  8
8
  6
PHANTOM
 62
     7
100
AcDbCircle
 10
80.0000000000001
 20
-180.000000000001
 40
64.0
100
AcDbArc
 50
211.502278147987
 51
263.150295022511
  0
ARC
  5
34C
100
AcDbEntity
  8
8
  6
PHANTOM
 62
     7
100
AcDbCircle
 10
80.0000000000001
 20
-180.000000000001
 40
55.0
100
AcDbArc
 50
159.771973502242
 51
207.289493026941
  0
DIMENSION
  5
35C
100
AcDbEntity
  8
4
  6
CONTINUOUS
 62
     2
100
AcDbDimension
  2
*D10
 10
21.4068969833997
 20
-70.0000000000011
 11
80.0
 21
-70.0000000000011
 70
    32
  3
ISO-25
100
AcDbAlignedDimension
 13
138.5931030166
 23
-154.2541599693
 14
21.4068969833997
 24
-154.2541599693
 50
180.0
100
AcDbRotatedDimension
  0
MTEXT
  5
35D
100
AcDbEntity
  8
4
  6
CONTINUOUS
 62
     2
100
AcDbMText
 10
104.603004833759
 20
-251.155753553794
 40
3.5
 41
0.0
 11
1.0
 21
0.0
 71
     7
 72
     5
  7
STANDARD
  1
{\T1.60714;\W0.666667;3-M10}
  0
LINE
  5
35E
100
AcDbEntity
  8
4
  6
CONTINUOUS
 62
     2
100
AcDbLine
 10
83.8516939550562
 20
-228.92612451109
 11
104.103004833759
 21
-251.655753553794
  0
LINE
  5
35F
100
AcDbEntity
  8
4
  6
CONTINUOUS
 62
     2
100
AcDbLine
 10
104.103004833759
 20
-251.655753553794
 11
117.353004833759
 21
-251.655753553794
  0
INSERT
  5
360
100
AcDbEntity
  8
4
  6
CONTINUOUS
 62
     2
100
AcDbBlockReference
  2
MARK1_1
 10
83.8516939550562
 20
-228.92612451109
 41
2.0
 42
2.0
 50
311.699929899831
  0
ARC
  5
362
100
AcDbEntity
  8
2
  6
CONTINUOUS
100
AcDbCircle
 10
80.0000000000001
 20
-235.0
 40
6.5
100
AcDbArc
 50
0.0
 51
3.38763310556686
  0
ARC
  5
363
100
AcDbEntity
  8
2
  6
CONTINUOUS
100
AcDbCircle
 10
80.0000000000001
 20
-235.0
 40
6.5
100
AcDbArc
 50
176.612366894433
 51
0.0
  0
ARC
  5
364
100
AcDbEntity
  8
2
  6
CONTINUOUS
100
AcDbCircle
 10
80.0000000000001
 20
-235.0
 40
5.65
100
AcDbArc
 50
0.0
 51
2.94421513584225
  0
ARC
  5
365
100
AcDbEntity
  8
2
  6
CONTINUOUS
100
AcDbCircle
 10
80.0000000000001
 20
-235.0
 40
5.64999999999998
100
AcDbArc
 50
177.055784864158
 51
0.0
  0
LWPOLYLINE
  5
366
100
AcDbEntity
  8
2
  6
CONTINUOUS
100
AcDbPolyline
 90
        2
 70
     0
 43
0.0
 10
83.4641016151379
 20
-235.0
 10
83.4032528963527
 20
-234.894606927489
  0
LWPOLYLINE
  5
367
100
AcDbEntity
  8
2
  6
CONTINUOUS
100
AcDbPolyline
 90
        5
 70
     0
 43
0.0
 10
76.5967471036475
 20
-234.894606927489
 10
76.5358983848623
 20
-235.0
 10
78.2679491924313
 20
-238.0
 10
81.732050807569
 20
-238.0
 10
83.4641016151379
 20
-235.0
  0
ARC
  5
368
100
AcDbEntity
  8
2
  6
CONTINUOUS
100
AcDbCircle
 10
127.631397208143
 20
-152.500000000002
 40
6.5
100
AcDbArc
 50
120.0
 51
123.387633105567
  0
ARC
  5
369
100
AcDbEntity
  8
2
  6
CONTINUOUS
100
AcDbCircle
 10
127.631397208143
 20
-152.500000000002
 40
6.5
100
AcDbArc
 50
296.612366894433
 51
120.0
  0
ARC
  5
36A
100
AcDbEntity
  8
2
  6
CONTINUOUS
100
AcDbCircle
 10
127.631397208143
 20
-152.500000000002
 40
5.65
100
AcDbArc
 50
119.999999999999
 51
122.944215135841
  0
ARC
  5
36B
100
AcDbEntity
  8
2
  6
CONTINUOUS
100
AcDbCircle
 10
127.631397208143
 20
-152.500000000002
 40
5.64999999999998
100
AcDbArc
 50
297.055784864159
 51
119.999999999999
  0
LWPOLYLINE
  5
36C
100
AcDbEntity
  8
2
  6
CONTINUOUS
100
AcDbPolyline
 90
        2
 70
     0
 43
0.0
 10
125.899346400574
 20
-149.500000000002
 10
125.838497681789
 20
-149.605393072513
  0
LWPOLYLINE
  5
36D
100
AcDbEntity
  8
2
  6
CONTINUOUS
100
AcDbPolyline
 90
        5
 70
     0
 43
0.0
 10
129.241750578142
 20
-155.500000000002
 10
129.363448015712
 20
-155.500000000002
 10
131.095498823281
 20
-152.500000000002
 10
129.363448015712
 20
-149.500000000002
 10
125.899346400574
 20
-149.500000000002
  0
ARC
  5
36E
100
AcDbEntity
  8
2
  6
CONTINUOUS
100
AcDbCircle
 10
32.3686027918569
 20
-152.500000000002
 40
6.5
100
AcDbArc
 50
240.0
 51
243.387633105567
  0
ARC
  5
36F
100
AcDbEntity
  8
2
  6
CONTINUOUS
100
AcDbCircle
 10
32.3686027918569
 20
-152.500000000002
 40
6.5
100
AcDbArc
 50
56.6123668944334
 51
240.0
  0
ARC
  5
370
100
AcDbEntity
  8
2
  6
CONTINUOUS
100
AcDbCircle
 10
32.3686027918569
 20
-152.500000000002
 40
5.65
100
AcDbArc
 50
240.0
 51
242.944215135842
  0
ARC
  5
371
100
AcDbEntity
  8
2
  6
CONTINUOUS
100
AcDbCircle
 10
32.3686027918569
 20
-152.500000000002
 40
5.64999999999998
100
AcDbArc
 50
57.0557848641575
 51
240.0
  0
LWPOLYLINE
  5
372
100
AcDbEntity
  8
2
  6
CONTINUOUS
100
AcDbPolyline
 90
        2
 70
     0
 43
0.0
 10
30.636551984288
 20
-155.500000000002
 10
30.7582494218585
 20
-155.500000000002
  0
LWPOLYLINE
  5
373
100
AcDbEntity
  8
2
  6
CONTINUOUS
100
AcDbPolyline
 90
        5
 70
     0
 43
0.0
 10
34.161502318211
 20
-149.605393072513
 10
34.1006535994258
 20
-149.500000000002
 10
30.636551984288
 20
-149.500000000002
 10
28.9045011767191
 20
-152.500000000002
 10
30.636551984288
 20
-155.500000000002
  0
ARC
  5
374
100
AcDbEntity
  8
2
  6
CONTINUOUS
100
AcDbCircle
 10
653.499999999981
 20
-180.000000000001
 40
31.0
100
AcDbArc
 50
0.0
 51
51.3178125465105
  0
ARC
  5
375
100
AcDbEntity
  8
2
  6
CONTINUOUS
100
AcDbCircle
 10
653.499999999981
 20
-180.000000000001
 40
31.0
100
AcDbArc
 50
128.682187453489
 51
0.0
  0
LINE
  5
376
100
AcDbEntity
  8
7
  6
CENTER2
 62
    40
100
AcDbLine
 10
595.755574234869
 20
-180.000000000001
 11
709.326187588889
 21
-180.000000000001
  0
LINE
  5
377
100
AcDbEntity
  8
2
  6
CONTINUOUS
100
AcDbLine
 10
635.999999999981
 20
-146.000000000001
 11
670.999999999981
 21
-146.000000000001
  0
LINE
  5
378
100
AcDbEntity
  8
2
  6
CONTINUOUS
100
AcDbLine
 10
635.999999999981
 20
-151.897509007208
 11
635.999999999981
 21
-146.000000000001
  0
LINE
  5
379
100
AcDbEntity
  8
2
  6
CONTINUOUS
100
AcDbLine
 10
670.999999999981
 20
-151.897509007208
 11
670.999999999981
 21
-146.000000000001
  0
LINE
  5
37A
100
AcDbEntity
  8
2
  6
CONTINUOUS
100
AcDbLine
 10
661.799999999981
 20
-137.000000000002
 11
653.499999999981
 21
-137.000000000002
  0
LINE
  5
37B
100
AcDbEntity
  8
2
  6
CONTINUOUS
100
AcDbLine
 10
664.799999999981
 20
-146.000000000002
 11
664.799999999981
 21
-140.000000000002
  0
ARC
  5
37C
100
AcDbEntity
  8
2
  6
CONTINUOUS
100
AcDbCircle
 10
661.799999999981
 20
-140.000000000002
 40
2.99999999999994
100
AcDbArc
 50
0.0
 51
90.0
  0
LINE
  5
37D
100
AcDbEntity
  8
2
  6
CONTINUOUS
100
AcDbLine
 10
645.199999999981
 20
-137.000000000002
 11
653.499999999981
 21
-137.000000000002
  0
LINE
  5
37E
100
AcDbEntity
  8
2
  6
CONTINUOUS
100
AcDbLine
 10
642.199999999981
 20
-146.000000000002
 11
642.199999999981
 21
-140.000000000002
  0
ARC
  5
37F
100
AcDbEntity
  8
2
  6
CONTINUOUS
100
AcDbCircle
 10
645.199999999981
 20
-140.000000000002
 40
2.99999999999994
100
AcDbArc
 50
90.0
 51
180.0
  0
LINE
  5
380
100
AcDbEntity
  8
2
  6
CONTINUOUS
100
AcDbLine
 10
635.999999999981
 20
-148.000000000001
 11
670.999999999981
 21
-148.000000000001
  0
LINE
  5
381
100
AcDbEntity
  8
2
  6
CONTINUOUS
100
AcDbLine
 10
635.999999999981
 20
-149.000000000001
 11
670.999999999981
 21
-149.000000000001
  0
INSERT
  5
383
100
AcDbEntity
  8
2
  6
CONTINUOUS
100
AcDbBlockReference
  2
SUB17
 10
653.499999999981
 20
-211.000000000001
 41
1.0
 42
1.0
 50
0.0
  0
INSERT
  5
391
100
AcDbEntity
  8
2
  6
CONTINUOUS
100
AcDbBlockReference
  2
SUB18
 10
680.346787517298
 20
-164.500000000001
 41
1.0
 42
1.0
 50
0.0
  0
LINE
  5
39E
100
AcDbEntity
  8
7
  6
CENTER2
 62
    40
100
AcDbLine
 10
711.970123099233
 20
-146.242258689098
 11
653.499999999981
 21
-180.000000000001
  0
INSERT
  5
3A0
100
AcDbEntity
  8
2
  6
CONTINUOUS
100
AcDbBlockReference
  2
SUB19
 10
626.653212482663
 20
-164.500000000001
 41
1.0
 42
1.0
 50
0.0
  0
LINE
  5
3AD
100
AcDbEntity
  8
7
  6
CENTER2
 62
    40
100
AcDbLine
 10
596.363470326772
 20
-147.012209212613
 11
653.499999999981
 21
-180.000000000001
  0
ARC
  5
3AE
100
AcDbEntity
  8
2
  6
CONTINUOUS
100
AcDbCircle
 10
630.999999999981
 20
-151.897509007208
 40
5.0
100
AcDbArc
 50
308.682187453489
 51
0.0
  0
ARC
  5
3AF
100
AcDbEntity
  8
2
  6
CONTINUOUS
100
AcDbCircle
 10
675.999999999981
 20
-151.897509007208
 40
5.0
100
AcDbArc
 50
180.0
 51
231.317812546511
  0
INSERT
  5
3B1
100
AcDbEntity
  8
0
  6
CONTINUOUS
100
AcDbBlockReference
  2
M6_0004
 10
653.499999999981
 20
-218.000000000001
 41
1.0
 42
1.0
 50
0.0
  0
ARC
  5
3B6
100
AcDbEntity
  8
2
  6
CONTINUOUS
100
AcDbCircle
 10
653.499999999981
 20
-180.000000000001
 40
43.9999999999998
100
AcDbArc
 50
76.8634412130557
 51
81.8995451763709
  0
ARC
  5
3B7
100
AcDbEntity
  8
2
  6
CONTINUOUS
100
AcDbCircle
 10
653.499999999981
 20
-180.000000000001
 40
43.9999999999999
100
AcDbArc
 50
98.1004548236294
 51
103.136558786945
  0
ARC
  5
3B8
100
AcDbEntity
  8
2
  6
CONTINUOUS
100
AcDbCircle
 10
653.499999999981
 20
-180.000000000001
 40
43.9999999999999
100
AcDbArc
 50
256.863441213055
 51
283.136558786944
  0
LINE
  5
3B9
100
AcDbEntity
  8
2
  6
CONTINUOUS
100
AcDbLine
 10
663.499999999981
 20
-222.848570571258
 11
679.887568081085
 21
-196.269488337532
  0
LINE
  5
3BA
100
AcDbEntity
  8
2
  6
CONTINUOUS
100
AcDbLine
 10
643.499999999981
 20
-222.848570571258
 11
627.112431918876
 21
-196.269488337532
  0
LINE
  5
3BB
100
AcDbEntity
  8
2
  6
CONTINUOUS
100
AcDbLine
 10
643.499999999981
 20
-137.151429428744
 11
638.044335602625
 21
-146.000000000001
  0
LINE
  5
3BC
100
AcDbEntity
  8
2
  6
CONTINUOUS
100
AcDbLine
 10
635.999999999981
 20
-149.315718587841
 11
627.112431918876
 21
-163.73051166247
  0
LINE
  5
3BD
100
AcDbEntity
  8
2
  6
CONTINUOUS
100
AcDbLine
 10
663.499999999981
 20
-137.151429428744
 11
668.955664397337
 21
-146.000000000001
  0
LINE
  5
3BE
100
AcDbEntity
  8
2
  6
CONTINUOUS
100
AcDbLine
 10
670.999999999981
 20
-149.315718587842
 11
679.887568081085
 21
-163.73051166247
  0
ARC
  5
3BF
100
AcDbEntity
  8
2
  6
CONTINUOUS
100
AcDbCircle
 10
653.499999999981
 20
-180.000000000001
 40
64.0
100
AcDbArc
 50
263.720711677442
 51
276.279288322558
  0
ARC
  5
3C0
100
AcDbEntity
  8
2
  6
CONTINUOUS
100
AcDbCircle
 10
653.499999999981
 20
-180.000000000001
 40
64.0
100
AcDbArc
 50
23.720711677501
 51
36.2792883226127
  0
ARC
  5
3C1
100
AcDbEntity
  8
2
  6
CONTINUOUS
100
AcDbCircle
 10
653.499999999981
 20
-180.000000000001
 40
64.0
100
AcDbArc
 50
143.720711677388
 51
156.279288322499
  0
LINE
  5
3C2
100
AcDbEntity
  8
2
  6
CONTINUOUS
100
AcDbLine
 10
634.113765151381
 20
-133.500000000001
 11
601.90689698338
 21
-142.129804316301
  0
LINE
  5
3C3
100
AcDbEntity
  8
2
  6
CONTINUOUS
100
AcDbLine
 10
685.999999999981
 20
-133.500000000001
 11
659.699999999981
 21
-133.500000000001
  0
LINE
  5
3C4
100
AcDbEntity
  8
2
  6
CONTINUOUS
100
AcDbLine
 10
647.299999999981
 20
-133.500000000001
 11
620.999999999981
 21
-133.500000000001
  0
LINE
  5
3C5
100
AcDbEntity
  8
2
  6
CONTINUOUS
100
AcDbLine
 10
672.886234848481
 20
-133.500000000001
 11
705.093103016581
 21
-142.129804316301
  0
LINE
  5
3C6
100
AcDbEntity
  8
2
  6
CONTINUOUS
100
AcDbLine
 10
703.463298700181
 20
-186.461028137401
 11
712.093103016581
 21
-154.254159969301
  0
LINE
  5
3C7
100
AcDbEntity
  8
2
  6
CONTINUOUS
100
AcDbLine
 10
684.077063851681
 20
-220.038971862501
 11
703.463298700181
 21
-186.461028137401
  0
LINE
  5
3C8
100
AcDbEntity
  8
2
  6
CONTINUOUS
100
AcDbLine
 10
684.077063851681
 20
-220.038971862501
 11
660.499999999981
 21
-243.616035714201
  0
LINE
  5
3C9
100
AcDbEntity
  8
2
  6
CONTINUOUS
100
AcDbLine
 10
622.922936148281
 20
-220.038971862501
 11
646.499999999981
 21
-243.616035714201
  0
LINE
  5
3CA
100
AcDbEntity
  8
2
  6
CONTINUOUS
100
AcDbLine
 10
603.536701299681
 20
-186.461028137401
 11
622.922936148281
 21
-220.038971862501
  0
LINE
  5
3CB
100
AcDbEntity
  8
2
  6
CONTINUOUS
100
AcDbLine
 10
603.536701299681
 20
-186.461028137401
 11
594.90689698338
 21
-154.254159969301
  0
ARC
  5
3CC
100
AcDbEntity
  8
2
  6
CONTINUOUS
100
AcDbCircle
 10
653.499999999981
 20
-180.000041242513
 40
47.0000000000005
100
AcDbArc
 50
22.7736246142744
 51
37.226495494355
  0
ARC
  5
3CD
100
AcDbEntity
  8
2
  6
CONTINUOUS
100
AcDbCircle
 10
653.499999999981
 20
-180.000041242513
 40
47.0
100
AcDbArc
 50
142.773506073307
 51
157.22637614998
  0
ARC
  5
3CE
100
AcDbEntity
  8
2
  6
CONTINUOUS
100
AcDbCircle
 10
653.499999999981
 20
-180.000041242513
 40
47.0
100
AcDbArc
 50
262.77362657159
 51
277.226374996069
  0
LINE
  5
3CF
100
AcDbEntity
  8
2
  6
CONTINUOUS
100
AcDbLine
 10
685.919395941547
 20
-191.799735536288
 11
696.83594813472
 21
-161.806754887247
  0
LINE
  5
3D0
100
AcDbEntity
  8
2
  6
CONTINUOUS
100
AcDbLine
 10
679.928532792027
 20
-202.176214449916
 11
666.042343379873
 21
-218.725130569294
  0
LINE
  5
3D1
100
AcDbEntity
  8
2
  6
CONTINUOUS
100
AcDbLine
 10
662.375058871512
 20
-223.095630057199
 11
659.412125711329
 21
-226.626716295463
  0
ARC
  5
3D2
100
AcDbEntity
  8
2
  6
CONTINUOUS
100
AcDbCircle
 10
653.499999999981
 20
-180.000000000001
 40
34.5000000000002
100
AcDbArc
 50
197.499999999999
 51
222.5
  0
ARC
  5
3D3
100
AcDbEntity
  8
2
  6
CONTINUOUS
100
AcDbCircle
 10
653.499999999981
 20
-180.000000000001
 40
34.4999999999998
100
AcDbArc
 50
317.500000000001
 51
342.500000000001
  0
LINE
  5
3D4
100
AcDbEntity
  8
2
  6
CONTINUOUS
100
AcDbLine
 10
627.071467236829
 20
-202.176213125738
 11
640.957653461638
 21
-218.725125446587
  0
LINE
  5
3D5
100
AcDbEntity
  8
2
  6
CONTINUOUS
100
AcDbLine
 10
644.624942506611
 20
-223.095630341016
 11
647.587874317526
 21
-226.626714971285
  0
LINE
  5
3D6
100
AcDbEntity
  8
2
  6
CONTINUOUS
100
AcDbLine
 10
621.080604087309
 20
-191.799736860466
 11
610.164051894136
 21
-161.806756211425
  0
LINE
  5
3D7
100
AcDbEntity
  8
2
  6
CONTINUOUS
100
AcDbLine
 10
635.999999999981
 20
-148.053477966039
 11
616.076143181061
 21
-151.566591482986
  0
LINE
  5
3D8
100
AcDbEntity
  8
2
  6
CONTINUOUS
100
AcDbLine
 10
670.999999999981
 20
-148.053477079268
 11
690.923857951227
 21
-151.566590795875
  0
ARC
  5
3D9
100
AcDbEntity
  8
2
  6
CONTINUOUS
100
AcDbCircle
 10
653.499999999981
 20
-180.000000000001
 40
49.000000000001
100
AcDbArc
 50
0.0
 51
71.6188108858861
  0
ARC
  5
3DA
100
AcDbEntity
  8
2
  6
CONTINUOUS
100
AcDbCircle
 10
653.499999999981
 20
-180.000000000001
 40
49.000000000001
100
AcDbArc
 50
108.381189114114
 51
191.618810885972
  0
ARC
  5
3DB
100
AcDbEntity
  8
2
  6
CONTINUOUS
100
AcDbCircle
 10
653.499999999981
 20
-180.000000000001
 40
49.000000000001
100
AcDbArc
 50
228.381189114232
 51
311.618810885734
  0
ARC
  5
3DC
100
AcDbEntity
  8
2
  6
CONTINUOUS
100
AcDbCircle
 10
653.499999999981
 20
-180.000000000001
 40
49.000000000001
100
AcDbArc
 50
348.381189114318
 51
0.0
  0
ARC
  5
3DD
100
AcDbEntity
  8
2
  6
CONTINUOUS
100
AcDbCircle
 10
688.141016151358
 20
-160.000000000001
 40
6.5
100
AcDbArc
 50
120.0
 51
184.971000512385
  0
ARC
  5
3DE
100
AcDbEntity
  8
2
  6
CONTINUOUS
100
AcDbCircle
 10
688.141016151358
 20
-160.000000000001
 40
6.50000000000001
100
AcDbArc
 50
235.028999487616
 51
120.0
  0
ARC
  5
3DF
100
AcDbEntity
  8
2
  6
CONTINUOUS
100
AcDbCircle
 10
688.141016151358
 20
-160.000000000001
 40
5.64999999999995
100
AcDbArc
 50
119.999999999998
 51
180.874404809367
  0
ARC
  5
3E0
100
AcDbEntity
  8
2
  6
CONTINUOUS
100
AcDbCircle
 10
688.141016151358
 20
-160.000000000001
 40
5.64999999999998
100
AcDbArc
 50
180.874404809367
 51
189.7271285341
  0
ARC
  5
3E1
100
AcDbEntity
  8
2
  6
CONTINUOUS
100
AcDbCircle
 10
688.141016151358
 20
-160.000000000001
 40
5.64999999999997
100
AcDbArc
 50
230.2728714659
 51
239.125595190635
  0
ARC
  5
3E2
100
AcDbEntity
  8
2
  6
CONTINUOUS
100
AcDbCircle
 10
688.141016151358
 20
-160.000000000001
 40
5.65
100
AcDbArc
 50
239.125595190635
 51
119.999999999998
  0
LWPOLYLINE
  5
3E3
100
AcDbEntity
  8
2
  6
CONTINUOUS
100
AcDbPolyline
 90
        6
 70
     1
 43
0.0
 10
686.40896534379
 20
-157.000000000001
 10
684.676914536221
 20
-160.000000000001
 10
686.40896534379
 20
-163.000000000001
 10
689.873066958927
 20
-163.000000000001
 10
691.605117766496
 20
-160.000000000001
 10
689.873066958927
 20
-157.000000000001
  0
ARC
  5
3E4
100
AcDbEntity
  8
2
  6
CONTINUOUS
100
AcDbCircle
 10
618.858983848603
 20
-160.000000000001
 40
6.5
100
AcDbArc
 50
240.0
 51
304.971000512386
  0
ARC
  5
3E5
100
AcDbEntity
  8
2
  6
CONTINUOUS
100
AcDbCircle
 10
618.858983848603
 20
-160.000000000001
 40
6.50000000000001
100
AcDbArc
 50
355.028999487615
 51
240.0
  0
ARC
  5
3E6
100
AcDbEntity
  8
2
  6
CONTINUOUS
100
AcDbCircle
 10
618.858983848603
 20
-160.000000000001
 40
5.65
100
AcDbArc
 50
240.000000000002
 51
300.874404809367
  0
ARC
  5
3E7
100
AcDbEntity
  8
2
  6
CONTINUOUS
100
AcDbCircle
 10
618.858983848603
 20
-160.000000000001
 40
5.65
100
AcDbArc
 50
300.874404809367
 51
309.7271285341
  0
ARC
  5
3E8
100
AcDbEntity
  8
2
  6
CONTINUOUS
100
AcDbCircle
 10
618.858983848603
 20
-160.000000000001
 40
5.64999999999997
100
AcDbArc
 50
350.2728714659
 51
359.125595190633
  0
ARC
  5
3E9
100
AcDbEntity
  8
2
  6
CONTINUOUS
100
AcDbCircle
 10
618.858983848603
 20
-160.000000000001
 40
5.64999999999998
100
AcDbArc
 50
359.125595190633
 51
240.000000000001
  0
LWPOLYLINE
  5
3EA
100
AcDbEntity
  8
2
  6
CONTINUOUS
100
AcDbPolyline
 90
        6
 70
     1
 43
0.0
 10
617.126933041035
 20
-163.000000000001
 10
620.591034656173
 20
-163.000000000001
 10
622.323085463741
 20
-160.000000000001
 10
620.591034656173
 20
-157.000000000001
 10
617.126933041035
 20
-157.000000000001
 10
615.394882233466
 20
-160.000000000001
  0
ARC
  5
3EB
100
AcDbEntity
  8
2
  6
CONTINUOUS
100
AcDbCircle
 10
653.499999999981
 20
-220.000000000001
 40
6.49999999999998
100
AcDbArc
 50
214.395614481803
 51
325.604385518196
  0
LINE
  5
3EC
100
AcDbEntity
  8
6
  6
CENTER
100
AcDbLine
 10
681.999999999981
 20
-111.000000000002
 11
623.499999999981
 21
-111.000000000002
  0
LINE
  5
3ED
100
AcDbEntity
  8
6
  6
CENTER
100
AcDbLine
 10
637.499999999981
 20
-89.0000000000021
 11
637.499999999981
 21
-131.000000000002
  0
LINE
  5
3EE
100
AcDbEntity
  8
7
  6
CENTER2
 62
    40
100
AcDbLine
 10
667.999999999981
 20
-124.750000000002
 11
667.999999999981
 21
-97.2500000000021
  0
LINE
  5
3EF
100
AcDbEntity
  8
7
  6
CENTER2
 62
    40
100
AcDbLine
 10
648.999999999981
 20
-96.6545506117592
 11
648.999999999981
 21
-127.483571941804
  0
LINE
  5
3F0
100
AcDbEntity
  8
2
  6
CONTINUOUS
100
AcDbLine
 10
625.999999999981
 20
-96.5000000000021
 11
647.299999999981
 21
-96.5000000000021
  0
LINE
  5
3F1
100
AcDbEntity
  8
2
  6
CONTINUOUS
100
AcDbLine
 10
625.999999999981
 20
-125.500000000002
 11
647.299999999981
 21
-125.500000000002
  0
LINE
  5
3F2
100
AcDbEntity
  8
2
  6
CONTINUOUS
100
AcDbLine
 10
622.999999999981
 20
-99.5000000000021
 11
622.999999999981
 21
-122.500000000002
  0
LINE
  5
3F3
100
AcDbEntity
  8
7
  6
CENTER2
 62
    40
100
AcDbLine
 10
622.070607821065
 20
-99.5000000000021
 11
652.89962915111
 21
-99.5000000000021
  0
LINE
  5
3F4
100
AcDbEntity
  8
7
  6
CENTER2
 62
    40
100
AcDbLine
 10
622.070607821065
 20
-122.500000000002
 11
652.89962915111
 21
-122.500000000002
  0
LINE
  5
3F5
100
AcDbEntity
  8
7
  6
CENTER2
 62
    40
100
AcDbLine
 10
625.999999999981
 20
-95.6545506117592
 11
625.999999999981
 21
-126.483571941804
  0
ARC
  5
3F6
100
AcDbEntity
  8
2
  6
CONTINUOUS
100
AcDbCircle
 10
625.999999999981
 20
-99.5000000000021
 40
3.0
100
AcDbArc
 50
90.0
 51
180.0
  0
ARC
  5
3F7
100
AcDbEntity
  8
2
  6
CONTINUOUS
100
AcDbCircle
 10
625.999999999981
 20
-122.500000000002
 40
3.0
100
AcDbArc
 50
180.0
 51
270.0
  0
ARC
  5
3F8
100
AcDbEntity
  8
2
  6
CONTINUOUS
100
AcDbCircle
 10
637.499999999981
 20
-111.000000000002
 40
13.0
100
AcDbArc
 50
41.0753488744019
 51
318.924651125598
  0
ARC
  5
3F9
100
AcDbEntity
  8
2
  6
CONTINUOUS
100
AcDbCircle
 10
637.499999999981
 20
-111.000000000002
 40
12.5
100
AcDbArc
 50
38.3717151470568
 51
321.628284852943
  0
ARC
  5
3FA
100
AcDbEntity
  8
2
  6
CONTINUOUS
100
AcDbCircle
 10
637.499999999981
 20
-111.000000000002
 40
11.8
100
AcDbArc
 50
33.8489938853152
 51
325.574076821685
  0
INSERT
  5
3FC
100
AcDbEntity
  8
2
  6
CONTINUOUS
100
AcDbBlockReference
  2
SUB20
 10
625.999999999981
 20
-99.5000000000021
 41
1.0
 42
1.0
 50
0.0
  0
INSERT
  5
403
100
AcDbEntity
  8
2
  6
CONTINUOUS
100
AcDbBlockReference
  2
SUB21
 10
625.999999999981
 20
-122.500000000002
 41
1.0
 42
1.0
 50
0.0
  0
ARC
  5
409
100
AcDbEntity
  8
2
  6
CONTINUOUS
100
AcDbCircle
 10
637.499999999981
 20
-111.000000000002
 40
4.3
100
AcDbArc
 50
90.0
 51
270.0
  0
ARC
  5
40A
100
AcDbEntity
  8
2
  6
CONTINUOUS
100
AcDbCircle
 10
637.499999999981
 20
-111.500000000002
 40
11.5
100
AcDbArc
 50
31.5510906928881
 51
177.50809363102
  0
ARC
  5
40B
100
AcDbEntity
  8
2
  6
CONTINUOUS
100
AcDbCircle
 10
637.499999999981
 20
-110.500000000002
 40
11.5
100
AcDbArc
 50
182.49190636898
 51
325.669776004599
  0
LINE
  5
40C
100
AcDbEntity
  8
2
  6
CONTINUOUS
100
AcDbLine
 10
637.499999999981
 20
-106.700000000002
 11
644.299999999981
 21
-106.700000000002
  0
LINE
  5
40D
100
AcDbEntity
  8
2
  6
CONTINUOUS
100
AcDbLine
 10
637.499999999981
 20
-115.300000000002
 11
644.299999999981
 21
-115.300000000002
  0
ARC
  5
40E
100
AcDbEntity
  8
2
  6
CONTINUOUS
100
AcDbCircle
 10
644.299999999981
 20
-118.300000000002
 40
3.0
100
AcDbArc
 50
0.0
 51
90.0
  0
ARC
  5
40F
100
AcDbEntity
  8
2
  6
CONTINUOUS
100
AcDbCircle
 10
644.299999999981
 20
-118.300000000002
 40
11.6
100
AcDbArc
 50
75.0117655176949
 51
90.0
  0
LINE
  5
410
100
AcDbEntity
  8
7
  6
CENTER2
 62
    40
100
AcDbLine
 10
685.397073014933
 20
-98.0000000000021
 11
651.325718315034
 21
-98.0000000000021
  0
LINE
  5
411
100
AcDbEntity
  8
7
  6
CENTER2
 62
    40
100
AcDbLine
 10
685.121987106168
 20
-124.000000000002
 11
651.404314288967
 21
-124.000000000002
  0
LINE
  5
412
100
AcDbEntity
  8
7
  6
CENTER2
 62
    40
100
AcDbLine
 10
680.999999999981
 20
-128.063905190069
 11
680.999999999981
 21
-93.481676659606
  0
LINE
  5
413
100
AcDbEntity
  8
7
  6
CENTER2
 62
    40
100
AcDbLine
 10
654.999999999981
 20
-129.142501164001
 11
654.999999999981
 21
-94.7960605553374
  0
LINE
  5
414
100
AcDbEntity
  8
2
  6
CONTINUOUS
100
AcDbLine
 10
683.999999999981
 20
-124.000000000002
 11
683.999999999981
 21
-98.0000000000021
  0
INSERT
  5
416
100
AcDbEntity
  8
2
  6
CONTINUOUS
100
AcDbBlockReference
  2
SUB22
 10
680.999999999981
 20
-98.0000000000021
 41
1.0
 42
1.0
 50
0.0
  0
INSERT
  5
41D
100
AcDbEntity
  8
2
  6
CONTINUOUS
100
AcDbBlockReference
  2
SUB23
 10
680.999999999981
 20
-124.000000000002
 41
1.0
 42
1.0
 50
0.0
  0
ARC
  5
423
100
AcDbEntity
  8
2
  6
CONTINUOUS
100
AcDbCircle
 10
680.999999999981
 20
-98.0000000000021
 40
3.0
100
AcDbArc
 50
0.0
 51
90.0
  0
ARC
  5
424
100
AcDbEntity
  8
2
  6
CONTINUOUS
100
AcDbCircle
 10
680.999999999981
 20
-124.000000000002
 40
3.0
100
AcDbArc
 50
270.0
 51
0.0
  0
LINE
  5
425
100
AcDbEntity
  8
2
  6
CONTINUOUS
100
AcDbLine
 10
659.699999999981
 20
-127.000000000002
 11
680.999999999981
 21
-127.000000000002
  0
LINE
  5
426
100
AcDbEntity
  8
2
  6
CONTINUOUS
100
AcDbLine
 10
683.999999999981
 20
-128.500000000002
 11
659.699999999981
 21
-128.500000000002
  0
LINE
  5
427
100
AcDbEntity
  8
2
  6
CONTINUOUS
100
AcDbLine
 10
647.299999999981
 20
-128.500000000002
 11
622.999999999981
 21
-128.500000000002
  0
LINE
  5
428
100
AcDbEntity
  8
2
  6
CONTINUOUS
100
AcDbLine
 10
683.999999999981
 20
-128.500000000002
 11
685.999999999981
 21
-126.500000000002
  0
LINE
  5
429
100
AcDbEntity
  8
2
  6
CONTINUOUS
100
AcDbLine
 10
622.999999999981
 20
-128.500000000002
 11
620.999999999981
 21
-126.500000000002
  0
ARC
  5
42A
100
AcDbEntity
  8
2
  6
CONTINUOUS
100
AcDbCircle
 10
667.999999999981
 20
-111.000000000002
 40
12.5
100
AcDbArc
 50
0.0
 51
131.605653783917
  0
ARC
  5
42B
100
AcDbEntity
  8
2
  6
CONTINUOUS
100
AcDbCircle
 10
667.999999999981
 20
-111.000000000002
 40
12.5
100
AcDbArc
 50
228.394346216083
 51
0.0
  0
ARC
  5
42C
100
AcDbEntity
  8
2
  6
CONTINUOUS
100
AcDbCircle
 10
667.999999999981
 20
-111.000000000002
 40
13.0
100
AcDbArc
 50
0.0
 51
129.677195725332
  0
ARC
  5
42D
100
AcDbEntity
  8
2
  6
CONTINUOUS
100
AcDbCircle
 10
667.999999999981
 20
-111.000000000002
 40
13.0
100
AcDbArc
 50
230.322804274668
 51
0.0
  0
CIRCLE
  5
42E
100
AcDbEntity
  8
2
  6
CONTINUOUS
100
AcDbCircle
 10
667.999999999981
 20
-105.000000000002
 40
1.0
  0
CIRCLE
  5
42F
100
AcDbEntity
  8
2
  6
CONTINUOUS
100
AcDbCircle
 10
671.999999999981
 20
-105.000000000002
 40
1.0
  0
CIRCLE
  5
430
100
AcDbEntity
  8
2
  6
CONTINUOUS
100
AcDbCircle
 10
671.999999999981
 20
-105.000000000002
 40
0.7
  0
CIRCLE
  5
431
100
AcDbEntity
  8
2
  6
CONTINUOUS
100
AcDbCircle
 10
667.999999999981
 20
-105.000000000002
 40
0.7
  0
CIRCLE
  5
432
100
AcDbEntity
  8
2
  6
CONTINUOUS
100
AcDbCircle
 10
663.999999999981
 20
-105.000000000002
 40
1.0
  0
CIRCLE
  5
433
100
AcDbEntity
  8
2
  6
CONTINUOUS
100
AcDbCircle
 10
663.999999999981
 20
-105.000000000002
 40
0.7
  0
CIRCLE
  5
434
100
AcDbEntity
  8
2
  6
CONTINUOUS
100
AcDbCircle
 10
667.999999999981
 20
-117.000000000002
 40
1.0
  0
CIRCLE
  5
435
100
AcDbEntity
  8
2
  6
CONTINUOUS
100
AcDbCircle
 10
671.999999999981
 20
-117.000000000002
 40
1.0
  0
CIRCLE
  5
436
100
AcDbEntity
  8
2
  6
CONTINUOUS
100
AcDbCircle
 10
667.999999999981
 20
-117.000000000002
 40
0.7
  0
CIRCLE
  5
437
100
AcDbEntity
  8
2
  6
CONTINUOUS
100
AcDbCircle
 10
671.999999999981
 20
-117.000000000002
 40
0.7
  0
CIRCLE
  5
438
100
AcDbEntity
  8
2
  6
CONTINUOUS
100
AcDbCircle
 10
663.999999999981
 20
-117.000000000002
 40
1.0
  0
CIRCLE
  5
439
100
AcDbEntity
  8
2
  6
CONTINUOUS
100
AcDbCircle
 10
663.999999999981
 20
-117.000000000002
 40
0.7
  0
CIRCLE
  5
43A
100
AcDbEntity
  8
2
  6
CONTINUOUS
100
AcDbCircle
 10
670.999999999981
 20
-111.000000000002
 40
1.0
  0
CIRCLE
  5
43B
100
AcDbEntity
  8
2
  6
CONTINUOUS
100
AcDbCircle
 10
670.999999999981
 20
-111.000000000002
 40
0.7
  0
CIRCLE
  5
43C
100
AcDbEntity
  8
2
  6
CONTINUOUS
100
AcDbCircle
 10
675.999999999981
 20
-111.000000000002
 40
1.0
  0
CIRCLE
  5
43D
100
AcDbEntity
  8
2
  6
CONTINUOUS
100
AcDbCircle
 10
675.999999999981
 20
-111.000000000002
 40
0.7
  0
CIRCLE
  5
43E
100
AcDbEntity
  8
2
  6
CONTINUOUS
100
AcDbCircle
 10
664.999999999981
 20
-111.000000000002
 40
1.0
  0
CIRCLE
  5
43F
100
AcDbEntity
  8
2
  6
CONTINUOUS
100
AcDbCircle
 10
664.999999999981
 20
-111.000000000002
 40
0.7
  0
ARC
  5
440
100
AcDbEntity
  8
2
  6
CONTINUOUS
100
AcDbCircle
 10
659.999999999981
 20
-111.000000000002
 40
1.0
100
AcDbArc
 50
0.0
 51
107.457603123732
  0
ARC
  5
441
100
AcDbEntity
  8
2
  6
CONTINUOUS
100
AcDbCircle
 10
659.999999999981
 20
-111.000000000002
 40
1.00000000000003
100
AcDbArc
 50
252.542396876268
 51
0.0
  0
ARC
  5
442
100
AcDbEntity
  8
2
  6
CONTINUOUS
100
AcDbCircle
 10
659.999999999981
 20
-111.000000000002
 40
0.700000000000045
100
AcDbArc
 50
0.0
 51
115.376933525163
  0
ARC
  5
443
100
AcDbEntity
  8
2
  6
CONTINUOUS
100
AcDbCircle
 10
659.999999999981
 20
-111.000000000002
 40
0.700000000000043
100
AcDbArc
 50
244.623066474837
 51
0.0
  0
LINE
  5
444
100
AcDbEntity
  8
7
  6
CENTER2
 62
    40
100
AcDbLine
 10
653.499999999981
 20
-248.423898613209
 11
653.499999999981
 21
-60.2141949472856
  0
LINE
  5
445
100
AcDbEntity
  8
2
  6
CONTINUOUS
100
AcDbLine
 10
659.699999999981
 20
-96.0000000000011
 11
659.699999999981
 21
-137.000000000002
  0
LINE
  5
446
100
AcDbEntity
  8
2
  6
CONTINUOUS
100
AcDbLine
 10
647.299999999981
 20
-137.000000000002
 11
647.299999999981
 21
-96.0000000000011
  0
CIRCLE
  5
447
100
AcDbEntity
  8
2
  6
CONTINUOUS
100
AcDbCircle
 10
653.499999999981
 20
-80.0000000000011
 40
17.0
  0
LINE
  5
448
100
AcDbEntity
  8
7
  6
CENTER2
 62
    40
100
AcDbLine
 10
634.499999999981
 20
-80.0000000000011
 11
672.499999999981
 21
-80.0000000000011
  0
CIRCLE
  5
449
100
AcDbEntity
  8
2
  6
CONTINUOUS
100
AcDbCircle
 10
653.499999999981
 20
-80.0000000000011
 40
16.0
  0
CIRCLE
  5
44A
100
AcDbEntity
  8
2
  6
CONTINUOUS
100
AcDbCircle
 10
653.499999999981
 20
-80.0000000000011
 40
12.0
  0
CIRCLE
  5
44B
100
AcDbEntity
  8
2
  6
CONTINUOUS
100
AcDbCircle
 10
653.499999999981
 20
-80.0000000000011
 40
11.0
  0
LINE
  5
44C
100
AcDbEntity
  8
2
  6
CONTINUOUS
100
AcDbLine
 10
643.499999999981
 20
-96.0000000000011
 11
647.755437353443
 21
-96.0000000000011
  0
LINE
  5
44D
100
AcDbEntity
  8
2
  6
CONTINUOUS
100
AcDbLine
 10
659.244562646519
 20
-96.0000000000011
 11
663.499999999981
 21
-96.0000000000011
  0
LINE
  5
44E
100
AcDbEntity
  8
2
  6
CONTINUOUS
100
AcDbLine
 10
665.499999999981
 20
-94.0000000000011
 11
665.499999999981
 21
-92.0415945787934
  0
LINE
  5
44F
100
AcDbEntity
  8
2
  6
CONTINUOUS
100
AcDbLine
 10
665.499999999981
 20
-67.9584054212088
 11
665.499999999981
 21
-66.0000000000011
  0
LINE
  5
450
100
AcDbEntity
  8
2
  6
CONTINUOUS
100
AcDbLine
 10
641.499999999981
 20
-94.0000000000011
 11
641.499999999981
 21
-92.0415945787934
  0
LINE
  5
451
100
AcDbEntity
  8
2
  6
CONTINUOUS
100
AcDbLine
 10
641.499999999981
 20
-67.9584054212088
 11
641.499999999981
 21
-66.0000000000011
  0
ARC
  5
452
100
AcDbEntity
  8
2
  6
CONTINUOUS
100
AcDbCircle
 10
663.499999999981
 20
-94.0000000000011
 40
2.0
100
AcDbArc
 50
270.0
 51
0.0
  0
ARC
  5
453
100
AcDbEntity
  8
2
  6
CONTINUOUS
100
AcDbCircle
 10
643.499999999981
 20
-94.0000000000011
 40
2.0
100
AcDbArc
 50
180.0
 51
270.0
  0
CIRCLE
  5
454
100
AcDbEntity
  8
2
  6
CONTINUOUS
100
AcDbCircle
 10
656.499999999981
 20
-87.0000000000011
 40
1.0
  0
CIRCLE
  5
455
100
AcDbEntity
  8
2
  6
CONTINUOUS
100
AcDbCircle
 10
653.499999999981
 20
-72.0000000000011
 40
0.75
  0
CIRCLE
  5
456
100
AcDbEntity
  8
2
  6
CONTINUOUS
100
AcDbCircle
 10
648.911388509173
 20
-73.4467836456892
 40
0.75
  0
CIRCLE
  5
457
100
AcDbEntity
  8
2
  6
CONTINUOUS
100
AcDbCircle
 10
645.982459033694
 20
-77.2638388533957
 40
0.75
  0
CIRCLE
  5
458
100
AcDbEntity
  8
2
  6
CONTINUOUS
100
AcDbCircle
 10
645.982459033694
 20
-82.7361611466064
 40
0.75
  0
CIRCLE
  5
459
100
AcDbEntity
  8
2
  6
CONTINUOUS
100
AcDbCircle
 10
650.499999999981
 20
-80.0000000000011
 40
0.75
  0
CIRCLE
  5
45A
100
AcDbEntity
  8
2
  6
CONTINUOUS
100
AcDbCircle
 10
650.499999999981
 20
-87.0000000000011
 40
1.0
  0
CIRCLE
  5
45B
100
AcDbEntity
  8
2
  6
CONTINUOUS
100
AcDbCircle
 10
656.499999999981
 20
-80.0000000000011
 40
0.75
  0
CIRCLE
  5
45C
100
AcDbEntity
  8
2
  6
CONTINUOUS
100
AcDbCircle
 10
658.08861149079
 20
-73.4467836456892
 40
0.75
  0
CIRCLE
  5
45D
100
AcDbEntity
  8
2
  6
CONTINUOUS
100
AcDbCircle
 10
661.017540966268
 20
-77.2638388533957
 40
0.75
  0
CIRCLE
  5
45E
100
AcDbEntity
  8
2
  6
CONTINUOUS
100
AcDbCircle
 10
661.017540966268
 20
-82.7361611466064
 40
0.75
  0
CIRCLE
  5
45F
100
AcDbEntity
  8
2
  6
CONTINUOUS
100
AcDbCircle
 10
648.911388509173
 20
-73.4467836456892
 40
0.95
  0
CIRCLE
  5
460
100
AcDbEntity
  8
2
  6
CONTINUOUS
100
AcDbCircle
 10
653.499999999981
 20
-72.0000000000011
 40
0.95
  0
CIRCLE
  5
461
100
AcDbEntity
  8
2
  6
CONTINUOUS
100
AcDbCircle
 10
645.982459033694
 20
-77.2638388533957
 40
0.95
  0
CIRCLE
  5
462
100
AcDbEntity
  8
2
  6
CONTINUOUS
100
AcDbCircle
 10
650.499999999981
 20
-80.0000000000011
 40
0.95
  0
CIRCLE
  5
463
100
AcDbEntity
  8
2
  6
CONTINUOUS
100
AcDbCircle
 10
645.982459033694
 20
-82.7361611466064
 40
0.95
  0
CIRCLE
  5
464
100
AcDbEntity
  8
2
  6
CONTINUOUS
100
AcDbCircle
 10
650.499999999981
 20
-87.0000000000011
 40
1.2
  0
CIRCLE
  5
465
100
AcDbEntity
  8
2
  6
CONTINUOUS
100
AcDbCircle
 10
656.499999999981
 20
-87.0000000000011
 40
1.2
  0
CIRCLE
  5
466
100
AcDbEntity
  8
2
  6
CONTINUOUS
100
AcDbCircle
 10
656.499999999981
 20
-80.0000000000011
 40
0.95
  0
CIRCLE
  5
467
100
AcDbEntity
  8
2
  6
CONTINUOUS
100
AcDbCircle
 10
661.017540966268
 20
-82.7361611466064
 40
0.55
  0
CIRCLE
  5
468
100
AcDbEntity
  8
2
  6
CONTINUOUS
100
AcDbCircle
 10
661.017540966268
 20
-77.2638388533957
 40
0.95
  0
CIRCLE
  5
469
100
AcDbEntity
  8
2
  6
CONTINUOUS
100
AcDbCircle
 10
658.08861149079
 20
-73.4467836456892
 40
0.95
  0
LINE
  5
46A
100
AcDbEntity
  8
2
  6
CONTINUOUS
100
AcDbLine
 10
665.232050807549
 20
-95.0000000000021
 11
680.999999999981
 21
-95.0000000000021
  0
LINE
  5
46B
100
AcDbEntity
  8
2
  6
CONTINUOUS
100
AcDbLine
 10
49.5000000000001
 20
-103.5
 11
110.5
 21
-103.5
  0
LINE
  5
46C
100
AcDbEntity
  8
2
  6
CONTINUOUS
100
AcDbLine
 10
112.5
 20
-95.5000000000001
 11
112.5
 21
-127.5
  0
LINE
  5
46D
100
AcDbEntity
  8
2
  6
CONTINUOUS
100
AcDbLine
 10
110.5
 20
-93.5000000000001
 11
112.5
 21
-95.5000000000001
  0
LINE
  5
46E
100
AcDbEntity
  8
2
  6
CONTINUOUS
100
AcDbLine
 10
49.5000000000001
 20
-93.5000000000001
 11
110.5
 21
-93.5000000000001
  0
LINE
  5
46F
100
AcDbEntity
  8
2
  6
CONTINUOUS
100
AcDbLine
 10
47.5000000000001
 20
-95.5000000000001
 11
47.5000000000001
 21
-127.5
  0
LINE
  5
470
100
AcDbEntity
  8
2
  6
CONTINUOUS
100
AcDbLine
 10
49.5000000000001
 20
-93.5000000000001
 11
47.5000000000001
 21
-95.5000000000001
  0
LINE
  5
471
100
AcDbEntity
  8
2
  6
CONTINUOUS
100
AcDbLine
 10
49.5000000000001
 20
-103.5
 11
47.5000000000001
 21
-105.5
  0
LINE
  5
472
100
AcDbEntity
  8
2
  6
CONTINUOUS
100
AcDbLine
 10
110.5
 20
-103.5
 11
112.5
 21
-105.5
  0
LINE
  5
473
100
AcDbEntity
  8
2
  6
CONTINUOUS
100
AcDbLine
 10
47.5000000000001
 20
-133.5
 11
71.5000000000001
 21
-133.5
  0
LINE
  5
474
100
AcDbEntity
  8
2
  6
CONTINUOUS
100
AcDbLine
 10
88.5000000000001
 20
-133.5
 11
112.5
 21
-133.5
  0
LINE
  5
475
100
AcDbEntity
  8
2
  6
CONTINUOUS
100
AcDbLine
 10
72.0000000000001
 20
-133.5
 11
72.0000000000001
 21
-127.5
  0
LINE
  5
476
100
AcDbEntity
  8
2
  6
CONTINUOUS
100
AcDbLine
 10
88.0000000000001
 20
-133.500000000001
 11
88.0000000000001
 21
-127.5
  0
LINE
  5
477
100
AcDbEntity
  8
2
  6
CONTINUOUS
100
AcDbLine
 10
88.0000000000001
 20
-130.5
 11
72.0000000000001
 21
-130.5
  0
ARC
  5
478
100
AcDbEntity
  8
2
  6
CONTINUOUS
100
AcDbCircle
 10
80.0000000000001
 20
-125.001036
 40
2.998964
100
AcDbArc
 50
236.436722899219
 51
303.563277100781
  0
LINE
  5
479
100
AcDbEntity
  8
2
  6
CONTINUOUS
100
AcDbLine
 10
99.3862348485002
 20
-133.5
 11
88.199204602945
 21
-133.5
  0
LINE
  5
47A
100
AcDbEntity
  8
2
  6
CONTINUOUS
100
AcDbLine
 10
71.8007953970553
 20
-133.5
 11
60.6137651514001
 21
-133.5
  0
LINE
  5
47B
100
AcDbEntity
  8
2
  6
CONTINUOUS
100
AcDbLine
 10
47.5000000000001
 20
-127.5
 11
112.5
 21
-127.5
  0
LINE
  5
47C
100
AcDbEntity
  8
2
  6
CONTINUOUS
100
AcDbLine
 10
110.5
 20
-93.5000000000001
 11
110.5
 21
-127.5
  0
LINE
  5
47D
100
AcDbEntity
  8
2
  6
CONTINUOUS
100
AcDbLine
 10
49.5000000000001
 20
-93.5000000000001
 11
49.5000000000001
 21
-127.5
  0
LINE
  5
47E
100
AcDbEntity
  8
2
  6
CONTINUOUS
100
AcDbLine
 10
620.999999999981
 20
-127.500000000002
 11
621.999999999981
 21
-127.500000000002
  0
LINE
  5
47F
100
AcDbEntity
  8
2
  6
CONTINUOUS
100
AcDbLine
 10
684.999999999981
 20
-127.500000000002
 11
685.999999999981
 21
-127.500000000002
  0
LINE
  5
480
100
AcDbEntity
  8
2
  6
CONTINUOUS
100
AcDbLine
 10
685.999999999981
 20
-95.5000000000021
 11
683.999999999981
 21
-93.5000000000021
  0
LINE
  5
481
100
AcDbEntity
  8
2
  6
CONTINUOUS
100
AcDbLine
 10
622.999999999981
 20
-93.5000000000021
 11
641.499999999981
 21
-93.5000000000021
  0
LINE
  5
482
100
AcDbEntity
  8
2
  6
CONTINUOUS
100
AcDbLine
 10
665.499999999981
 20
-93.5000000000021
 11
683.999999999981
 21
-93.5000000000021
  0
LINE
  5
483
100
AcDbEntity
  8
2
  6
CONTINUOUS
100
AcDbLine
 10
622.999999999981
 20
-93.5000000000021
 11
620.999999999981
 21
-95.5000000000021
  0
LINE
  5
484
100
AcDbEntity
  8
2
  6
CONTINUOUS
100
AcDbLine
 10
685.999999999981
 20
-95.5000000000021
 11
685.999999999981
 21
-133.500000000001
  0
LINE
  5
485
100
AcDbEntity
  8
2
  6
CONTINUOUS
100
AcDbLine
 10
620.999999999981
 20
-95.5000000000021
 11
620.999999999981
 21
-133.500000000001
  0
LINE
  5
486
100
AcDbEntity
  8
2
  6
CONTINUOUS
100
AcDbLine
 10
91.0
 20
149.605939930136
 11
91.0
 21
250.394060069864
  0
LINE
  5
487
100
AcDbEntity
  8
2
  6
CONTINUOUS
100
AcDbLine
 10
121.0
 20
196.5
 11
121.0
 21
203.5
  0
LINE
  5
488
100
AcDbEntity
  8
7
  6
CENTER2
 62
    40
100
AcDbLine
 10
128.0
 20
194.0
 11
128.0
 21
206.0
  0
LINE
  5
489
100
AcDbEntity
  8
2
  6
CONTINUOUS
100
AcDbLine
 10
244.49999999998
 20
251.5931030166
 11
235.49999999998
 21
251.5931030166
  0
LINE
  5
48A
100
AcDbEntity
  8
2
  6
CONTINUOUS
100
AcDbLine
 10
91.0
 20
250.394060069864
 11
91.5
 21
250.894060069864
  0
LINE
  5
48B
100
AcDbEntity
  8
2
  6
CONTINUOUS
100
AcDbLine
 10
91.5
 20
243.50515804433
 11
91.0
 21
243.00515804433
  0
LINE
  5
48C
100
AcDbEntity
  8
2
  6
CONTINUOUS
100
AcDbLine
 10
91.5
 20
250.894060069864
 11
91.5
 21
243.50515804433
  0
LINE
  5
48D
100
AcDbEntity
  8
2
  6
CONTINUOUS
100
AcDbLine
 10
235.49999999998
 20
141.4068969834
 11
235.49999999998
 21
148.4068969834
  0
LINE
  5
48E
100
AcDbEntity
  8
2
  6
CONTINUOUS
100
AcDbLine
 10
235.49999999998
 20
251.5931030166
 11
235.49999999998
 21
258.5931030166
  0
LINE
  5
48F
100
AcDbEntity
  8
2
  6
CONTINUOUS
100
AcDbLine
 10
244.49999999998
 20
141.4068969834
 11
244.49999999998
 21
148.4068969834
  0
LINE
  5
490
100
AcDbEntity
  8
2
  6
CONTINUOUS
100
AcDbLine
 10
244.49999999998
 20
251.5931030166
 11
244.49999999998
 21
258.5931030166
  0
LINE
  5
491
100
AcDbEntity
  8
2
  6
CONTINUOUS
100
AcDbLine
 10
235.49999999998
 20
251.5931030166
 11
234.99999999998
 21
251.0931030166
  0
LINE
  5
492
100
AcDbEntity
  8
2
  6
CONTINUOUS
100
AcDbLine
 10
244.49999999998
 20
251.5931030166
 11
244.99999999998
 21
251.0931030166
  0
ARC
  5
493
100
AcDbEntity
  8
2
  6
CONTINUOUS
100
AcDbCircle
 10
126.0
 20
203.5
 40
5.0
100
AcDbArc
 50
90.0
 51
180.0
  0
ARC
  5
494
100
AcDbEntity
  8
2
  6
CONTINUOUS
100
AcDbCircle
 10
126.0
 20
196.5
 40
5.0
100
AcDbArc
 50
180.0
 51
270.0
  0
LINE
  5
495
100
AcDbEntity
  8
2
  6
CONTINUOUS
100
AcDbLine
 10
244.49999999998
 20
148.4068969834
 11
235.49999999998
 21
148.4068969834
  0
LINE
  5
496
100
AcDbEntity
  8
2
  6
CONTINUOUS
100
AcDbLine
 10
91.0
 20
149.605939930136
 11
91.5
 21
149.105939930136
  0
LINE
  5
497
100
AcDbEntity
  8
2
  6
CONTINUOUS
100
AcDbLine
 10
91.5
 20
156.49484195567
 11
91.0
 21
156.99484195567
  0
LINE
  5
498
100
AcDbEntity
  8
2
  6
CONTINUOUS
100
AcDbLine
 10
91.5
 20
156.49484195567
 11
91.5
 21
149.105939930136
  0
LINE
  5
499
100
AcDbEntity
  8
2
  6
CONTINUOUS
100
AcDbLine
 10
244.49999999998
 20
148.4068969834
 11
244.99999999998
 21
148.9068969834
  0
LINE
  5
49A
100
AcDbEntity
  8
2
  6
CONTINUOUS
100
AcDbLine
 10
235.49999999998
 20
148.4068969834
 11
234.99999999998
 21
148.9068969834
  0
LINE
  5
49B
100
AcDbEntity
  8
2
  6
CONTINUOUS
100
AcDbLine
 10
244.49999999998
 20
141.4068969834
 11
235.49999999998
 21
141.4068969834
  0
LINE
  5
49C
100
AcDbEntity
  8
2
  6
CONTINUOUS
100
AcDbLine
 10
244.99999999998
 20
141.9068969834
 11
244.49999999998
 21
141.4068969834
  0
LINE
  5
49D
100
AcDbEntity
  8
2
  6
CONTINUOUS
100
AcDbLine
 10
235.49999999998
 20
141.4068969834
 11
234.99999999998
 21
141.9068969834
  0
LINE
  5
49E
100
AcDbEntity
  8
2
  6
CONTINUOUS
100
AcDbLine
 10
244.49999999998
 20
258.5931030166
 11
235.49999999998
 21
258.5931030166
  0
LINE
  5
49F
100
AcDbEntity
  8
2
  6
CONTINUOUS
100
AcDbLine
 10
234.99999999998
 20
258.0931030166
 11
235.49999999998
 21
258.5931030166
  0
LINE
  5
4A0
100
AcDbEntity
  8
2
  6
CONTINUOUS
100
AcDbLine
 10
244.49999999998
 20
258.5931030166
 11
244.99999999998
 21
258.0931030166
  0
LINE
  5
4A1
100
AcDbEntity
  8
2
  6
CONTINUOUS
100
AcDbLine
 10
258.99999999998
 20
148.406896983439
 11
245.49999999998
 21
148.406896983439
  0
LINE
  5
4A2
100
AcDbEntity
  8
2
  6
CONTINUOUS
100
AcDbLine
 10
258.99999999998
 20
258.593103016599
 11
245.49999999998
 21
258.593103016599
  0
LINE
  5
4A3
100
AcDbEntity
  8
2
  6
CONTINUOUS
100
AcDbLine
 10
258.99999999998
 20
141.406896983401
 11
245.49999999998
 21
141.406896983401
  0
LINE
  5
4A4
100
AcDbEntity
  8
2
  6
CONTINUOUS
100
AcDbLine
 10
258.99999999998
 20
251.593103016561
 11
258.99999999998
 21
258.593103016599
  0
SPLINE
  5
4A5
100
AcDbEntity
  8
2
  6
CONTINUOUS
100
AcDbSpline
210
0.0
220
0.0
230
1.0
 70
     8
 71
     3
 72
     8
 73
     4
 74
     0
 42
1.00000000000000E-007
 43
1.00000000000000E-007
 40
0.0
 40
0.0
 40
0.0
 40
0.0
 40
17.8052695988318
 40
17.8052695988318
 40
17.8052695988318
 40
17.8052695988318
 10
258.99999999998
 20
258.593103016599
 30
0.0
 10
263.99999999998
 20
256.67448241328
 30
0.0
 10
273.99999999998
 20
252.83724120664
 30
0.0
 10
273.99999999998
 20
249.0
 30
0.0
  0
LINE
  5
4A6
100
AcDbEntity
  8
2
  6
CONTINUOUS
100
AcDbLine
 10
258.99999999998
 20
251.593103016561
 11
245.49999999998
 21
251.593103016561
  0
SPLINE
  5
4A7
100
AcDbEntity
  8
2
  6
CONTINUOUS
100
AcDbSpline
210
0.0
220
0.0
230
1.0
 70
     8
 71
     3
 72
     8
 73
     4
 74
     0
 42
1.00000000000000E-007
 43
1.00000000000000E-007
 40
0.0
 40
0.0
 40
0.0
 40
0.0
 40
17.8052695988317
 40
17.8052695988317
 40
17.8052695988317
 40
17.8052695988317
 10
258.99999999998
 20
141.406896983401
 30
0.0
 10
263.99999999998
 20
143.32551758672
 30
0.0
 10
273.99999999998
 20
147.16275879336
 30
0.0
 10
273.99999999998
 20
151.0
 30
0.0
  0
LINE
  5
4A8
100
AcDbEntity
  8
2
  6
CONTINUOUS
100
AcDbLine
 10
258.99999999998
 20
148.406896983439
 11
258.99999999998
 21
141.406896983401
  0
LINE
  5
4A9
100
AcDbEntity
  8
2
  6
CONTINUOUS
100
AcDbLine
 10
244.99999999998
 20
141.906896983401
 11
245.49999999998
 21
141.406896983401
  0
LINE
  5
4AA
100
AcDbEntity
  8
2
  6
CONTINUOUS
100
AcDbLine
 10
245.49999999998
 20
258.593103016599
 11
244.99999999998
 21
258.093103016599
  0
LINE
  5
4AB
100
AcDbEntity
  8
2
  6
CONTINUOUS
100
AcDbLine
 10
245.49999999998
 20
141.406896983401
 11
245.49999999998
 21
148.406896983439
  0
LINE
  5
4AC
100
AcDbEntity
  8
2
  6
CONTINUOUS
100
AcDbLine
 10
245.49999999998
 20
251.593103016561
 11
245.49999999998
 21
258.593103016599
  0
LINE
  5
4AD
100
AcDbEntity
  8
2
  6
CONTINUOUS
100
AcDbLine
 10
245.49999999998
 20
251.593103016561
 11
244.99999999998
 21
251.093103016561
  0
LINE
  5
4AE
100
AcDbEntity
  8
2
  6
CONTINUOUS
100
AcDbLine
 10
245.49999999998
 20
148.406896983439
 11
244.99999999998
 21
148.906896983439
  0
LINE
  5
4AF
100
AcDbEntity
  8
2
  6
CONTINUOUS
100
AcDbLine
 10
273.99999999998
 20
243.335947610287
 11
280.99999999998
 21
243.335947610287
  0
LINE
  5
4B0
100
AcDbEntity
  8
2
  6
CONTINUOUS
100
AcDbLine
 10
273.99999999998
 20
237.42382140338
 11
280.99999999998
 21
237.42382140338
  0
LINE
  5
4B1
100
AcDbEntity
  8
2
  6
CONTINUOUS
100
AcDbLine
 10
273.99999999998
 20
162.57617859662
 11
280.99999999998
 21
162.57617859662
  0
LINE
  5
4B2
100
AcDbEntity
  8
2
  6
CONTINUOUS
100
AcDbLine
 10
273.99999999998
 20
156.664052389713
 11
280.99999999998
 21
156.664052389713
  0
LINE
  5
4B3
100
AcDbEntity
  8
7
  6
CENTER2
 62
    40
100
AcDbLine
 10
265.926552996219
 20
234.641016151378
 11
293.231760393087
 21
234.641016151378
  0
LINE
  5
4B4
100
AcDbEntity
  8
7
  6
CENTER2
 62
    40
100
AcDbLine
 10
265.926552996219
 20
165.358983848623
 11
293.231760393087
 21
165.358983848623
  0
LINE
  5
4B5
100
AcDbEntity
  8
7
  6
CENTER2
 62
    40
100
AcDbLine
 10
220.27316463788
 20
152.368602791852
 11
255.442706667759
 21
152.368602791852
  0
LINE
  5
4B6
100
AcDbEntity
  8
7
  6
CENTER2
 62
    40
100
AcDbLine
 10
220.27316463788
 20
247.631397208129
 11
255.442706667759
 21
247.631397208129
  0
ARC
  5
4B7
100
AcDbEntity
  8
2
  6
CONTINUOUS
100
AcDbCircle
 10
651.499999999981
 20
229.0
 40
2.0
100
AcDbArc
 50
0.0
 51
90.0
  0
ARC
  5
4B8
100
AcDbEntity
  8
2
  6
CONTINUOUS
100
AcDbCircle
 10
651.499999999981
 20
171.0
 40
2.0
100
AcDbArc
 50
270.0
 51
0.0
  0
LINE
  5
4B9
100
AcDbEntity
  8
2
  6
CONTINUOUS
100
AcDbLine
 10
603.499999999981
 20
217.5
 11
653.499999999981
 21
217.5
  0
LINE
  5
4BA
100
AcDbEntity
  8
2
  6
CONTINUOUS
100
AcDbLine
 10
365.99999999998
 20
210.0
 11
409.99999999998
 21
210.0
  0
LINE
  5
4BB
100
AcDbEntity
  8
2
  6
CONTINUOUS
100
AcDbLine
 10
365.99999999998
 20
190.0
 11
409.99999999998
 21
190.0
  0
LINE
  5
4BC
100
AcDbEntity
  8
2
  6
CONTINUOUS
100
AcDbLine
 10
578.999999999981
 20
210.0
 11
593.499999999981
 21
210.0
  0
LINE
  5
4BD
100
AcDbEntity
  8
2
  6
CONTINUOUS
100
AcDbLine
 10
578.999999999981
 20
190.0
 11
593.499999999981
 21
190.0
  0
INSERT
  5
4BF
100
AcDbEntity
  8
2
  6
CONTINUOUS
100
AcDbBlockReference
  2
SUB24
 10
578.999999999981
 20
200.0
 41
1.0
 42
1.0
 50
0.0
  0
INSERT
  5
4CD
100
AcDbEntity
  8
2
  6
CONTINUOUS
100
AcDbBlockReference
  2
SUB25
 10
365.99999999998
 20
200.0
 41
1.0
 42
1.0
 50
0.0
  0
INSERT
  5
4DB
100
AcDbEntity
  8
2
  6
CONTINUOUS
100
AcDbBlockReference
  2
SUB26
 10
409.99999999998
 20
200.0
 41
1.0
 42
1.0
 50
0.0
  0
INSERT
  5
4E9
100
AcDbEntity
  8
2
  6
CONTINUOUS
100
AcDbBlockReference
  2
SUB27
 10
234.99999999998
 20
247.631397208129
 41
1.0
 42
1.0
 50
0.0
  0
INSERT
  5
4F7
100
AcDbEntity
  8
2
  6
CONTINUOUS
100
AcDbBlockReference
  2
SUB28
 10
234.99999999998
 20
152.368602791852
 41
1.0
 42
1.0
 50
0.0
  0
LINE
  5
504
100
AcDbEntity
  8
2
  6
CONTINUOUS
100
AcDbLine
 10
290.99999999998
 20
231.0
 11
538.625194956181
 21
231.0
  0
LINE
  5
505
100
AcDbEntity
  8
2
  6
CONTINUOUS
100
AcDbLine
 10
550.524885624776
 20
231.0
 11
651.499999999981
 21
231.0
  0
LINE
  5
506
100
AcDbEntity
  8
2
  6
CONTINUOUS
100
AcDbLine
 10
290.99999999998
 20
169.0
 11
651.499999999981
 21
169.0
  0
LINE
  5
507
100
AcDbEntity
  8
2
  6
CONTINUOUS
100
AcDbLine
 10
130.7
 20
153.5
 11
224.99999999998
 21
153.5
  0
LINE
  5
508
100
AcDbEntity
  8
2
  6
CONTINUOUS
100
AcDbLine
 10
130.7
 20
246.5
 11
224.99999999998
 21
246.5
  0
LINE
  5
509
100
AcDbEntity
  8
7
  6
CENTER2
 62
    40
100
AcDbLine
 10
638.499999999981
 20
188.070748324484
 11
638.499999999981
 21
212.374930273759
  0
LINE
  5
50A
100
AcDbEntity
  8
7
  6
CENTER2
 62
    40
100
AcDbLine
 10
615.49999999998
 20
188.070748324484
 11
615.49999999998
 21
212.374930273759
  0
LINE
  5
50B
100
AcDbEntity
  8
2
  6
CONTINUOUS
100
AcDbLine
 10
125.5
 20
191.5
 11
228.69999999998
 21
191.5
  0
LINE
  5
50C
100
AcDbEntity
  8
2
  6
CONTINUOUS
100
AcDbLine
 10
125.5
 20
208.5
 11
228.69999999998
 21
208.5
  0
LINE
  5
50D
100
AcDbEntity
  8
2
  6
CONTINUOUS
100
AcDbLine
 10
122.5
 20
194.5
 11
122.5
 21
205.5
  0
LINE
  5
50E
100
AcDbEntity
  8
2
  6
CONTINUOUS
100
AcDbLine
 10
125.5
 20
191.5
 11
125.5
 21
198.341687604822
  0
LINE
  5
50F
100
AcDbEntity
  8
2
  6
CONTINUOUS
100
AcDbLine
 10
125.5
 20
201.658312395178
 11
125.5
 21
208.5
  0
CIRCLE
  5
510
100
AcDbEntity
  8
2
  6
CONTINUOUS
100
AcDbCircle
 10
128.0
 20
200.0
 40
3.0
  0
LINE
  5
511
100
AcDbEntity
  8
2
  6
CONTINUOUS
100
AcDbLine
 10
122.5
 20
205.5
 11
125.5
 21
208.5
  0
LINE
  5
512
100
AcDbEntity
  8
2
  6
CONTINUOUS
100
AcDbLine
 10
125.5
 20
191.5
 11
122.5
 21
194.5
  0
LINE
  5
513
100
AcDbEntity
  8
7
  6
CENTER2
 62
    40
100
AcDbLine
 10
253.49999999998
 20
167.5
 11
253.49999999998
 21
232.5
  0
LINE
  5
514
100
AcDbEntity
  8
7
  6
CENTER2
 62
    40
100
AcDbLine
 10
237.49999999998
 20
228.5
 11
258.02341913659
 21
228.5
  0
LINE
  5
515
100
AcDbEntity
  8
2
  6
CONTINUOUS
100
AcDbLine
 10
244.49999999998
 20
232.5
 11
244.49999999998
 21
228.5
  0
LINE
  5
516
100
AcDbEntity
  8
2
  6
CONTINUOUS
100
AcDbLine
 10
244.49999999998
 20
171.5
 11
244.49999999998
 21
167.5
  0
LINE
  5
517
100
AcDbEntity
  8
7
  6
CENTER2
 62
    40
100
AcDbLine
 10
241.49999999998
 20
167.5
 11
241.49999999998
 21
232.5
  0
LINE
  5
518
100
AcDbEntity
  8
7
  6
CENTER2
 62
    40
100
AcDbLine
 10
237.49999999998
 20
171.5
 11
258.02341913659
 21
171.5
  0
ARC
  5
519
100
AcDbEntity
  8
2
  6
CONTINUOUS
100
AcDbCircle
 10
241.49999999998
 20
171.5
 40
3.0
100
AcDbArc
 50
0.0
 51
180.0
  0
ARC
  5
51A
100
AcDbEntity
  8
2
  6
CONTINUOUS
100
AcDbCircle
 10
241.49999999998
 20
228.5
 40
3.0
100
AcDbArc
 50
180.0
 51
0.0
  0
LINE
  5
51B
100
AcDbEntity
  8
2
  6
CONTINUOUS
100
AcDbLine
 10
281.69999999998
 20
230.5
 11
256.49999999998
 21
230.5
  0
LINE
  5
51C
100
AcDbEntity
  8
2
  6
CONTINUOUS
100
AcDbLine
 10
250.49999999998
 20
230.5
 11
244.49999999998
 21
230.5
  0
LINE
  5
51D
100
AcDbEntity
  8
2
  6
CONTINUOUS
100
AcDbLine
 10
238.49999999998
 20
230.5
 11
228.49999999998
 21
230.5
  0
LINE
  5
51E
100
AcDbEntity
  8
2
  6
CONTINUOUS
100
AcDbLine
 10
281.69999999998
 20
169.5
 11
256.49999999998
 21
169.5
  0
LINE
  5
51F
100
AcDbEntity
  8
2
  6
CONTINUOUS
100
AcDbLine
 10
250.49999999998
 20
169.5
 11
244.49999999998
 21
169.5
  0
LINE
  5
520
100
AcDbEntity
  8
2
  6
CONTINUOUS
100
AcDbLine
 10
238.49999999998
 20
169.5
 11
228.49999999998
 21
169.5
  0
LINE
  5
521
100
AcDbEntity
  8
6
  6
CENTER
100
AcDbLine
 10
281.21158354
 20
200.0
 11
224.685511632152
 21
200.0
  0
LINE
  5
522
100
AcDbEntity
  8
2
  6
CONTINUOUS
100
AcDbLine
 10
281.69999999998
 20
232.5
 11
281.69999999998
 21
167.5
  0
LINE
  5
523
100
AcDbEntity
  8
2
  6
CONTINUOUS
100
AcDbLine
 10
228.49999999998
 20
230.5
 11
228.49999999998
 21
169.5
  0
LINE
  5
524
100
AcDbEntity
  8
2
  6
CONTINUOUS
100
AcDbLine
 10
256.49999999998
 20
232.5
 11
256.49999999998
 21
228.5
  0
LINE
  5
525
100
AcDbEntity
  8
2
  6
CONTINUOUS
100
AcDbLine
 10
281.69999999998
 20
232.5
 11
230.49999999998
 21
232.5
  0
LINE
  5
526
100
AcDbEntity
  8
2
  6
CONTINUOUS
100
AcDbLine
 10
278.49999999998
 20
232.5
 11
278.49999999998
 21
167.5
  0
LINE
  5
527
100
AcDbEntity
  8
2
  6
CONTINUOUS
100
AcDbLine
 10
256.49999999998
 20
167.5
 11
256.49999999998
 21
171.5
  0
LINE
  5
528
100
AcDbEntity
  8
2
  6
CONTINUOUS
100
AcDbLine
 10
281.69999999998
 20
167.5
 11
230.49999999998
 21
167.5
  0
LINE
  5
529
100
AcDbEntity
  8
2
  6
CONTINUOUS
100
AcDbLine
 10
250.49999999998
 20
167.5
 11
250.49999999998
 21
171.5
  0
ARC
  5
52A
100
AcDbEntity
  8
2
  6
CONTINUOUS
100
AcDbCircle
 10
253.49999999998
 20
171.5
 40
3.0
100
AcDbArc
 50
0.0
 51
180.0
  0
ARC
  5
52B
100
AcDbEntity
  8
2
  6
CONTINUOUS
100
AcDbCircle
 10
253.49999999998
 20
228.5
 40
3.0
100
AcDbArc
 50
180.0
 51
0.0
  0
LINE
  5
52C
100
AcDbEntity
  8
2
  6
CONTINUOUS
100
AcDbLine
 10
250.49999999998
 20
232.5
 11
250.49999999998
 21
228.5
  0
LINE
  5
52D
100
AcDbEntity
  8
2
  6
CONTINUOUS
100
AcDbLine
 10
230.49999999998
 20
232.5
 11
228.49999999998
 21
230.5
  0
LINE
  5
52E
100
AcDbEntity
  8
2
  6
CONTINUOUS
100
AcDbLine
 10
230.49999999998
 20
167.5
 11
228.49999999998
 21
169.5
  0
LINE
  5
52F
100
AcDbEntity
  8
2
  6
CONTINUOUS
100
AcDbLine
 10
288.49999999998
 20
173.0
 11
288.49999999998
 21
195.0
  0
LINE
  5
530
100
AcDbEntity
  8
2
  6
CONTINUOUS
100
AcDbLine
 10
288.49999999998
 20
195.0
 11
287.39999999998
 21
195.0
  0
LINE
  5
531
100
AcDbEntity
  8
8
  6
CONTINUOUS
 62
     7
100
AcDbLine
 10
288.49999999998
 20
194.4585
 11
287.56209448768
 21
195.0
  0
LINE
  5
532
100
AcDbEntity
  8
2
  6
CONTINUOUS
100
AcDbLine
 10
289.49999999998
 20
186.5
 11
299.49999999998
 21
186.5
  0
LINE
  5
533
100
AcDbEntity
  8
2
  6
CONTINUOUS
100
AcDbLine
 10
299.49999999998
 20
187.5
 11
289.49999999998
 21
187.5
  0
LINE
  5
534
100
AcDbEntity
  8
2
  6
CONTINUOUS
100
AcDbLine
 10
289.49999999998
 20
188.5
 11
299.49999999998
 21
188.5
  0
LINE
  5
535
100
AcDbEntity
  8
2
  6
CONTINUOUS
100
AcDbLine
 10
299.49999999998
 20
189.5
 11
289.49999999998
 21
189.5
  0
LINE
  5
536
100
AcDbEntity
  8
2
  6
CONTINUOUS
100
AcDbLine
 10
289.49999999998
 20
190.5
 11
299.49999999998
 21
190.5
  0
LINE
  5
537
100
AcDbEntity
  8
2
  6
CONTINUOUS
100
AcDbLine
 10
299.49999999998
 20
191.5
 11
289.49999999998
 21
191.5
  0
LINE
  5
538
100
AcDbEntity
  8
2
  6
CONTINUOUS
100
AcDbLine
 10
289.49999999998
 20
192.5
 11
299.49999999998
 21
192.5
  0
LINE
  5
539
100
AcDbEntity
  8
2
  6
CONTINUOUS
100
AcDbLine
 10
299.49999999998
 20
193.5
 11
289.49999999998
 21
193.5
  0
LINE
  5
53A
100
AcDbEntity
  8
2
  6
CONTINUOUS
100
AcDbLine
 10
289.49999999998
 20
194.5
 11
299.49999999998
 21
194.5
  0
LINE
  5
53B
100
AcDbEntity
  8
2
  6
CONTINUOUS
100
AcDbLine
 10
299.49999999998
 20
195.5
 11
289.49999999998
 21
195.5
  0
LINE
  5
53C
100
AcDbEntity
  8
2
  6
CONTINUOUS
100
AcDbLine
 10
289.49999999998
 20
196.5
 11
299.49999999998
 21
196.5
  0
LINE
  5
53D
100
AcDbEntity
  8
2
  6
CONTINUOUS
100
AcDbLine
 10
329.99999999998
 20
191.7
 11
327.99999999998
 21
193.7
  0
LINE
  5
53E
100
AcDbEntity
  8
2
  6
CONTINUOUS
100
AcDbLine
 10
327.99999999998
 20
191.7
 11
329.99999999998
 21
193.7
  0
CIRCLE
  5
53F
100
AcDbEntity
  8
2
  6
CONTINUOUS
100
AcDbCircle
 10
328.99999999998
 20
192.7
 40
2.75
  0
LINE
  5
540
100
AcDbEntity
  8
2
  6
CONTINUOUS
100
AcDbLine
 10
324.49999999998
 20
174.0
 11
324.49999999998
 21
194.0
  0
LINE
  5
541
100
AcDbEntity
  8
2
  6
CONTINUOUS
100
AcDbLine
 10
289.49999999998
 20
171.0
 11
289.49999999998
 21
197.0
  0
LINE
  5
542
100
AcDbEntity
  8
2
  6
CONTINUOUS
100
AcDbLine
 10
299.49999999998
 20
197.0
 11
299.49999999998
 21
171.0
  0
LINE
  5
543
100
AcDbEntity
  8
2
  6
CONTINUOUS
100
AcDbLine
 10
332.49999999998
 20
193.5
 11
332.49999999998
 21
174.5
  0
ARC
  5
544
100
AcDbEntity
  8
2
  6
CONTINUOUS
100
AcDbCircle
 10
330.49999999998
 20
193.5
 40
1.99999999999994
100
AcDbArc
 50
0.0
 51
90.0
  0
ARC
  5
545
100
AcDbEntity
  8
2
  6
CONTINUOUS
100
AcDbCircle
 10
327.49999999998
 20
193.5
 40
1.99999999999994
100
AcDbArc
 50
90.0
 51
180.0
  0
LINE
  5
546
100
AcDbEntity
  8
2
  6
CONTINUOUS
100
AcDbLine
 10
327.49999999998
 20
195.5
 11
330.49999999998
 21
195.5
  0
ARC
  5
547
100
AcDbEntity
  8
2
  6
CONTINUOUS
100
AcDbCircle
 10
324.41599999998
 20
196.047
 40
1.99999999999993
100
AcDbArc
 50
259.795999999989
 51
320.445000000024
  0
LINE
  5
548
100
AcDbEntity
  8
2
  6
CONTINUOUS
100
AcDbLine
 10
312.49999999998
 20
195.8
 11
324.49999999998
 21
194.0
  0
LINE
  5
549
100
AcDbEntity
  8
2
  6
CONTINUOUS
100
AcDbLine
 10
299.49999999998
 20
196.5
 11
301.49999999998
 21
196.5
  0
LINE
  5
54A
100
AcDbEntity
  8
2
  6
CONTINUOUS
100
AcDbLine
 10
301.49999999998
 20
196.5
 11
301.49999999998
 21
171.5
  0
LINE
  5
54B
100
AcDbEntity
  8
2
  6
CONTINUOUS
100
AcDbLine
 10
301.49999999998
 20
195.8
 11
312.49999999998
 21
195.8
  0
LINE
  5
54C
100
AcDbEntity
  8
2
  6
CONTINUOUS
100
AcDbLine
 10
289.49999999998
 20
197.0
 11
299.49999999998
 21
197.0
  0
LINE
  5
54D
100
AcDbEntity
  8
2
  6
CONTINUOUS
100
AcDbLine
 10
288.49999999998
 20
196.5
 11
289.49999999998
 21
196.5
  0
LINE
  5
54E
100
AcDbEntity
  8
2
  6
CONTINUOUS
100
AcDbLine
 10
325.49999999998
 20
174.5
 11
325.49999999998
 21
193.5
  0
LINE
  5
54F
100
AcDbEntity
  8
2
  6
CONTINUOUS
100
AcDbLine
 10
288.49999999998
 20
171.5
 11
288.49999999998
 21
196.5
  0
LINE
  5
550
100
AcDbEntity
  8
2
  6
CONTINUOUS
100
AcDbLine
 10
283.69999999998
 20
169.5
 11
283.69999999998
 21
198.5
  0
LINE
  5
551
100
AcDbEntity
  8
2
  6
CONTINUOUS
100
AcDbLine
 10
281.69999999998
 20
198.5
 11
283.69999999998
 21
198.5
  0
LINE
  5
552
100
AcDbEntity
  8
2
  6
CONTINUOUS
100
AcDbLine
 10
288.49999999998
 20
173.0
 11
287.39999999998
 21
173.0
  0
LINE
  5
553
100
AcDbEntity
  8
8
  6
CONTINUOUS
 62
     7
100
AcDbLine
 10
288.49999999998
 20
173.5415
 11
287.56209448768
 21
173.0
  0
LINE
  5
554
100
AcDbEntity
  8
2
  6
CONTINUOUS
100
AcDbLine
 10
299.49999999998
 20
181.5
 11
289.49999999998
 21
181.5
  0
LINE
  5
555
100
AcDbEntity
  8
2
  6
CONTINUOUS
100
AcDbLine
 10
329.99999999998
 20
176.3
 11
327.99999999998
 21
174.3
  0
LINE
  5
556
100
AcDbEntity
  8
2
  6
CONTINUOUS
100
AcDbLine
 10
327.99999999998
 20
176.3
 11
329.99999999998
 21
174.3
  0
CIRCLE
  5
557
100
AcDbEntity
  8
2
  6
CONTINUOUS
100
AcDbCircle
 10
328.99999999998
 20
175.3
 40
2.75
  0
LINE
  5
558
100
AcDbEntity
  8
2
  6
CONTINUOUS
100
AcDbLine
 10
289.49999999998
 20
171.5
 11
299.49999999998
 21
171.5
  0
LINE
  5
559
100
AcDbEntity
  8
2
  6
CONTINUOUS
100
AcDbLine
 10
299.49999999998
 20
172.5
 11
289.49999999998
 21
172.5
  0
LINE
  5
55A
100
AcDbEntity
  8
2
  6
CONTINUOUS
100
AcDbLine
 10
289.49999999998
 20
173.5
 11
299.49999999998
 21
173.5
  0
LINE
  5
55B
100
AcDbEntity
  8
2
  6
CONTINUOUS
100
AcDbLine
 10
299.49999999998
 20
174.5
 11
289.49999999998
 21
174.5
  0
LINE
  5
55C
100
AcDbEntity
  8
2
  6
CONTINUOUS
100
AcDbLine
 10
289.49999999998
 20
175.5
 11
299.49999999998
 21
175.5
  0
LINE
  5
55D
100
AcDbEntity
  8
2
  6
CONTINUOUS
100
AcDbLine
 10
299.49999999998
 20
180.5
 11
289.49999999998
 21
180.5
  0
LINE
  5
55E
100
AcDbEntity
  8
2
  6
CONTINUOUS
100
AcDbLine
 10
299.49999999998
 20
179.5
 11
289.49999999998
 21
179.5
  0
LINE
  5
55F
100
AcDbEntity
  8
2
  6
CONTINUOUS
100
AcDbLine
 10
299.49999999998
 20
178.5
 11
289.49999999998
 21
178.5
  0
LINE
  5
560
100
AcDbEntity
  8
2
  6
CONTINUOUS
100
AcDbLine
 10
299.49999999998
 20
177.5
 11
289.49999999998
 21
177.5
  0
LINE
  5
561
100
AcDbEntity
  8
2
  6
CONTINUOUS
100
AcDbLine
 10
299.49999999998
 20
176.5
 11
289.49999999998
 21
176.5
  0
LINE
  5
562
100
AcDbEntity
  8
2
  6
CONTINUOUS
100
AcDbLine
 10
301.49999999998
 20
172.2
 11
312.49999999998
 21
172.2
  0
LINE
  5
563
100
AcDbEntity
  8
2
  6
CONTINUOUS
100
AcDbLine
 10
312.49999999998
 20
172.2
 11
324.49999999998
 21
174.0
  0
ARC
  5
564
100
AcDbEntity
  8
2
  6
CONTINUOUS
100
AcDbCircle
 10
324.41599999998
 20
171.953
 40
1.99999999999995
100
AcDbArc
 50
39.5549999999785
 51
100.204000000011
  0
ARC
  5
565
100
AcDbEntity
  8
2
  6
CONTINUOUS
100
AcDbCircle
 10
330.49999999998
 20
174.5
 40
1.99999999999994
100
AcDbArc
 50
270.0
 51
0.0
  0
LINE
  5
566
100
AcDbEntity
  8
2
  6
CONTINUOUS
100
AcDbLine
 10
330.49999999998
 20
172.5
 11
327.49999999998
 21
172.5
  0
ARC
  5
567
100
AcDbEntity
  8
2
  6
CONTINUOUS
100
AcDbCircle
 10
327.49999999998
 20
174.5
 40
1.99999999999994
100
AcDbArc
 50
180.0
 51
270.0
  0
LINE
  5
568
100
AcDbEntity
  8
2
  6
CONTINUOUS
100
AcDbLine
 10
301.49999999998
 20
171.5
 11
299.49999999998
 21
171.5
  0
LINE
  5
569
100
AcDbEntity
  8
2
  6
CONTINUOUS
100
AcDbLine
 10
299.49999999998
 20
171.0
 11
289.49999999998
 21
171.0
  0
LINE
  5
56A
100
AcDbEntity
  8
2
  6
CONTINUOUS
100
AcDbLine
 10
289.49999999998
 20
171.5
 11
288.49999999998
 21
171.5
  0
LINE
  5
56B
100
AcDbEntity
  8
2
  6
CONTINUOUS
100
AcDbLine
 10
283.69999999998
 20
169.5
 11
281.69999999998
 21
169.5
  0
LINE
  5
56C
100
AcDbEntity
  8
2
  6
CONTINUOUS
100
AcDbLine
 10
289.49999999998
 20
182.5
 11
299.49999999998
 21
182.5
  0
LINE
  5
56D
100
AcDbEntity
  8
2
  6
CONTINUOUS
100
AcDbLine
 10
299.49999999998
 20
183.5
 11
289.49999999998
 21
183.5
  0
LINE
  5
56E
100
AcDbEntity
  8
2
  6
CONTINUOUS
100
AcDbLine
 10
289.49999999998
 20
184.5
 11
299.49999999998
 21
184.5
  0
LINE
  5
56F
100
AcDbEntity
  8
2
  6
CONTINUOUS
100
AcDbLine
 10
299.49999999998
 20
185.5
 11
289.49999999998
 21
185.5
  0
INSERT
  5
571
100
AcDbEntity
  8
2
  6
CONTINUOUS
100
AcDbBlockReference
  2
SUB29
 10
253.49999999998
 20
228.5
 41
1.0
 42
1.0
 50
0.0
  0
INSERT
  5
578
100
AcDbEntity
  8
2
  6
CONTINUOUS
100
AcDbBlockReference
  2
SUB30
 10
241.49999999998
 20
228.5
 41
1.0
 42
1.0
 50
0.0
  0
INSERT
  5
57F
100
AcDbEntity
  8
2
  6
CONTINUOUS
100
AcDbBlockReference
  2
SUB31
 10
241.49999999998
 20
171.5
 41
1.0
 42
1.0
 50
0.0
  0
INSERT
  5
586
100
AcDbEntity
  8
2
  6
CONTINUOUS
100
AcDbBlockReference
  2
SUB32
 10
253.49999999998
 20
171.5
 41
1.0
 42
1.0
 50
0.0
  0
INSERT
  5
58D
100
AcDbEntity
  8
2
  6
CONTINUOUS
100
AcDbBlockReference
  2
SUB33
 10
128.0
 20
200.0
 41
1.0
 42
1.0
 50
0.0
  0
LINE
  5
593
100
AcDbEntity
  8
7
  6
CENTER2
 62
    40
100
AcDbLine
 10
287.905499512266
 20
195.5
 11
271.326048808818
 21
195.5
  0
LINE
  5
594
100
AcDbEntity
  8
7
  6
CENTER2
 62
    40
100
AcDbLine
 10
287.905499512266
 20
172.5
 11
271.326048808818
 21
172.5
  0
INSERT
  5
596
100
AcDbEntity
  8
7
  6
CENTER2
 62
    40
100
AcDbBlockReference
  2
SUB34
 10
283.69999999998
 20
172.5
 41
1.0
 42
1.0
 50
0.0
  0
INSERT
  5
5A4
100
AcDbEntity
  8
7
  6
CENTER2
 62
    40
100
AcDbBlockReference
  2
SUB35
 10
283.69999999998
 20
195.5
 41
1.0
 42
1.0
 50
0.0
  0
LINE
  5
5B1
100
AcDbEntity
  8
2
  6
CONTINUOUS
100
AcDbLine
 10
283.69999999998
 20
198.5
 11
283.69999999998
 21
230.5
  0
LINE
  5
5B2
100
AcDbEntity
  8
2
  6
CONTINUOUS
100
AcDbLine
 10
281.69999999998
 20
230.5
 11
283.69999999998
 21
230.5
  0
INSERT
  5
5B4
100
AcDbEntity
  8
7
  6
CENTER2
 62
    40
100
AcDbBlockReference
  2
SUB36
 10
283.69999999998
 20
227.5
 41
1.0
 42
1.0
 50
0.0
  0
LINE
  5
5C1
100
AcDbEntity
  8
7
  6
CENTER2
 62
    40
100
AcDbLine
 10
287.905499512266
 20
227.5
 11
271.326048808818
 21
227.5
  0
INSERT
  5
5C3
100
AcDbEntity
  8
7
  6
CENTER2
 62
    40
100
AcDbBlockReference
  2
SUB37
 10
283.69999999998
 20
201.5
 41
1.0
 42
1.0
 50
0.0
  0
LINE
  5
5D0
100
AcDbEntity
  8
7
  6
CENTER2
 62
    40
100
AcDbLine
 10
287.905499512266
 20
201.5
 11
271.326048808818
 21
201.5
  0
LINE
  5
5D1
100
AcDbEntity
  8
2
  6
CONTINUOUS
100
AcDbLine
 10
350.49999999998
 20
178.2
 11
332.49999999998
 21
178.2
  0
LINE
  5
5D2
100
AcDbEntity
  8
2
  6
CONTINUOUS
100
AcDbLine
 10
350.49999999998
 20
189.8
 11
332.49999999998
 21
189.8
  0
LINE
  5
5D3
100
AcDbEntity
  8
2
  6
CONTINUOUS
100
AcDbLine
 10
350.49999999998
 20
189.8
 11
350.49999999998
 21
178.2
  0
LINE
  5
5D4
100
AcDbEntity
  8
2
  6
CONTINUOUS
100
AcDbLine
 10
234.99999999998
 20
141.9068969834
 11
234.99999999998
 21
167.5
  0
LINE
  5
5D5
100
AcDbEntity
  8
2
  6
CONTINUOUS
100
AcDbLine
 10
234.99999999998
 20
232.5
 11
234.99999999998
 21
258.0931030166
  0
LINE
  5
5D6
100
AcDbEntity
  8
2
  6
CONTINUOUS
100
AcDbLine
 10
244.99999999998
 20
141.906896983401
 11
244.99999999998
 21
167.5
  0
LINE
  5
5D7
100
AcDbEntity
  8
2
  6
CONTINUOUS
100
AcDbLine
 10
244.99999999998
 20
232.5
 11
244.99999999998
 21
258.093103016599
  0
LINE
  5
5D8
100
AcDbEntity
  8
2
  6
CONTINUOUS
100
AcDbLine
 10
244.99999999998
 20
141.9068969834
 11
244.99999999998
 21
167.5
  0
LINE
  5
5D9
100
AcDbEntity
  8
2
  6
CONTINUOUS
100
AcDbLine
 10
244.99999999998
 20
232.5
 11
244.99999999998
 21
258.0931030166
  0
SPLINE
  5
5DA
100
AcDbEntity
  8
2
  6
CONTINUOUS
100
AcDbSpline
210
0.0
220
0.0
230
1.0
 70
     8
 71
     3
 72
     8
 73
     4
 74
     0
 42
1.00000000000000E-007
 43
1.00000000000000E-007
 40
0.0
 40
0.0
 40
0.0
 40
0.0
 40
21.9952528955697
 40
21.9952528955697
 40
21.9952528955697
 40
21.9952528955697
 10
258.99999999998
 20
148.406896983439
 30
0.0
 10
261.968124583646
 20
152.618086286191
 30
0.0
 10
266.876725718891
 20
159.582432966914
 30
0.0
 10
269.919916077453
 20
167.5
 30
0.0
  0
SPLINE
  5
5DB
100
AcDbEntity
  8
2
  6
CONTINUOUS
100
AcDbSpline
210
0.0
220
0.0
230
1.0
 70
     8
 71
     3
 72
     8
 73
     4
 74
     0
 42
1.00000000000000E-007
 43
1.00000000000000E-007
 40
0.0
 40
0.0
 40
0.0
 40
0.0
 40
21.9952528955698
 40
21.9952528955698
 40
21.9952528955698
 40
21.9952528955698
 10
258.99999999998
 20
251.593103016561
 30
0.0
 10
261.968124583646
 20
247.38191371381
 30
0.0
 10
266.876725718891
 20
240.417567033086
 30
0.0
 10
269.919916077453
 20
232.5
 30
0.0
  0
LINE
  5
5DC
100
AcDbEntity
  8
2
  6
CONTINUOUS
100
AcDbLine
 10
273.99999999998
 20
150.999999399011
 11
273.99999999998
 21
167.5
  0
LINE
  5
5DD
100
AcDbEntity
  8
2
  6
CONTINUOUS
100
AcDbLine
 10
273.99999999998
 20
232.5
 11
273.99999999998
 21
249.000000600989
  0
LINE
  5
5DE
100
AcDbEntity
  8
2
  6
CONTINUOUS
100
AcDbLine
 10
290.49999999998
 20
241.141016151378
 11
280.99999999998
 21
241.141016151378
  0
LINE
  5
5DF
100
AcDbEntity
  8
2
  6
CONTINUOUS
100
AcDbLine
 10
290.99999999998
 20
229.1
 11
290.99999999998
 21
240.274990747593
  0
LINE
  5
5E0
100
AcDbEntity
  8
2
  6
CONTINUOUS
100
AcDbLine
 10
290.49999999998
 20
228.141016151378
 11
290.49999999998
 21
241.141016151378
  0
LINE
  5
5E1
100
AcDbEntity
  8
2
  6
CONTINUOUS
100
AcDbLine
 10
290.49999999998
 20
241.141016151378
 11
290.99999999998
 21
240.274990747593
  0
LINE
  5
5E2
100
AcDbEntity
  8
2
  6
CONTINUOUS
100
AcDbLine
 10
280.99999999998
 20
234.641016151378
 11
282.99999999998
 21
237.244128133723
  0
LINE
  5
5E3
100
AcDbEntity
  8
2
  6
CONTINUOUS
100
AcDbLine
 10
290.49999999998
 20
158.858983848623
 11
280.99999999998
 21
158.858983848623
  0
LINE
  5
5E4
100
AcDbEntity
  8
2
  6
CONTINUOUS
100
AcDbLine
 10
290.99999999998
 20
159.725009252407
 11
290.99999999998
 21
170.992958444838
  0
LINE
  5
5E5
100
AcDbEntity
  8
2
  6
CONTINUOUS
100
AcDbLine
 10
290.49999999998
 20
158.858983848623
 11
290.99999999998
 21
159.725009252407
  0
LINE
  5
5E6
100
AcDbEntity
  8
2
  6
CONTINUOUS
100
AcDbLine
 10
282.99999999998
 20
165.358983848623
 11
280.99999999998
 21
162.672743413976
  0
LINE
  5
5E7
100
AcDbEntity
  8
2
  6
CONTINUOUS
100
AcDbLine
 10
280.99999999998
 20
165.358983848623
 11
282.99999999998
 21
167.962095830968
  0
LINE
  5
5E8
100
AcDbEntity
  8
2
  6
CONTINUOUS
100
AcDbLine
 10
280.99999999998
 20
156.664052389713
 11
280.99999999998
 21
167.5
  0
LINE
  5
5E9
100
AcDbEntity
  8
2
  6
CONTINUOUS
100
AcDbLine
 10
280.99999999998
 20
232.5
 11
280.99999999998
 21
243.335947610287
  0
LINE
  5
5EA
100
AcDbEntity
  8
2
  6
CONTINUOUS
100
AcDbLine
 10
290.49999999998
 20
228.141016151378
 11
287.39999999998
 21
228.141016151378
  0
LINE
  5
5EB
100
AcDbEntity
  8
2
  6
CONTINUOUS
100
AcDbLine
 10
282.99999999998
 20
230.5
 11
282.99999999998
 21
241.141016151378
  0
LINE
  5
5EC
100
AcDbEntity
  8
2
  6
CONTINUOUS
100
AcDbLine
 10
282.99999999998
 20
234.641016151378
 11
281.405938557256
 21
232.5
  0
LINE
  5
5ED
100
AcDbEntity
  8
2
  6
CONTINUOUS
100
AcDbLine
 10
282.99999999998
 20
158.858983848623
 11
282.99999999998
 21
169.5
  0
LINE
  5
5EE
100
AcDbEntity
  8
2
  6
CONTINUOUS
100
AcDbLine
 10
288.49999999998
 20
171.858983848623
 11
287.39999999998
 21
171.858983848623
  0
LINE
  5
5EF
100
AcDbEntity
  8
2
  6
CONTINUOUS
100
AcDbLine
 10
290.49999999998
 20
158.858983848623
 11
290.49999999998
 21
171.0
  0
ARC
  5
5F0
100
AcDbEntity
  8
2
  6
CONTINUOUS
100
AcDbCircle
 10
599.499999999978
 20
200.0
 40
20.299999999999
100
AcDbArc
 50
270.0
 51
0.0
  0
LINE
  5
5F1
100
AcDbEntity
  8
2
  6
CONTINUOUS
100
AcDbLine
 10
599.499999999978
 20
179.700000000001
 11
350.49999999998
 21
179.700000000001
  0
ARC
  5
5F2
100
AcDbEntity
  8
2
  6
CONTINUOUS
100
AcDbCircle
 10
599.499999999978
 20
200.0
 40
11.699999999999
100
AcDbArc
 50
270.0
 51
0.0
  0
LINE
  5
5F3
100
AcDbEntity
  8
2
  6
CONTINUOUS
100
AcDbLine
 10
350.49999999998
 20
188.300000000001
 11
599.499999999978
 21
188.300000000001
  0
LINE
  5
5F4
100
AcDbEntity
  8
2
  6
CONTINUOUS
100
AcDbLine
 10
603.499999999981
 20
189.005001136882
 11
603.499999999981
 21
217.5
  0
LINE
  5
5F5
100
AcDbEntity
  8
2
  6
CONTINUOUS
100
AcDbLine
 10
609.787856919666
 20
182.5
 11
653.499999999981
 21
182.5
  0
ARC
  5
5F6
100
AcDbEntity
  8
2
  6
CONTINUOUS
100
AcDbCircle
 10
615.49999999998
 20
200.0
 40
8.20000000000005
100
AcDbArc
 50
0.0
 51
224.750819595105
  0
ARC
  5
5F7
100
AcDbEntity
  8
2
  6
CONTINUOUS
100
AcDbCircle
 10
615.49999999998
 20
200.0
 40
8.19999999999999
100
AcDbArc
 50
289.791917046982
 51
0.0
  0
ARC
  5
5F8
100
AcDbEntity
  8
2
  6
CONTINUOUS
100
AcDbCircle
 10
615.49999999998
 20
200.0
 40
4.29999999999995
100
AcDbArc
 50
0.0
 51
180.0
  0
LINE
  5
5F9
100
AcDbEntity
  8
2
  6
CONTINUOUS
100
AcDbLine
 10
593.499999999981
 20
169.0
 11
593.499999999981
 21
179.700000000001
  0
LINE
  5
5FA
100
AcDbEntity
  8
2
  6
CONTINUOUS
100
AcDbLine
 10
593.499999999981
 20
188.300000000001
 11
593.499999999981
 21
231.0
  0
LINE
  5
5FB
100
AcDbEntity
  8
2
  6
CONTINUOUS
100
AcDbLine
 10
586.999999999981
 20
169.0
 11
586.999999999981
 21
179.700000000001
  0
LINE
  5
5FC
100
AcDbEntity
  8
2
  6
CONTINUOUS
100
AcDbLine
 10
586.999999999981
 20
188.300000000001
 11
586.999999999981
 21
231.0
  0
LINE
  5
5FD
100
AcDbEntity
  8
2
  6
CONTINUOUS
100
AcDbLine
 10
578.999999999981
 20
169.0
 11
578.999999999981
 21
179.700000000001
  0
LINE
  5
5FE
100
AcDbEntity
  8
2
  6
CONTINUOUS
100
AcDbLine
 10
578.999999999981
 20
188.300000000001
 11
578.999999999981
 21
231.0
  0
LINE
  5
5FF
100
AcDbEntity
  8
2
  6
CONTINUOUS
100
AcDbLine
 10
409.99999999998
 20
169.0
 11
409.99999999998
 21
179.700000000001
  0
LINE
  5
600
100
AcDbEntity
  8
2
  6
CONTINUOUS
100
AcDbLine
 10
409.99999999998
 20
188.300000000001
 11
409.99999999998
 21
210.0
  0
LINE
  5
601
100
AcDbEntity
  8
2
  6
CONTINUOUS
100
AcDbLine
 10
409.99999999998
 20
219.0
 11
409.99999999998
 21
231.0
  0
LINE
  5
602
100
AcDbEntity
  8
2
  6
CONTINUOUS
100
AcDbLine
 10
397.99999999998
 20
169.0
 11
397.99999999998
 21
179.700000000001
  0
LINE
  5
603
100
AcDbEntity
  8
2
  6
CONTINUOUS
100
AcDbLine
 10
397.99999999998
 20
188.300000000001
 11
397.99999999998
 21
210.0
  0
LINE
  5
604
100
AcDbEntity
  8
2
  6
CONTINUOUS
100
AcDbLine
 10
397.99999999998
 20
219.0
 11
397.99999999998
 21
231.0
  0
LINE
  5
605
100
AcDbEntity
  8
2
  6
CONTINUOUS
100
AcDbLine
 10
372.99999999998
 20
169.0
 11
372.99999999998
 21
179.700000000001
  0
LINE
  5
606
100
AcDbEntity
  8
2
  6
CONTINUOUS
100
AcDbLine
 10
372.99999999998
 20
188.300000000001
 11
372.99999999998
 21
210.0
  0
LINE
  5
607
100
AcDbEntity
  8
2
  6
CONTINUOUS
100
AcDbLine
 10
372.99999999998
 20
219.0
 11
372.99999999998
 21
231.0
  0
LINE
  5
608
100
AcDbEntity
  8
2
  6
CONTINUOUS
100
AcDbLine
 10
365.99999999998
 20
169.0
 11
365.99999999998
 21
179.700000000001
  0
LINE
  5
609
100
AcDbEntity
  8
2
  6
CONTINUOUS
100
AcDbLine
 10
365.99999999998
 20
188.300000000001
 11
365.99999999998
 21
210.0
  0
LINE
  5
60A
100
AcDbEntity
  8
2
  6
CONTINUOUS
100
AcDbLine
 10
365.99999999998
 20
219.0
 11
365.99999999998
 21
231.0
  0
ARC
  5
60B
100
AcDbEntity
  8
7
  6
CENTER2
 62
    40
100
AcDbCircle
 10
599.499999999978
 20
200.0
 40
15.999999999999
100
AcDbArc
 50
270.0
 51
0.0
  0
LINE
  5
60C
100
AcDbEntity
  8
7
  6
CENTER2
 62
    40
100
AcDbLine
 10
599.499999999978
 20
184.0
 11
271.826048808818
 21
184.0
  0
LINE
  5
60D
100
AcDbEntity
  8
2
  6
CONTINUOUS
100
AcDbLine
 10
69.0
 20
235.0
 11
80.0
 21
235.0
  0
LINE
  5
60E
100
AcDbEntity
  8
2
  6
CONTINUOUS
100
AcDbLine
 10
68.0
 20
234.0
 11
69.0
 21
235.0
  0
LINE
  5
60F
100
AcDbEntity
  8
2
  6
CONTINUOUS
100
AcDbLine
 10
68.0
 20
166.0
 11
68.0
 21
234.0
  0
LINE
  5
610
100
AcDbEntity
  8
2
  6
CONTINUOUS
100
AcDbLine
 10
69.0
 20
165.0
 11
80.0
 21
165.0
  0
LINE
  5
611
100
AcDbEntity
  8
2
  6
CONTINUOUS
100
AcDbLine
 10
68.0
 20
166.0
 11
69.0
 21
165.0
  0
LINE
  5
612
100
AcDbEntity
  8
7
  6
CENTER2
 62
    40
100
AcDbLine
 10
60.9311611990061
 20
238.971143170303
 11
108.928225594257
 21
238.971143170303
  0
LINE
  5
613
100
AcDbEntity
  8
7
  6
CENTER2
 62
    40
100
AcDbLine
 10
60.9311611990061
 20
161.028856829713
 11
108.928225594257
 21
161.028856829713
  0
LINE
  5
614
100
AcDbEntity
  8
2
  6
CONTINUOUS
100
AcDbLine
 10
238.49999999998
 20
232.5
 11
238.49999999998
 21
167.5
  0
LINE
  5
615
100
AcDbEntity
  8
2
  6
CONTINUOUS
100
AcDbLine
 10
69.0
 20
235.0
 11
69.0
 21
165.0
  0
LINE
  5
616
100
AcDbEntity
  8
2
  6
CONTINUOUS
100
AcDbLine
 10
80.0
 20
250.394060069864
 11
80.5
 21
250.894060069864
  0
LINE
  5
617
100
AcDbEntity
  8
2
  6
CONTINUOUS
100
AcDbLine
 10
80.0
 20
149.605939930136
 11
80.0
 21
250.394060069864
  0
LINE
  5
618
100
AcDbEntity
  8
2
  6
CONTINUOUS
100
AcDbLine
 10
80.0
 20
149.605939930136
 11
80.5
 21
149.105939930136
  0
LINE
  5
619
100
AcDbEntity
  8
2
  6
CONTINUOUS
100
AcDbLine
 10
91.0
 20
250.394060069864
 11
90.5
 21
250.894060069864
  0
LINE
  5
61A
100
AcDbEntity
  8
2
  6
CONTINUOUS
100
AcDbLine
 10
90.5
 20
149.105939930136
 11
91.0
 21
149.605939930136
  0
LINE
  5
61B
100
AcDbEntity
  8
2
  6
CONTINUOUS
100
AcDbLine
 10
90.5
 20
243.50515804433
 11
91.0
 21
243.00515804433
  0
LINE
  5
61C
100
AcDbEntity
  8
2
  6
CONTINUOUS
100
AcDbLine
 10
90.5
 20
156.49484195567
 11
91.0
 21
156.99484195567
  0
LINE
  5
61D
100
AcDbEntity
  8
2
  6
CONTINUOUS
100
AcDbLine
 10
90.5
 20
149.105939930136
 11
90.5
 21
156.49484195567
  0
LINE
  5
61E
100
AcDbEntity
  8
2
  6
CONTINUOUS
100
AcDbLine
 10
90.5
 20
243.50515804433
 11
90.5
 21
250.894060069864
  0
LINE
  5
61F
100
AcDbEntity
  8
2
  6
CONTINUOUS
100
AcDbLine
 10
80.5
 20
156.49484195567
 11
80.0
 21
156.99484195567
  0
LINE
  5
620
100
AcDbEntity
  8
2
  6
CONTINUOUS
100
AcDbLine
 10
80.5
 20
243.50515804433
 11
80.0
 21
243.00515804433
  0
LINE
  5
621
100
AcDbEntity
  8
2
  6
CONTINUOUS
100
AcDbLine
 10
80.5
 20
149.105939930136
 11
80.5
 21
156.49484195567
  0
LINE
  5
622
100
AcDbEntity
  8
2
  6
CONTINUOUS
100
AcDbLine
 10
80.5
 20
243.50515804433
 11
80.5
 21
250.894060069864
  0
LINE
  5
623
100
AcDbEntity
  8
2
  6
CONTINUOUS
100
AcDbLine
 10
116.0
 20
156.49484195567
 11
91.5
 21
156.49484195567
  0
LINE
  5
624
100
AcDbEntity
  8
2
  6
CONTINUOUS
100
AcDbLine
 10
90.5
 20
156.49484195567
 11
80.5
 21
156.49484195567
  0
LINE
  5
625
100
AcDbEntity
  8
2
  6
CONTINUOUS
100
AcDbLine
 10
116.0
 20
149.105939930136
 11
91.5
 21
149.105939930136
  0
LINE
  5
626
100
AcDbEntity
  8
2
  6
CONTINUOUS
100
AcDbLine
 10
90.5
 20
149.105939930136
 11
80.5
 21
149.105939930136
  0
LINE
  5
627
100
AcDbEntity
  8
2
  6
CONTINUOUS
100
AcDbLine
 10
116.0
 20
243.50515804433
 11
91.5
 21
243.50515804433
  0
LINE
  5
628
100
AcDbEntity
  8
2
  6
CONTINUOUS
100
AcDbLine
 10
90.5
 20
243.50515804433
 11
80.5
 21
243.50515804433
  0
LINE
  5
629
100
AcDbEntity
  8
2
  6
CONTINUOUS
100
AcDbLine
 10
116.0
 20
250.894060069864
 11
91.5
 21
250.894060069864
  0
LINE
  5
62A
100
AcDbEntity
  8
2
  6
CONTINUOUS
100
AcDbLine
 10
90.5
 20
250.894060069864
 11
80.5
 21
250.894060069864
  0
LINE
  5
62B
100
AcDbEntity
  8
2
  6
CONTINUOUS
100
AcDbLine
 10
40.0
 20
183.5
 11
64.0
 21
183.5
  0
LINE
  5
62C
100
AcDbEntity
  8
2
  6
CONTINUOUS
100
AcDbLine
 10
64.0
 20
182.5
 11
64.0
 21
217.5
  0
LINE
  5
62D
100
AcDbEntity
  8
2
  6
CONTINUOUS
100
AcDbLine
 10
0.0
 20
189.623584433922
 11
40.0
 21
189.623584433922
  0
LINE
  5
62E
100
AcDbEntity
  8
2
  6
CONTINUOUS
100
AcDbLine
 10
0.0
 20
187.3
 11
40.0
 21
187.3
  0
LINE
  5
62F
100
AcDbEntity
  8
2
  6
CONTINUOUS
100
AcDbLine
 10
40.0
 20
216.5
 11
40.0
 21
212.7
  0
LINE
  5
630
100
AcDbEntity
  8
2
  6
CONTINUOUS
100
AcDbLine
 10
40.0
 20
210.37641556608
 11
40.0
 21
189.623584433922
  0
LINE
  5
631
100
AcDbEntity
  8
2
  6
CONTINUOUS
100
AcDbLine
 10
40.0
 20
187.3
 11
40.0
 21
183.5
  0
LINE
  5
632
100
AcDbEntity
  8
2
  6
CONTINUOUS
100
AcDbLine
 10
0.0
 20
212.7
 11
0.0
 21
187.3
  0
LINE
  5
633
100
AcDbEntity
  8
2
  6
CONTINUOUS
100
AcDbLine
 10
0.0
 20
210.37641556608
 11
40.0
 21
210.37641556608
  0
LINE
  5
634
100
AcDbEntity
  8
2
  6
CONTINUOUS
100
AcDbLine
 10
0.0
 20
212.7
 11
40.0
 21
212.7
  0
LINE
  5
635
100
AcDbEntity
  8
2
  6
CONTINUOUS
100
AcDbLine
 10
40.0
 20
216.5
 11
64.0
 21
216.5
  0
LINE
  5
636
100
AcDbEntity
  8
2
  6
CONTINUOUS
100
AcDbLine
 10
64.0
 20
217.5
 11
68.0
 21
217.5
  0
LINE
  5
637
100
AcDbEntity
  8
2
  6
CONTINUOUS
100
AcDbLine
 10
64.0
 20
182.5
 11
68.0
 21
182.5
  0
ARC
  5
638
100
AcDbEntity
  8
2
  6
CONTINUOUS
100
AcDbCircle
 10
638.499999999981
 20
200.0
 40
6.20000000000005
100
AcDbArc
 50
90.0
 51
270.0
  0
ARC
  5
639
100
AcDbEntity
  8
2
  6
CONTINUOUS
100
AcDbCircle
 10
638.499999999981
 20
200.0
 40
11.3
100
AcDbArc
 50
33.2759930575029
 51
326.724006942497
  0
LINE
  5
63A
100
AcDbEntity
  8
2
  6
CONTINUOUS
100
AcDbLine
 10
653.499999999981
 20
171.0
 11
653.499999999981
 21
193.8
  0
LINE
  5
63B
100
AcDbEntity
  8
2
  6
CONTINUOUS
100
AcDbLine
 10
653.499999999981
 20
206.2
 11
653.499999999981
 21
229.0
  0
LINE
  5
63C
100
AcDbEntity
  8
2
  6
CONTINUOUS
100
AcDbLine
 10
287.39999999998
 20
201.5
 11
287.49999999998
 21
201.5
  0
LINE
  5
63D
100
AcDbEntity
  8
2
  6
CONTINUOUS
100
AcDbLine
 10
287.39999999998
 20
227.5
 11
287.49999999998
 21
227.5
  0
LINE
  5
63E
100
AcDbEntity
  8
2
  6
CONTINUOUS
100
AcDbLine
 10
739.599999999981
 20
217.0
 11
739.599999999981
 21
183.0
  0
LINE
  5
63F
100
AcDbEntity
  8
2
  6
CONTINUOUS
100
AcDbLine
 10
735.599999999981
 20
187.5
 11
734.599999999981
 21
187.5
  0
LINE
  5
640
100
AcDbEntity
  8
2
  6
CONTINUOUS
100
AcDbLine
 10
735.599999999981
 20
212.5
 11
734.599999999981
 21
212.5
  0
LINE
  5
641
100
AcDbEntity
  8
2
  6
CONTINUOUS
100
AcDbLine
 10
734.599999999981
 20
183.5
 11
734.599999999981
 21
216.5
  0
LINE
  5
642
100
AcDbEntity
  8
2
  6
CONTINUOUS
100
AcDbLine
 10
749.599999999981
 20
183.5
 11
749.599999999981
 21
216.5
  0
LINE
  5
643
100
AcDbEntity
  8
2
  6
CONTINUOUS
100
AcDbLine
 10
739.599999999981
 20
183.5
 11
749.599999999981
 21
183.5
  0
LINE
  5
644
100
AcDbEntity
  8
2
  6
CONTINUOUS
100
AcDbLine
 10
749.599999999981
 20
185.0
 11
739.599999999981
 21
185.0
  0
LINE
  5
645
100
AcDbEntity
  8
2
  6
CONTINUOUS
100
AcDbLine
 10
739.599999999981
 20
186.5
 11
749.599999999981
 21
186.5
  0
LINE
  5
646
100
AcDbEntity
  8
2
  6
CONTINUOUS
100
AcDbLine
 10
749.599999999981
 20
188.0
 11
739.599999999981
 21
188.0
  0
LINE
  5
647
100
AcDbEntity
  8
2
  6
CONTINUOUS
100
AcDbLine
 10
739.599999999981
 20
189.5
 11
749.599999999981
 21
189.5
  0
LINE
  5
648
100
AcDbEntity
  8
2
  6
CONTINUOUS
100
AcDbLine
 10
749.599999999981
 20
191.0
 11
739.599999999981
 21
191.0
  0
LINE
  5
649
100
AcDbEntity
  8
2
  6
CONTINUOUS
100
AcDbLine
 10
739.599999999981
 20
192.5
 11
749.599999999981
 21
192.5
  0
LINE
  5
64A
100
AcDbEntity
  8
2
  6
CONTINUOUS
100
AcDbLine
 10
749.599999999981
 20
194.0
 11
739.599999999981
 21
194.0
  0
LINE
  5
64B
100
AcDbEntity
  8
2
  6
CONTINUOUS
100
AcDbLine
 10
739.599999999981
 20
195.5
 11
749.599999999981
 21
195.5
  0
LINE
  5
64C
100
AcDbEntity
  8
2
  6
CONTINUOUS
100
AcDbLine
 10
749.599999999981
 20
197.0
 11
739.599999999981
 21
197.0
  0
LINE
  5
64D
100
AcDbEntity
  8
2
  6
CONTINUOUS
100
AcDbLine
 10
739.599999999981
 20
198.5
 11
749.599999999981
 21
198.5
  0
LINE
  5
64E
100
AcDbEntity
  8
2
  6
CONTINUOUS
100
AcDbLine
 10
749.599999999981
 20
200.0
 11
739.599999999981
 21
200.0
  0
LINE
  5
64F
100
AcDbEntity
  8
2
  6
CONTINUOUS
100
AcDbLine
 10
739.599999999981
 20
201.5
 11
749.599999999981
 21
201.5
  0
LINE
  5
650
100
AcDbEntity
  8
2
  6
CONTINUOUS
100
AcDbLine
 10
749.599999999981
 20
203.0
 11
739.599999999981
 21
203.0
  0
LINE
  5
651
100
AcDbEntity
  8
2
  6
CONTINUOUS
100
AcDbLine
 10
739.599999999981
 20
204.5
 11
749.599999999981
 21
204.5
  0
LINE
  5
652
100
AcDbEntity
  8
2
  6
CONTINUOUS
100
AcDbLine
 10
749.599999999981
 20
206.0
 11
739.599999999981
 21
206.0
  0
LINE
  5
653
100
AcDbEntity
  8
2
  6
CONTINUOUS
100
AcDbLine
 10
739.599999999981
 20
207.5
 11
749.599999999981
 21
207.5
  0
LINE
  5
654
100
AcDbEntity
  8
2
  6
CONTINUOUS
100
AcDbLine
 10
749.599999999981
 20
209.0
 11
739.599999999981
 21
209.0
  0
LINE
  5
655
100
AcDbEntity
  8
2
  6
CONTINUOUS
100
AcDbLine
 10
739.599999999981
 20
210.5
 11
749.599999999981
 21
210.5
  0
LINE
  5
656
100
AcDbEntity
  8
2
  6
CONTINUOUS
100
AcDbLine
 10
749.599999999981
 20
212.0
 11
739.599999999981
 21
212.0
  0
LINE
  5
657
100
AcDbEntity
  8
2
  6
CONTINUOUS
100
AcDbLine
 10
739.599999999981
 20
213.5
 11
749.599999999981
 21
213.5
  0
LINE
  5
658
100
AcDbEntity
  8
2
  6
CONTINUOUS
100
AcDbLine
 10
749.599999999981
 20
215.0
 11
739.599999999981
 21
215.0
  0
LINE
  5
659
100
AcDbEntity
  8
2
  6
CONTINUOUS
100
AcDbLine
 10
739.599999999981
 20
216.5
 11
749.599999999981
 21
216.5
  0
LINE
  5
65A
100
AcDbEntity
  8
2
  6
CONTINUOUS
100
AcDbLine
 10
727.599999999981
 20
185.0
 11
734.599999999981
 21
185.0
  0
LINE
  5
65B
100
AcDbEntity
  8
2
  6
CONTINUOUS
100
AcDbLine
 10
734.599999999981
 20
186.5
 11
727.599999999981
 21
186.5
  0
LINE
  5
65C
100
AcDbEntity
  8
2
  6
CONTINUOUS
100
AcDbLine
 10
727.599999999981
 20
188.0
 11
734.599999999981
 21
188.0
  0
LINE
  5
65D
100
AcDbEntity
  8
2
  6
CONTINUOUS
100
AcDbLine
 10
734.599999999981
 20
189.5
 11
727.599999999981
 21
189.5
  0
LINE
  5
65E
100
AcDbEntity
  8
2
  6
CONTINUOUS
100
AcDbLine
 10
727.599999999981
 20
191.0
 11
734.599999999981
 21
191.0
  0
LINE
  5
65F
100
AcDbEntity
  8
2
  6
CONTINUOUS
100
AcDbLine
 10
734.599999999981
 20
192.5
 11
727.599999999981
 21
192.5
  0
LINE
  5
660
100
AcDbEntity
  8
2
  6
CONTINUOUS
100
AcDbLine
 10
727.599999999981
 20
194.0
 11
734.599999999981
 21
194.0
  0
LINE
  5
661
100
AcDbEntity
  8
2
  6
CONTINUOUS
100
AcDbLine
 10
734.599999999981
 20
195.5
 11
727.599999999981
 21
195.5
  0
LINE
  5
662
100
AcDbEntity
  8
2
  6
CONTINUOUS
100
AcDbLine
 10
727.599999999981
 20
197.0
 11
734.599999999981
 21
197.0
  0
LINE
  5
663
100
AcDbEntity
  8
2
  6
CONTINUOUS
100
AcDbLine
 10
734.599999999981
 20
198.5
 11
727.599999999981
 21
198.5
  0
LINE
  5
664
100
AcDbEntity
  8
2
  6
CONTINUOUS
100
AcDbLine
 10
727.599999999981
 20
200.0
 11
734.599999999981
 21
200.0
  0
LINE
  5
665
100
AcDbEntity
  8
2
  6
CONTINUOUS
100
AcDbLine
 10
734.599999999981
 20
201.5
 11
727.599999999981
 21
201.5
  0
LINE
  5
666
100
AcDbEntity
  8
2
  6
CONTINUOUS
100
AcDbLine
 10
727.599999999981
 20
203.0
 11
734.599999999981
 21
203.0
  0
LINE
  5
667
100
AcDbEntity
  8
2
  6
CONTINUOUS
100
AcDbLine
 10
734.599999999981
 20
204.5
 11
727.599999999981
 21
204.5
  0
LINE
  5
668
100
AcDbEntity
  8
2
  6
CONTINUOUS
100
AcDbLine
 10
727.599999999981
 20
206.0
 11
734.599999999981
 21
206.0
  0
LINE
  5
669
100
AcDbEntity
  8
2
  6
CONTINUOUS
100
AcDbLine
 10
734.599999999981
 20
207.5
 11
727.599999999981
 21
207.5
  0
LINE
  5
66A
100
AcDbEntity
  8
2
  6
CONTINUOUS
100
AcDbLine
 10
727.599999999981
 20
209.0
 11
734.599999999981
 21
209.0
  0
LINE
  5
66B
100
AcDbEntity
  8
2
  6
CONTINUOUS
100
AcDbLine
 10
734.599999999981
 20
210.5
 11
727.599999999981
 21
210.5
  0
LINE
  5
66C
100
AcDbEntity
  8
2
  6
CONTINUOUS
100
AcDbLine
 10
727.599999999981
 20
212.0
 11
734.599999999981
 21
212.0
  0
LINE
  5
66D
100
AcDbEntity
  8
2
  6
CONTINUOUS
100
AcDbLine
 10
734.599999999981
 20
213.5
 11
727.599999999981
 21
213.5
  0
LINE
  5
66E
100
AcDbEntity
  8
2
  6
CONTINUOUS
100
AcDbLine
 10
727.599999999981
 20
215.0
 11
734.599999999981
 21
215.0
  0
LINE
  5
66F
100
AcDbEntity
  8
2
  6
CONTINUOUS
100
AcDbLine
 10
703.599999999981
 20
185.0
 11
703.599999999981
 21
184.0
  0
LINE
  5
670
100
AcDbEntity
  8
2
  6
CONTINUOUS
100
AcDbLine
 10
703.599999999981
 20
215.0
 11
703.599999999981
 21
216.0
  0
ARC
  5
671
100
AcDbEntity
  8
2
  6
CONTINUOUS
100
AcDbCircle
 10
697.099999999981
 20
189.5
 40
5.50000000000011
100
AcDbArc
 50
270.0
 51
0.0
  0
LINE
  5
672
100
AcDbEntity
  8
2
  6
CONTINUOUS
100
AcDbLine
 10
702.599999999981
 20
189.5
 11
702.599999999981
 21
210.5
  0
ARC
  5
673
100
AcDbEntity
  8
2
  6
CONTINUOUS
100
AcDbCircle
 10
697.099999999981
 20
210.5
 40
5.50000000000011
100
AcDbArc
 50
0.0
 51
90.0
  0
LINE
  5
674
100
AcDbEntity
  8
2
  6
CONTINUOUS
100
AcDbLine
 10
702.599999999981
 20
192.5
 11
691.599999999981
 21
192.5
  0
LINE
  5
675
100
AcDbEntity
  8
2
  6
CONTINUOUS
100
AcDbLine
 10
702.599999999981
 20
207.5
 11
691.599999999981
 21
207.5
  0
CIRCLE
  5
676
100
AcDbEntity
  8
2
  6
CONTINUOUS
100
AcDbCircle
 10
697.099999999981
 20
188.0
 40
1.5
  0
CIRCLE
  5
677
100
AcDbEntity
  8
2
  6
CONTINUOUS
100
AcDbCircle
 10
697.099999999981
 20
212.0
 40
3.0
  0
LINE
  5
678
100
AcDbEntity
  8
2
  6
CONTINUOUS
100
AcDbLine
 10
698.782999999981
 20
210.085
 11
696.282999999981
 21
214.415
  0
LINE
  5
679
100
AcDbEntity
  8
2
  6
CONTINUOUS
100
AcDbLine
 10
696.282999999981
 20
214.415
 11
695.416999999981
 21
213.915
  0
LINE
  5
67A
100
AcDbEntity
  8
2
  6
CONTINUOUS
100
AcDbLine
 10
695.416999999981
 20
213.915
 11
697.916999999981
 21
209.585
  0
LINE
  5
67B
100
AcDbEntity
  8
2
  6
CONTINUOUS
100
AcDbLine
 10
697.916999999981
 20
209.585
 11
698.782999999981
 21
210.085
  0
LINE
  5
67C
100
AcDbEntity
  8
2
  6
CONTINUOUS
100
AcDbLine
 10
718.099999999981
 20
188.5
 11
718.099999999981
 21
211.5
  0
LINE
  5
67D
100
AcDbEntity
  8
2
  6
CONTINUOUS
100
AcDbLine
 10
704.099999999981
 20
191.0
 11
715.099999999981
 21
191.0
  0
LINE
  5
67E
100
AcDbEntity
  8
2
  6
CONTINUOUS
100
AcDbLine
 10
715.099999999981
 20
194.0
 11
704.099999999981
 21
194.0
  0
LINE
  5
67F
100
AcDbEntity
  8
2
  6
CONTINUOUS
100
AcDbLine
 10
715.099999999981
 20
191.0
 11
715.099999999981
 21
194.0
  0
LINE
  5
680
100
AcDbEntity
  8
2
  6
CONTINUOUS
100
AcDbLine
 10
704.099999999981
 20
194.0
 11
704.099999999981
 21
191.0
  0
LINE
  5
681
100
AcDbEntity
  8
2
  6
CONTINUOUS
100
AcDbLine
 10
703.599999999981
 20
215.0
 11
703.599999999981
 21
185.0
  0
LINE
  5
682
100
AcDbEntity
  8
2
  6
CONTINUOUS
100
AcDbLine
 10
704.099999999981
 20
209.0
 11
715.099999999981
 21
209.0
  0
LINE
  5
683
100
AcDbEntity
  8
2
  6
CONTINUOUS
100
AcDbLine
 10
715.099999999981
 20
206.0
 11
704.099999999981
 21
206.0
  0
LINE
  5
684
100
AcDbEntity
  8
2
  6
CONTINUOUS
100
AcDbLine
 10
715.099999999981
 20
209.0
 11
715.099999999981
 21
206.0
  0
LINE
  5
685
100
AcDbEntity
  8
2
  6
CONTINUOUS
100
AcDbLine
 10
704.099999999981
 20
206.0
 11
704.099999999981
 21
209.0
  0
LINE
  5
686
100
AcDbEntity
  8
2
  6
CONTINUOUS
100
AcDbLine
 10
727.099999999981
 20
191.5
 11
727.099999999981
 21
193.5
  0
LINE
  5
687
100
AcDbEntity
  8
2
  6
CONTINUOUS
100
AcDbLine
 10
727.099999999981
 20
193.5
 11
719.099999999981
 21
193.5
  0
ARC
  5
688
100
AcDbEntity
  8
2
  6
CONTINUOUS
100
AcDbCircle
 10
719.099999999981
 20
192.5
 40
1.0
100
AcDbArc
 50
90.0
 51
180.0
  0
LINE
  5
689
100
AcDbEntity
  8
2
  6
CONTINUOUS
100
AcDbLine
 10
719.099999999981
 20
191.5
 11
727.099999999981
 21
191.5
  0
POINT
  5
68A
100
AcDbEntity
  8
2
  6
CONTINUOUS
100
AcDbPoint
 10
718.099999999981
 20
192.5
  0
ARC
  5
68B
100
AcDbEntity
  8
2
  6
CONTINUOUS
100
AcDbCircle
 10
719.099999999981
 20
192.5
 40
1.0
100
AcDbArc
 50
180.0
 51
270.0
  0
LINE
  5
68C
100
AcDbEntity
  8
2
  6
CONTINUOUS
100
AcDbLine
 10
727.099999999981
 20
208.5
 11
727.099999999981
 21
206.5
  0
LINE
  5
68D
100
AcDbEntity
  8
2
  6
CONTINUOUS
100
AcDbLine
 10
727.099999999981
 20
206.5
 11
719.099999999981
 21
206.5
  0
ARC
  5
68E
100
AcDbEntity
  8
2
  6
CONTINUOUS
100
AcDbCircle
 10
719.099999999981
 20
207.5
 40
1.0
100
AcDbArc
 50
180.0
 51
270.0
  0
LINE
  5
68F
100
AcDbEntity
  8
2
  6
CONTINUOUS
100
AcDbLine
 10
719.099999999981
 20
208.5
 11
727.099999999981
 21
208.5
  0
ARC
  5
690
100
AcDbEntity
  8
2
  6
CONTINUOUS
100
AcDbCircle
 10
719.099999999981
 20
207.5
 40
1.0
100
AcDbArc
 50
90.0
 51
180.0
  0
ARC
  5
691
100
AcDbEntity
  8
2
  6
CONTINUOUS
100
AcDbCircle
 10
697.099999999981
 20
189.5
 40
5.50000000000011
100
AcDbArc
 50
180.0
 51
270.0
  0
LINE
  5
692
100
AcDbEntity
  8
2
  6
CONTINUOUS
100
AcDbLine
 10
691.599999999981
 20
189.5
 11
691.599999999981
 21
210.5
  0
LINE
  5
693
100
AcDbEntity
  8
2
  6
CONTINUOUS
100
AcDbLine
 10
703.599999999981
 20
184.0
 11
697.099999999981
 21
184.0
  0
ARC
  5
694
100
AcDbEntity
  8
2
  6
CONTINUOUS
100
AcDbCircle
 10
697.099999999981
 20
210.5
 40
5.50000000000011
100
AcDbArc
 50
90.0
 51
180.0
  0
LINE
  5
695
100
AcDbEntity
  8
2
  6
CONTINUOUS
100
AcDbLine
 10
703.599999999981
 20
216.0
 11
697.099999999981
 21
216.0
  0
LINE
  5
696
100
AcDbEntity
  8
2
  6
CONTINUOUS
100
AcDbLine
 10
714.599999999981
 20
215.0
 11
703.599999999981
 21
215.0
  0
ARC
  5
697
100
AcDbEntity
  8
2
  6
CONTINUOUS
100
AcDbCircle
 10
714.599999999981
 20
214.0
 40
1.0
100
AcDbArc
 50
0.0
 51
90.0
  0
ARC
  5
698
100
AcDbEntity
  8
2
  6
CONTINUOUS
100
AcDbCircle
 10
720.099999999981
 20
211.5
 40
1.99999999999994
100
AcDbArc
 50
90.0
 51
180.0
  0
LINE
  5
699
100
AcDbEntity
  8
2
  6
CONTINUOUS
100
AcDbLine
 10
727.599999999981
 20
213.5
 11
720.099999999981
 21
213.5
  0
LINE
  5
69A
100
AcDbEntity
  8
2
  6
CONTINUOUS
100
AcDbLine
 10
734.599999999981
 20
216.5
 11
728.099999999981
 21
216.5
  0
LINE
  5
69B
100
AcDbEntity
  8
2
  6
CONTINUOUS
100
AcDbLine
 10
727.599999999981
 20
184.0
 11
727.599999999981
 21
216.0
  0
ARC
  5
69C
100
AcDbEntity
  8
2
  6
CONTINUOUS
100
AcDbCircle
 10
728.099999999981
 20
216.0
 40
0.499999999999943
100
AcDbArc
 50
90.0
 51
180.0
  0
LINE
  5
69D
100
AcDbEntity
  8
2
  6
CONTINUOUS
100
AcDbLine
 10
739.599999999981
 20
217.0
 11
736.099999999981
 21
217.0
  0
ARC
  5
69E
100
AcDbEntity
  8
2
  6
CONTINUOUS
100
AcDbCircle
 10
736.099999999981
 20
216.5
 40
0.499999999999943
100
AcDbArc
 50
90.0
 51
180.0
  0
LINE
  5
69F
100
AcDbEntity
  8
2
  6
CONTINUOUS
100
AcDbLine
 10
753.099999999981
 20
216.0
 11
749.599999999981
 21
216.0
  0
ARC
  5
6A0
100
AcDbEntity
  8
2
  6
CONTINUOUS
100
AcDbCircle
 10
753.099999999981
 20
215.5
 40
0.499999999999943
100
AcDbArc
 50
0.0
 51
90.0
  0
LINE
  5
6A1
100
AcDbEntity
  8
2
  6
CONTINUOUS
100
AcDbLine
 10
756.599999999981
 20
212.0
 11
753.599999999981
 21
212.0
  0
LINE
  5
6A2
100
AcDbEntity
  8
2
  6
CONTINUOUS
100
AcDbLine
 10
715.599999999981
 20
211.5
 11
718.099999999981
 21
211.5
  0
LINE
  5
6A3
100
AcDbEntity
  8
2
  6
CONTINUOUS
100
AcDbLine
 10
715.599999999981
 20
186.0
 11
715.599999999981
 21
214.0
  0
ARC
  5
6A4
100
AcDbEntity
  8
2
  6
CONTINUOUS
100
AcDbCircle
 10
714.599999999981
 20
186.0
 40
1.0
100
AcDbArc
 50
270.0
 51
0.0
  0
LINE
  5
6A5
100
AcDbEntity
  8
2
  6
CONTINUOUS
100
AcDbLine
 10
703.599999999981
 20
185.0
 11
714.599999999981
 21
185.0
  0
LINE
  5
6A6
100
AcDbEntity
  8
2
  6
CONTINUOUS
100
AcDbLine
 10
715.599999999981
 20
188.5
 11
718.099999999981
 21
188.5
  0
ARC
  5
6A7
100
AcDbEntity
  8
2
  6
CONTINUOUS
100
AcDbCircle
 10
720.099999999981
 20
188.5
 40
1.99999999999994
100
AcDbArc
 50
180.0
 51
270.0
  0
LINE
  5
6A8
100
AcDbEntity
  8
2
  6
CONTINUOUS
100
AcDbLine
 10
727.599999999981
 20
186.5
 11
720.099999999981
 21
186.5
  0
LINE
  5
6A9
100
AcDbEntity
  8
2
  6
CONTINUOUS
100
AcDbLine
 10
734.599999999981
 20
183.5
 11
728.099999999981
 21
183.5
  0
ARC
  5
6AA
100
AcDbEntity
  8
2
  6
CONTINUOUS
100
AcDbCircle
 10
728.099999999981
 20
184.0
 40
0.499999999999943
100
AcDbArc
 50
180.0
 51
270.0
  0
LINE
  5
6AB
100
AcDbEntity
  8
2
  6
CONTINUOUS
100
AcDbLine
 10
736.099999999981
 20
183.0
 11
739.599999999981
 21
183.0
  0
ARC
  5
6AC
100
AcDbEntity
  8
2
  6
CONTINUOUS
100
AcDbCircle
 10
736.099999999981
 20
183.5
 40
0.499999999999943
100
AcDbArc
 50
180.0
 51
270.0
  0
LINE
  5
6AD
100
AcDbEntity
  8
2
  6
CONTINUOUS
100
AcDbLine
 10
735.599999999981
 20
216.5
 11
735.599999999981
 21
183.5
  0
LINE
  5
6AE
100
AcDbEntity
  8
2
  6
CONTINUOUS
100
AcDbLine
 10
739.599999999981
 20
183.0
 11
749.099999999981
 21
183.0
  0
ARC
  5
6AF
100
AcDbEntity
  8
2
  6
CONTINUOUS
100
AcDbCircle
 10
749.099999999981
 20
183.5
 40
0.499999999999943
100
AcDbArc
 50
270.0
 51
0.0
  0
ARC
  5
6B0
100
AcDbEntity
  8
2
  6
CONTINUOUS
100
AcDbCircle
 10
753.099999999981
 20
184.5
 40
0.499999999999943
100
AcDbArc
 50
270.0
 51
0.0
  0
LINE
  5
6B1
100
AcDbEntity
  8
2
  6
CONTINUOUS
100
AcDbLine
 10
749.599999999981
 20
184.0
 11
753.099999999981
 21
184.0
  0
LINE
  5
6B2
100
AcDbEntity
  8
2
  6
CONTINUOUS
100
AcDbLine
 10
753.599999999981
 20
188.0
 11
756.599999999981
 21
188.0
  0
LINE
  5
6B3
100
AcDbEntity
  8
2
  6
CONTINUOUS
100
AcDbLine
 10
753.599999999981
 20
184.5
 11
753.599999999981
 21
215.5
  0
ARC
  5
6B4
100
AcDbEntity
  8
2
  6
CONTINUOUS
100
AcDbCircle
 10
749.099999999981
 20
216.5
 40
0.499999999999943
100
AcDbArc
 50
0.0
 51
90.0
  0
LINE
  5
6B5
100
AcDbEntity
  8
2
  6
CONTINUOUS
100
AcDbLine
 10
749.099999999981
 20
217.0
 11
739.599999999981
 21
217.0
  0
LINE
  5
6B6
100
AcDbEntity
  8
2
  6
CONTINUOUS
100
AcDbLine
 10
691.599999999981
 20
206.2
 11
638.499999999981
 21
206.2
  0
LINE
  5
6B7
100
AcDbEntity
  8
2
  6
CONTINUOUS
100
AcDbLine
 10
638.499999999981
 20
193.8
 11
691.599999999981
 21
193.8
  0
LINE
  5
6B8
100
AcDbEntity
  8
6
  6
CENTER
100
AcDbLine
 10
-10.0
 20
200.0
 11
766.599999999981
 21
200.0
  0
LINE
  5
6B9
100
AcDbEntity
  8
2
  6
CONTINUOUS
100
AcDbLine
 10
756.599999999981
 20
188.0
 11
756.599999999981
 21
212.0
  0
DIMENSION
  5
6C9
100
AcDbEntity
  8
4
  6
CONTINUOUS
 62
     2
100
AcDbDimension
  2
*D11
 10
0.0
 20
125.0
 11
326.74999999999
 21
125.0
 70
    32
  3
ISO-25
100
AcDbAlignedDimension
 13
653.499999999981
 23
33.999999999999
 14
0.0
 24
12.7
 50
180.0
100
AcDbRotatedDimension
  0
DIMENSION
  5
6D9
100
AcDbEntity
  8
4
  6
CONTINUOUS
 62
     2
100
AcDbDimension
  2
*D12
 10
372.99999999998
 20
110.0
 11
513.24999999998
 21
110.0
 70
    32
  3
ISO-25
100
AcDbAlignedDimension
 13
653.499999999981
 23
34.499999999999
 14
372.99999999998
 24
43.999999999999
 50
180.0
100
AcDbRotatedDimension
  0
DIMENSION
  5
6E8
100
AcDbEntity
  8
4
  6
CONTINUOUS
 62
     2
100
AcDbDimension
  2
*D13
 10
80.0
 20
110.0
 11
226.49999999999
 21
110.0
 70
    32
  3
ISO-25
100
AcDbAlignedDimension
 13
372.99999999998
 23
43.999999999999
 14
80.0
 24
50.152
 50
180.0
100
AcDbRotatedDimension
1001
ACAD
1000
DSTYLE
1002
{
1070
    75
1070
     1
1002
}
  0
DIMENSION
  5
6F7
100
AcDbEntity
  8
4
  6
CONTINUOUS
 62
     2
100
AcDbDimension
  2
*D14
 10
0.0
 20
110.0
 11
40.0
 21
110.0
 70
    32
  3
ISO-25
100
AcDbAlignedDimension
 13
80.0
 23
50.152
 14
0.0
 24
12.7
 50
180.0
100
AcDbRotatedDimension
1001
ACAD
1000
DSTYLE
1002
{
1070
    75
1070
     1
1002
}
  0
DIMENSION
  5
707
100
AcDbEntity
  8
4
  6
CONTINUOUS
 62
     2
100
AcDbDimension
  2
*D15
 10
40.0
 20
95.0
 11
20.0
 21
95.0
 70
    32
  3
ISO-25
100
AcDbAlignedDimension
 13
0.0
 23
12.7
 14
40.0
 24
16.5
 50
0.0
100
AcDbRotatedDimension
  0
DIMENSION
  5
717
100
AcDbEntity
  8
4
  6
CONTINUOUS
 62
     2
100
AcDbDimension
  2
*D16
 10
15.0000011936351
 20
80.0
 11
7.50000059681702
 21
80.0
 70
    32
  3
ISO-25
100
AcDbAlignedDimension
 13
0.0
 23
12.7
 14
15.0000011936351
 24
12.700000000001
 50
0.0
100
AcDbRotatedDimension
  0
DIMENSION
  5
727
100
AcDbEntity
  8
4
  6
CONTINUOUS
 62
     2
100
AcDbDimension
  2
*D17
 10
-15.0
 20
-16.5
 11
-15.0
 21
0.0
 70
    32
  3
ISO-25
100
AcDbAlignedDimension
 13
40.0
 23
16.5
 14
40.0
 24
-16.5
 50
270.0
100
AcDbRotatedDimension
  0
DIMENSION
  5
739
100
AcDbEntity
  8
4
  6
CONTINUOUS
 62
     2
100
AcDbDimension
  2
*D18
 10
-30.0
 20
-35.0000000000003
 11
-31.0
 21
-4.875
 70
    32
  3
ISO-25
100
AcDbAlignedDimension
 13
69.0
 23
35.0
 14
69.0
 24
-35.0000000000003
 50
270.0
100
AcDbRotatedDimension
1001
ACAD
1000
DSTYLE
1002
{
1070
    47
1040
-0.03
1070
    48
1040
0.05
1070
    71
1070
     1
1070
   146
1040
0.714285714285714
1070
   272
1070
     2
1002
}
  0
DIMENSION
  5
748
100
AcDbEntity
  8
4
  6
CONTINUOUS
 62
     2
100
AcDbDimension
  2
*D19
 10
13.808637427682
 20
-3.02376507375897
 11
-10.2245878674139
 21
-50.5383308474773
 70
    35
  3
ISO-25
100
AcDbDiametricDimension
 15
16.1913625723171
 25
3.02376507375703
1001
ACAD
1000
DSTYLE
1002
{
1070
   280
1070
     1
1002
}
  0
ARC
  5
749
100
AcDbEntity
  8
7
  6
CENTER2
 62
    40
100
AcDbCircle
 10
653.499999999981
 20
-180.000000000001
 40
40.0
100
AcDbArc
 50
13.3559188016466
 51
60.2221652157881
  0
ARC
  5
74A
100
AcDbEntity
  8
7
  6
CENTER2
 62
    40
100
AcDbCircle
 10
653.499999999981
 20
-180.000000000001
 40
40.0
100
AcDbArc
 50
133.516350179548
 51
166.628845226529
  0
ARC
  5
74B
100
AcDbEntity
  8
7
  6
CENTER2
 62
    40
100
AcDbCircle
 10
653.499999999981
 20
-180.000000000001
 40
40.0
100
AcDbArc
 50
232.337721235354
 51
286.644081198355
  0
LINE
  5
74C
100
AcDbEntity
  8
7
  6
CENTER2
 62
    40
100
AcDbLine
 10
646.501755520403
 20
-218.000000000001
 11
661.552875355114
 21
-218.000000000001
  0
ARC
  5
74D
100
AcDbEntity
  8
2
  6
CONTINUOUS
100
AcDbCircle
 10
653.499999999981
 20
-220.000000000001
 40
5.64999999999997
100
AcDbArc
 50
222.278725284079
 51
317.72127471592
  0
DIMENSION
  5
75D
100
AcDbEntity
  8
4
  6
CONTINUOUS
 62
     2
100
AcDbDimension
  2
*D20
 10
170.0
 20
-133.5
 11
170.0
 21
-156.750000000001
 70
    32
  3
ISO-25
100
AcDbAlignedDimension
 13
135.425625842186
 23
-180.000000000001
 14
112.5
 24
-133.5
 50
90.0
100
AcDbRotatedDimension
  0
LINE
  5
75E
100
AcDbEntity
  8
2
  6
CONTINUOUS
100
AcDbLine
 10
110.5
 20
-133.5
 11
110.5
 21
-127.5
  0
LINE
  5
75F
100
AcDbEntity
  8
2
  6
CONTINUOUS
100
AcDbLine
 10
49.5000000000001
 20
-133.5
 11
49.5000000000001
 21
-127.5
  0
ARC
  5
760
100
AcDbEntity
  8
2
  6
CONTINUOUS
100
AcDbCircle
 10
-27.96538951065
 20
160.151194413613
 40
166.354791424546
100
AcDbArc
 50
17.4885368397076
 51
30.0702461176412
  0
LINE
  5
761
100
AcDbEntity
  8
2
  6
CONTINUOUS
100
AcDbLine
 10
130.7
 20
246.5
 11
130.7
 21
208.5
  0
ARC
  5
762
100
AcDbEntity
  8
2
  6
CONTINUOUS
100
AcDbCircle
 10
106.567436612994
 20
192.55221684019
 40
59.0994409743931
100
AcDbArc
 50
65.899509917997
 51
80.8160330774243
  0
LINE
  5
763
100
AcDbEntity
  8
2
  6
CONTINUOUS
100
AcDbLine
 10
116.0
 20
243.50515804433
 11
116.0
 21
250.894060069864
  0
ARC
  5
764
100
AcDbEntity
  8
2
  6
CONTINUOUS
100
AcDbCircle
 10
-27.96538951065
 20
239.848805586387
 40
166.354791424546
100
AcDbArc
 50
329.929753882359
 51
342.511463160292
  0
ARC
  5
765
100
AcDbEntity
  8
2
  6
CONTINUOUS
100
AcDbCircle
 10
106.567436612994
 20
207.44778315981
 40
59.0994409743931
100
AcDbArc
 50
279.183966922576
 51
294.100490082003
  0
LINE
  5
766
100
AcDbEntity
  8
2
  6
CONTINUOUS
100
AcDbLine
 10
116.0
 20
156.49484195567
 11
116.0
 21
149.105939930136
  0
LINE
  5
767
100
AcDbEntity
  8
2
  6
CONTINUOUS
100
AcDbLine
 10
130.7
 20
191.5
 11
130.7
 21
153.5
  0
LINE
  5
768
100
AcDbEntity
  8
2
  6
CONTINUOUS
100
AcDbLine
 10
80.0000000000001
 20
-180.000000000001
 11
107.601221379686
 21
-169.953976988403
  0
LINE
  5
769
100
AcDbEntity
  8
2
  6
CONTINUOUS
100
AcDbLine
 10
88.1992046029477
 20
-133.500000000001
 11
71.8007953970553
 21
-133.5
  0
LINE
  5
76A
100
AcDbEntity
  8
2
  6
CONTINUOUS
100
AcDbLine
 10
653.499999999981
 20
33.9999999999991
 11
653.499999999981
 21
31.9999999999991
  0
INSERT
  5
76C
100
AcDbEntity
  8
7
  6
CENTER2
 62
    40
100
AcDbBlockReference
  2
COMP1
 10
0.0
 20
0.0
 41
1.0
 42
1.0
 50
0.0
  0
INSERT
  5
774
100
AcDbEntity
  8
2
  6
CONTINUOUS
100
AcDbBlockReference
  2
COMP2
 10
0.0
 20
0.0
 41
1.0
 42
1.0
 50
0.0
  0
MTEXT
  5
7BB
100
AcDbEntity
  8
4
  6
CONTINUOUS
 62
     2
100
AcDbMText
 10
692.099999999981
 20
245.643520266661
 40
3.5
 41
0.0
 11
1.0
 21
0.0
 71
     7
 72
     5
  7
BIGFONT
  1
{\T1.35185;\W0.747922;センサーケーブル　ＵＫ－ＡＣＧＢ１－＊}
  0
LINE
  5
7BC
100
AcDbEntity
  8
2
  6
CONTINUOUS
100
AcDbLine
 10
437.250194067019
 20
-179.77201355006
 11
437.250194067019
 21
-157.27201355006
  0
MTEXT
  5
7BD
100
AcDbEntity
  8
4
  6
CONTINUOUS
 62
     2
100
AcDbMText
 10
417.250194067019
 20
-163.52201355006
 40
3.5
 41
0.0
 11
1.0
 21
0.0
 71
     5
 72
     5
  7
BIGFONT
  1
{\T1.38889;\W0.676692;備　　　　　考}
  0
LINE
  5
7BE
100
AcDbEntity
  8
2
  6
CONTINUOUS
100
AcDbLine
 10
367.250194067019
 20
-179.77201355006
 11
367.250194067019
 21
-157.27201355006
  0
LINE
  5
7BF
100
AcDbEntity
  8
2
  6
CONTINUOUS
100
AcDbLine
 10
337.250194067019
 20
-179.77201355006
 11
337.250194067019
 21
-157.27201355006
  0
LINE
  5
7C0
100
AcDbEntity
  8
2
  6
CONTINUOUS
100
AcDbLine
 10
307.250194067019
 20
-179.77201355006
 11
307.250194067019
 21
-157.27201355006
  0
LINE
  5
7C1
100
AcDbEntity
  8
2
  6
CONTINUOUS
100
AcDbLine
 10
277.250194067019
 20
-179.77201355006
 11
277.250194067019
 21
-157.27201355006
  0
LINE
  5
7C2
100
AcDbEntity
  8
2
  6
CONTINUOUS
100
AcDbLine
 10
277.250194067019
 20
-164.77201355006
 11
397.250194067019
 21
-164.77201355006
  0
MTEXT
  5
7C3
100
AcDbEntity
  8
4
  6
CONTINUOUS
 62
     2
100
AcDbMText
 10
292.250194067019
 20
-161.02201355006
 40
2.5
 41
0.0
 11
1.0
 21
0.0
 71
     5
 72
     5
  7
BIGFONT
  1
{\T1.25;\W1.05263;締付トルク範囲}
  0
MTEXT
  5
7C4
100
AcDbEntity
  8
4
  6
CONTINUOUS
 62
     2
100
AcDbMText
 10
292.250194067019
 20
-167.27201355006
 40
2.5
 41
0.0
 11
1.0
 21
0.0
 71
     5
 72
     5
  7
BIGFONT
  1
{\T1.35714;\W0.736842;約　Ｎ・ｍ}
  0
MTEXT
  5
7C5
100
AcDbEntity
  8
4
  6
CONTINUOUS
 62
     2
100
AcDbMText
 10
322.250194067019
 20
-167.27201355006
 40
2.5
 41
0.0
 11
1.0
 21
0.0
 71
     5
 72
     5
  7
BIGFONT
  1
{\T1.42857;\W0.614035;約　　ｒｐｍ}
  0
MTEXT
  5
7C6
100
AcDbEntity
  8
4
  6
CONTINUOUS
 62
     2
100
AcDbMText
 10
322.250200170539
 20
-161.022007446544
 40
3.3
 41
0.0
 11
1.0
 21
0.0
 71
     5
 72
     5
  7
BIGFONT
  1
{\T1.34615;\W0.760234;回転速度（ＭＡＸ）}
  0
MTEXT
  5
7C7
100
AcDbEntity
  8
4
  6
CONTINUOUS
 62
     2
100
AcDbMText
 10
352.250194067019
 20
-161.02201355006
 40
3.5
 41
0.0
 11
1.0
 21
0.0
 71
     5
 72
     5
  7
BIGFONT
  1
{\T1.375;\W0.701754;全　　　　長}
  0
MTEXT
  5
7C8
100
AcDbEntity
  8
4
  6
CONTINUOUS
 62
     2
100
AcDbMText
 10
352.250194067019
 20
-167.27201355006
 40
2.5
 41
0.0
 11
1.0
 21
0.0
 71
     5
 72
     5
  7
BIGFONT
  1
{\T1.4;\W0.657895;約　ｍｍ}
  0
MTEXT
  5
7C9
100
AcDbEntity
  8
4
  6
CONTINUOUS
 62
     2
100
AcDbMText
 10
382.250194067019
 20
-161.02201355006
 40
3.5
 41
0.0
 11
1.0
 21
0.0
 71
     5
 72
     5
  7
BIGFONT
  1
{\T1.375;\W0.701754;質　　　　量}
  0
MTEXT
  5
7CA
100
AcDbEntity
  8
4
  6
CONTINUOUS
 62
     2
100
AcDbMText
 10
382.250194067019
 20
-167.27201355006
 40
2.5
 41
0.0
 11
1.0
 21
0.0
 71
     5
 72
     5
  7
BIGFONT
  1
{\T1.4;\W0.657895;約　ｋｇ}
  0
LINE
  5
7CB
100
AcDbEntity
  8
2
  6
CONTINUOUS
100
AcDbLine
 10
397.250194067019
 20
-179.77201355006
 11
397.250194067019
 21
-157.27201355006
  0
LINE
  5
7CC
100
AcDbEntity
  8
2
  6
CONTINUOUS
100
AcDbLine
 10
232.250194067019
 20
-169.77201355006
 11
437.250194067019
 21
-169.77201355006
  0
LINE
  5
7CD
100
AcDbEntity
  8
2
  6
CONTINUOUS
100
AcDbLine
 10
232.250194067019
 20
-157.27201355006
 11
437.250194067019
 21
-157.27201355006
  0
LINE
  5
7CE
100
AcDbEntity
  8
2
  6
CONTINUOUS
100
AcDbLine
 10
232.250194067019
 20
-179.77201355006
 11
437.250194067019
 21
-179.77201355006
  0
MTEXT
  5
7CF
100
AcDbEntity
  8
4
  6
CONTINUOUS
 62
     2
100
AcDbMText
 10
252.250194067019
 20
-163.52201355006
 40
3.5
 41
0.0
 11
1.0
 21
0.0
 71
     5
 72
     5
  7
BIGFONT
  1
{\T1.375;\W0.701754;型　　　　式}
  0
LINE
  5
7D0
100
AcDbEntity
  8
2
  6
CONTINUOUS
100
AcDbLine
 10
232.250194067019
 20
-179.77201355006
 11
232.250194067019
 21
-157.27201355006
  0
MTEXT
  5
7D1
100
AcDbEntity
  8
4
  6
CONTINUOUS
 62
     2
100
AcDbMText
 10
254.750194067019
 20
-174.77201355006
 40
3.5
 41
0.0
 11
1.0
 21
0.0
 71
     5
 72
     5
  7
STANDARD
  1
{\T1.60714;\W0.666667;UNR-G100-7000NT}
  0
MTEXT
  5
7D2
100
AcDbEntity
  8
4
  6
CONTINUOUS
 62
     2
100
AcDbMText
 10
292.250194067019
 20
-174.77201355006
 40
3.5
 41
0.0
 11
1.0
 21
0.0
 71
     5
 72
     5
  7
BIGFONT
  1
{\T1.4375;\W0.601504;２５０～７００}
  0
MTEXT
  5
7D3
100
AcDbEntity
  8
4
  6
CONTINUOUS
 62
     2
100
AcDbMText
 10
322.250194067019
 20
-174.77201355006
 40
3.5
 41
0.0
 11
1.0
 21
0.0
 71
     5
 72
     5
  7
STANDARD
  1
{\T1.60714;\W0.666667;170}
  0
MTEXT
  5
7D4
100
AcDbEntity
  8
4
  6
CONTINUOUS
 62
     2
100
AcDbMText
 10
382.250194067019
 20
-174.77201355006
 40
3.5
 41
0.0
 11
1.0
 21
0.0
 71
     5
 72
     5
  7
STANDARD
  1
{\T1.60714;\W0.666667;16.0}
  0
MTEXT
  5
7D5
100
AcDbEntity
  8
4
  6
CONTINUOUS
 62
     2
100
AcDbMText
 10
352.250194067019
 20
-174.77201355006
 40
3.5
 41
0.0
 11
1.0
 21
0.0
 71
     5
 72
     5
  7
STANDARD
  1
{\T1.60714;\W0.666667;654}
  0
ENDSEC
  0
SECTION
  2
OBJECTS
  0
DICTIONARY
  5
C
100
AcDbDictionary
  3
ACAD_GROUP
350
D
  3
ACAD_MLINESTYLE
350
E
  3
ACDBVARIABLEDICTIONARY
350
7D6
  0
DICTIONARY
  5
D
102
{ACAD_REACTORS
330
C
102
}
100
AcDbDictionary
  0
DICTIONARY
  5
E
102
{ACAD_REACTORS
330
C
102
}
100
AcDbDictionary
  3
STANDARD
350
13
  0
DICTIONARY
  5
7D6
102
{ACAD_REACTORS
330
C
102
}
330
C
100
AcDbDictionary
  3
SORTENTS
350
7D7
  0
MLINESTYLE
  5
13
102
{ACAD_REACTORS
330
E
102
}
100
AcDbMlineStyle
  2
STANDARD
 70
     0
  3

 62
   256
 51
90.0
 52
90.0
 71
     2
 49
0.5
 62
   256
  6
BYLAYER
 49
-0.5
 62
   256
  6
BYLAYER
  0
DICTIONARYVAR
  5
7D7
102
{ACAD_REACTORS
330
7D6
102
}
100
DictionaryVariables
280
     0
  1
96
  0
ENDSEC
  0
EOF
