  0
SECTION
  2
HEADER
  9
$ACADVER
  1
AC1014
  9
$ACADMAINTVER
 70
     0
  9
$DWGCODEPAGE
  3
ANSI_932
  9
$INSBASE
 10
0.0
 20
0.0
 30
0.0
  9
$EXTMIN
 10
-36.5
 20
-248.825064223962
  9
$EXTMAX
 10
683.100000000002
 20
259.0
  9
$LIMMIN
 10
-36.5
 20
-248.825064223962
  9
$LIMMAX
 10
683.100000000002
 20
259.0
  9
$ORTHOMODE
 70
     0
  9
$REGENMODE
 70
     1
  9
$FILLMODE
 70
     1
  9
$QTEXTMODE
 70
     0
  9
$MIRRTEXT
 70
     1
  9
$DRAGMODE
 70
     2
  9
$LTSCALE
 40
1.0
  9
$OSMODE
 70
     0
  9
$ATTMODE
 70
     1
  9
$TEXTSIZE
 40
3.0
  9
$TRACEWID
 40
0.5
  9
$TEXTSTYLE
  7
BIGFONT
  9
$CLAYER
  8
0
  9
$CELTYPE
  6
BYLAYER
  9
$CECOLOR
 62
   256
  9
$CELTSCALE
 40
1.0
  9
$DELOBJ
 70
     1
  9
$DISPSILH
 70
     0
  9
$DIMSCALE
 40
1.0
  9
$DIMASZ
 40
2.0
  9
$DIMEXO
 40
1.0
  9
$DIMDLI
 40
5.0
  9
$DIMRND
 40
0.0
  9
$DIMDLE
 40
3.0
  9
$DIMEXE
 40
1.0
  9
$DIMTP
 40
0.0
  9
$DIMTM
 40
0.0
  9
$DIMTXT
 40
3.5
  9
$DIMCEN
 40
2.0
  9
$DIMTSZ
 40
0.0
  9
$DIMTOL
 70
     0
  9
$DIMLIM
 70
     0
  9
$DIMTIH
 70
     0
  9
$DIMTOH
 70
     0
  9
$DIMSE1
 70
     0
  9
$DIMSE2
 70
     0
  9
$DIMTAD
 70
     1
  9
$DIMZIN
 70
     8
  9
$DIMBLK
  1

  9
$DIMASO
 70
     1
  9
$DIMSHO
 70
     1
  9
$DIMPOST
  1

  9
$DIMAPOST
  1

  9
$DIMALT
 70
     0
  9
$DIMALTD
 70
     4
  9
$DIMALTF
 40
0.0393700787401575
  9
$DIMLFAC
 40
1.0
  9
$DIMTOFL
 70
     1
  9
$DIMTVP
 40
1.0
  9
$DIMTIX
 70
     0
  9
$DIMSOXD
 70
     0
  9
$DIMSAH
 70
     0
  9
$DIMBLK1
  1

  9
$DIMBLK2
  1

  9
$DIMSTYLE
  2
ISO-25
  9
$DIMCLRD
 70
     0
  9
$DIMCLRE
 70
     0
  9
$DIMCLRT
 70
     0
  9
$DIMTFAC
 40
1.0
  9
$DIMGAP
 40
0.5
  9
$DIMJUST
 70
     0
  9
$DIMSD1
 70
     0
  9
$DIMSD2
 70
     0
  9
$DIMTOLJ
 70
     1
  9
$DIMTZIN
 70
     1
  9
$DIMALTZ
 70
     0
  9
$DIMALTTZ
 70
     0
  9
$DIMFIT
 70
     3
  9
$DIMUPT
 70
     0
  9
$DIMUNIT
 70
     2
  9
$DIMDEC
 70
     3
  9
$DIMTDEC
 70
     3
  9
$DIMALTU
 70
     8
  9
$DIMALTTD
 70
     4
  9
$DIMTXSTY
  7
STANDARD
  9
$DIMAUNIT
 70
     0
  9
$LUNITS
 70
     2
  9
$LUPREC
 70
     4
  9
$AXISMODE
 70
     0
  9
$AXISUNIT
 10
0.0
 20
0.0
  9
$SKETCHINC
 40
1.0
  9
$FILLETRAD
 40
0.0
  9
$AUNITS
 70
     0
  9
$AUPREC
 70
     0
  9
$MENU
  1
.
  9
$ELEVATION
 40
0.0
  9
$PELEVATION
 40
0.0
  9
$THICKNESS
 40
0.0
  9
$LIMCHECK
 70
     0
  9
$BLIPMODE
 70
     1
  9
$CHAMFERA
 40
0.0
  9
$CHAMFERB
 40
0.0
  9
$CHAMFERC
 40
0.0
  9
$CHAMFERD
 40
0.0
  9
$SKPOLY
 70
     0
  9
$TDCREATE
 40
2459662.6865625
  9
$TDUPDATE
 40
2459662.6865625
  9
$TDINDWG
 40
0.0
  9
$TDUSRTIMER
 40
0.0
  9
$USRTIMER
 70
     1
  9
$ANGBASE
 50
0.0
  9
$ANGDIR
 70
     0
  9
$PDMODE
 70
     0
  9
$PDSIZE
 40
0.0
  9
$PLINEWID
 40
0.0
  9
$COORDS
 70
     0
  9
$SPLFRAME
 70
     0
  9
$SPLINETYPE
 70
     6
  9
$SPLINESEGS
 70
     8
  9
$ATTDIA
 70
     0
  9
$ATTREQ
 70
     1
  9
$HANDLING
 70
     1
  9
$HANDSEED
  5
7BA
  9
$SURFTAB1
 70
     6
  9
$SURFTAB2
 70
     6
  9
$SURFTYPE
 70
     6
  9
$SURFU
 70
     6
  9
$SURFV
 70
     6
  9
$UCSNAME
  2

  9
$UCSORG
 10
0.0
 20
0.0
 30
0.0
  9
$UCSXDIR
 10
1.0
 20
0.0
 30
0.0
  9
$UCSYDIR
 10
0.0
 20
1.0
 30
0.0
  9
$PUCSNAME
  2

  9
$PUCSORG
 10
0.0
 20
1.0
 30
0.0
  9
$PUCSXDIR
 10
1.0
 20
0.0
 30
0.0
  9
$PUCSYDIR
 10
0.0
 20
1.0
 30
0.0
  9
$USERI1
 70
     0
  9
$USERI2
 70
     0
  9
$USERI3
 70
     0
  9
$USERI4
 70
     0
  9
$USERI5
 70
     0
  9
$USERR1
 40
0.0
  9
$USERR2
 40
0.0
  9
$USERR3
 40
0.0
  9
$USERR4
 40
0.0
  9
$USERR5
 40
0.0
  9
$WORLDVIEW
 70
     1
  9
$SHADEDGE
 70
     3
  9
$SHADEDIF
 70
    70
  9
$TILEMODE
 70
     1
  9
$MAXACTVP
 70
    16
  9
$PINSBASE
 10
0.0
 20
1.0
 30
0.0
  9
$PLIMCHECK
 70
     0
  9
$PEXTMIN
 10
1.00000000000000E+020
 20
1.00000000000000E+020
 30
1.00000000000000E+020
  9
$PEXTMAX
 10
-1.00000000000000E+020
 20
-1.00000000000000E+020
 30
-1.00000000000000E+020
  9
$PLIMMIN
 10
-36.5
 20
-248.825064223962
  9
$PLIMMAX
 10
683.100000000002
 20
259.0
  9
$UNITMODE
 70
     0
  9
$VISRETAIN
 70
     0
  9
$PLINEGEN
 70
     0
  9
$PSLTSCALE
 70
     0
  9
$TREEDEPTH
 70
  3020
  9
$PICKSTYLE
 70
     1
  9
$CMLSTYLE
  2
STANDARD
  9
$CMLJUST
 70
     0
  9
$CMLSCALE
 40
1.0
  9
$PROXYGRAPHICS
 70
     1
  9
$MEASUREMENT
 70
     1
  0
ENDSEC
  0
SECTION
  2
CLASSES
  0
CLASS
  1
LWPOLYLINE
  2
AcDbPolyline
  3
"AutoCAD"
 90
        0
280
     0
281
     1
  0
CLASS
  1
DICTIONARYVAR
  2
AcDbDictionaryVar
  3
"AutoCAD"
 90
        0
280
     0
281
     1
  0
CLASS
  1
HATCH
  2
AcDbHatch
  3
"AutoCAD"
 90
        0
280
     0
281
     1
  0
ENDSEC
  0
SECTION
  2
TABLES
  0
TABLE
  2
VPORT
  5
8
100
AcDbSymbolTable
 70
     1
  0
VPORT
  5
7AD
100
AcDbSymbolTableRecord
100
AcDbViewportTableRecord
  2
*ACTIVE
 70
     0
 10
0.0
 20
0.0
 11
1.0
 21
1.0
 12
323.300000000001
 22
5.08746788801882
 13
0.0
 23
0.0
 14
0.0
 24
0.0
 15
0.0
 25
0.0
 16
0.0
 26
0.0
 36
1.0
 17
0.0
 27
0.0
 37
0.0
 40
507.825064223963
 41
1.5
 42
50.0
 43
0.0
 44
0.0
 50
0.0
 51
0.0
 71
     0
 72
   100
 73
     1
 74
     1
 75
     0
 76
     0
 77
     0
 78
     0
  0
ENDTAB
  0
TABLE
  2
LTYPE
  5
5
100
AcDbSymbolTable
 70
    20
  0
LTYPE
  5
7AE
100
AcDbSymbolTableRecord
100
AcDbLinetypeTableRecord
  2
BYBLOCK
 70
     0
  3

 72
    65
 73
     0
 40
0.0
  0
LTYPE
  5
7AF
100
AcDbSymbolTableRecord
100
AcDbLinetypeTableRecord
  2
BYLAYER
 70
     0
  3

 72
    65
 73
     0
 40
0.0
  0
LTYPE
  5
7B0
100
AcDbSymbolTableRecord
100
AcDbLinetypeTableRecord
  2
CONTINUOUS
 70
    64
  3
solid line
 72
    65
 73
     0
 40
0.0
  0
LTYPE
  5
7B1
100
AcDbSymbolTableRecord
100
AcDbLinetypeTableRecord
  2
CENTER
 70
    64
  3
--- - --- - --- - --- - --- -
 72
    65
 73
     4
 40
6.0
 49
3.0
 74
     0
 49
-1.0
 74
     0
 49
1.0
 74
     0
 49
-1.0
 74
     0
  0
LTYPE
  5
7B2
100
AcDbSymbolTableRecord
100
AcDbLinetypeTableRecord
  2
CENTER2
 70
    64
  3
CENTER2
 72
    65
 73
     0
 40
0.0
  0
LTYPE
  5
7B3
100
AcDbSymbolTableRecord
100
AcDbLinetypeTableRecord
  2
PHANTOM
 70
    64
  3
----- - - ----- - - ----- - -
 72
    65
 73
     6
 40
12.0
 49
7.0
 74
     0
 49
-1.0
 74
     0
 49
1.0
 74
     0
 49
-1.0
 74
     0
 49
1.0
 74
     0
 49
-1.0
 74
     0
  0
ENDTAB
  0
TABLE
  2
LAYER
  5
2
100
AcDbSymbolTable
 70
    20
  0
LAYER
  5
7B4
100
AcDbSymbolTableRecord
100
AcDbLayerTableRecord
  2
0
 70
    64
 62
     7
  6
CONTINUOUS
  0
LAYER
  5
28
100
AcDbSymbolTableRecord
100
AcDbLayerTableRecord
  2
2
 70
    64
 62
     7
  6
CONTINUOUS
  0
LAYER
  5
77
100
AcDbSymbolTableRecord
100
AcDbLayerTableRecord
  2
7
 70
    64
 62
     7
  6
CONTINUOUS
  0
LAYER
  5
79
100
AcDbSymbolTableRecord
100
AcDbLayerTableRecord
  2
6
 70
    64
 62
     7
  6
CONTINUOUS
  0
LAYER
  5
11F
100
AcDbSymbolTableRecord
100
AcDbLayerTableRecord
  2
8
 70
    64
 62
     7
  6
CONTINUOUS
  0
LAYER
  5
195
100
AcDbSymbolTableRecord
100
AcDbLayerTableRecord
  2
9
 70
    64
 62
     7
  6
CONTINUOUS
  0
LAYER
  5
271
100
AcDbSymbolTableRecord
100
AcDbLayerTableRecord
  2
4
 70
    64
 62
     7
  6
CONTINUOUS
  0
LAYER
  5
7B5
100
AcDbSymbolTableRecord
100
AcDbLayerTableRecord
  2
DEFPOINTS
 70
     0
 62
    -7
  6
CONTINUOUS
  0
ENDTAB
  0
TABLE
  2
STYLE
  5
3
100
AcDbSymbolTable
 70
     4
  0
STYLE
  5
7B6
100
AcDbSymbolTableRecord
100
AcDbTextStyleTableRecord
  2
STANDARD
 70
    64
 40
0.0
 41
1.0
 50
0.0
 71
     0
 42
3.0
  3
monotxt
  4

  0
STYLE
  5
7B7
100
AcDbSymbolTableRecord
100
AcDbTextStyleTableRecord
  2
BIGFONT
 70
    64
 40
0.0
 41
1.0
 50
0.0
 71
     0
 42
3.0
  3
monotxt
  4
bigfont
  0
ENDTAB
  0
TABLE
  2
VIEW
  5
6
100
AcDbSymbolTable
 70
     0
  0
ENDTAB
  0
TABLE
  2
UCS
  5
7
100
AcDbSymbolTable
 70
     0
  0
ENDTAB
  0
TABLE
  2
APPID
  5
9
100
AcDbSymbolTable
 70
     1
  0
APPID
  5
7B8
100
AcDbSymbolTableRecord
100
AcDbRegAppTableRecord
  2
ACAD
 70
     0
  0
ENDTAB
  0
TABLE
  2
DIMSTYLE
  5
A
100
AcDbSymbolTable
 70
     8
  0
DIMSTYLE
105
7B9
100
AcDbSymbolTableRecord
100
AcDbDimStyleTableRecord
  2
ISO-25
 70
     0
  3

  4

  5

  6

  7

 40
1.0
 41
2.0
 42
1.0
 43
5.0
 44
1.0
 45
0.0
 46
3.0
 47
0.0
 48
0.0
140
3.5
141
2.0
142
0.0
143
0.0393700787401575
144
1.0
145
1.0
146
1.0
147
0.5
 71
     0
 72
     0
 73
     0
 74
     0
 75
     0
 76
     0
 77
     1
 78
     8
170
     0
171
     0
172
     1
173
     0
174
     0
175
     0
176
     0
177
     0
178
     0
270
     2
271
     3
272
     3
273
     8
274
     4
340
7B6
275
     0
280
     0
281
     0
282
     0
283
     1
284
     1
285
     0
286
     0
287
     3
288
     0
  0
ENDTAB
  0
TABLE
  2
BLOCK_RECORD
  5
1
100
AcDbSymbolTable
 70
     2
  0
BLOCK_RECORD
  5
20
100
AcDbSymbolTableRecord
100
AcDbBlockTableRecord
  2
*MODEL_SPACE
  0
BLOCK_RECORD
  5
22
100
AcDbSymbolTableRecord
100
AcDbBlockTableRecord
  2
*PAPER_SPACE
  0
BLOCK_RECORD
  5
340
100
AcDbSymbolTableRecord
100
AcDbBlockTableRecord
  2
MARK1_1
  0
BLOCK_RECORD
  5
29D
100
AcDbSymbolTableRecord
100
AcDbBlockTableRecord
  2
*D1
  0
BLOCK_RECORD
  5
2AD
100
AcDbSymbolTableRecord
100
AcDbBlockTableRecord
  2
*D2
  0
BLOCK_RECORD
  5
2BD
100
AcDbSymbolTableRecord
100
AcDbBlockTableRecord
  2
*D3
  0
BLOCK_RECORD
  5
2CD
100
AcDbSymbolTableRecord
100
AcDbBlockTableRecord
  2
*D4
  0
BLOCK_RECORD
  5
2DC
100
AcDbSymbolTableRecord
100
AcDbBlockTableRecord
  2
*D5
  0
BLOCK_RECORD
  5
2EC
100
AcDbSymbolTableRecord
100
AcDbBlockTableRecord
  2
*D6
  0
BLOCK_RECORD
  5
2FC
100
AcDbSymbolTableRecord
100
AcDbBlockTableRecord
  2
*D7
  0
BLOCK_RECORD
  5
30C
100
AcDbSymbolTableRecord
100
AcDbBlockTableRecord
  2
*D8
  0
BLOCK_RECORD
  5
31C
100
AcDbSymbolTableRecord
100
AcDbBlockTableRecord
  2
*D9
  0
BLOCK_RECORD
  5
32B
100
AcDbSymbolTableRecord
100
AcDbBlockTableRecord
  2
*D10
  0
BLOCK_RECORD
  5
619
100
AcDbSymbolTableRecord
100
AcDbBlockTableRecord
  2
*D11
  0
BLOCK_RECORD
  5
629
100
AcDbSymbolTableRecord
100
AcDbBlockTableRecord
  2
*D12
  0
BLOCK_RECORD
  5
639
100
AcDbSymbolTableRecord
100
AcDbBlockTableRecord
  2
*D13
  0
BLOCK_RECORD
  5
648
100
AcDbSymbolTableRecord
100
AcDbBlockTableRecord
  2
*D14
  0
BLOCK_RECORD
  5
657
100
AcDbSymbolTableRecord
100
AcDbBlockTableRecord
  2
*D15
  0
BLOCK_RECORD
  5
667
100
AcDbSymbolTableRecord
100
AcDbBlockTableRecord
  2
*D16
  0
BLOCK_RECORD
  5
677
100
AcDbSymbolTableRecord
100
AcDbBlockTableRecord
  2
*D17
  0
BLOCK_RECORD
  5
689
100
AcDbSymbolTableRecord
100
AcDbBlockTableRecord
  2
*D18
  0
BLOCK_RECORD
  5
699
100
AcDbSymbolTableRecord
100
AcDbBlockTableRecord
  2
*D19
  0
BLOCK_RECORD
  5
557
100
AcDbSymbolTableRecord
100
AcDbBlockTableRecord
  2
M6_0001
  0
BLOCK_RECORD
  5
24
100
AcDbSymbolTableRecord
100
AcDbBlockTableRecord
  2
SUB1
  0
BLOCK_RECORD
  5
D0
100
AcDbSymbolTableRecord
100
AcDbBlockTableRecord
  2
SUB2
  0
BLOCK_RECORD
  5
DE
100
AcDbSymbolTableRecord
100
AcDbBlockTableRecord
  2
SUB3
  0
BLOCK_RECORD
  5
193
100
AcDbSymbolTableRecord
100
AcDbBlockTableRecord
  2
SUB4
  0
BLOCK_RECORD
  5
1C1
100
AcDbSymbolTableRecord
100
AcDbBlockTableRecord
  2
SUB5
  0
BLOCK_RECORD
  5
1D2
100
AcDbSymbolTableRecord
100
AcDbBlockTableRecord
  2
SUB6
  0
BLOCK_RECORD
  5
202
100
AcDbSymbolTableRecord
100
AcDbBlockTableRecord
  2
SUB7
  0
BLOCK_RECORD
  5
213
100
AcDbSymbolTableRecord
100
AcDbBlockTableRecord
  2
SUB8
  0
BLOCK_RECORD
  5
21E
100
AcDbSymbolTableRecord
100
AcDbBlockTableRecord
  2
SUB9
  0
BLOCK_RECORD
  5
282
100
AcDbSymbolTableRecord
100
AcDbBlockTableRecord
  2
SUB10
  0
BLOCK_RECORD
  5
289
100
AcDbSymbolTableRecord
100
AcDbBlockTableRecord
  2
SUB11
  0
BLOCK_RECORD
  5
290
100
AcDbSymbolTableRecord
100
AcDbBlockTableRecord
  2
SUB12
  0
BLOCK_RECORD
  5
347
100
AcDbSymbolTableRecord
100
AcDbBlockTableRecord
  2
SUB13
  0
BLOCK_RECORD
  5
355
100
AcDbSymbolTableRecord
100
AcDbBlockTableRecord
  2
SUB14
  0
BLOCK_RECORD
  5
363
100
AcDbSymbolTableRecord
100
AcDbBlockTableRecord
  2
SUB15
  0
BLOCK_RECORD
  5
3A8
100
AcDbSymbolTableRecord
100
AcDbBlockTableRecord
  2
SUB16
  0
BLOCK_RECORD
  5
3AF
100
AcDbSymbolTableRecord
100
AcDbBlockTableRecord
  2
SUB17
  0
BLOCK_RECORD
  5
3B6
100
AcDbSymbolTableRecord
100
AcDbBlockTableRecord
  2
SUB18
  0
BLOCK_RECORD
  5
3BD
100
AcDbSymbolTableRecord
100
AcDbBlockTableRecord
  2
SUB19
  0
BLOCK_RECORD
  5
3C4
100
AcDbSymbolTableRecord
100
AcDbBlockTableRecord
  2
SUB20
  0
BLOCK_RECORD
  5
440
100
AcDbSymbolTableRecord
100
AcDbBlockTableRecord
  2
SUB21
  0
BLOCK_RECORD
  5
44F
100
AcDbSymbolTableRecord
100
AcDbBlockTableRecord
  2
SUB22
  0
BLOCK_RECORD
  5
45E
100
AcDbSymbolTableRecord
100
AcDbBlockTableRecord
  2
SUB23
  0
BLOCK_RECORD
  5
471
100
AcDbSymbolTableRecord
100
AcDbBlockTableRecord
  2
SUB24
  0
BLOCK_RECORD
  5
529
100
AcDbSymbolTableRecord
100
AcDbBlockTableRecord
  2
SUB25
  0
BLOCK_RECORD
  5
537
100
AcDbSymbolTableRecord
100
AcDbBlockTableRecord
  2
SUB26
  0
BLOCK_RECORD
  5
546
100
AcDbSymbolTableRecord
100
AcDbBlockTableRecord
  2
SUB27
  0
BLOCK_RECORD
  5
593
100
AcDbSymbolTableRecord
100
AcDbBlockTableRecord
  2
SUB28
  0
BLOCK_RECORD
  5
59A
100
AcDbSymbolTableRecord
100
AcDbBlockTableRecord
  2
SUB29
  0
BLOCK_RECORD
  5
5AD
100
AcDbSymbolTableRecord
100
AcDbBlockTableRecord
  2
SUB30
  0
BLOCK_RECORD
  5
5B4
100
AcDbSymbolTableRecord
100
AcDbBlockTableRecord
  2
SUB31
  0
BLOCK_RECORD
  5
754
100
AcDbSymbolTableRecord
100
AcDbBlockTableRecord
  2
COMP1
  0
BLOCK_RECORD
  5
75C
100
AcDbSymbolTableRecord
100
AcDbBlockTableRecord
  2
COMP2
  0
ENDTAB
  0
ENDSEC
  0
SECTION
  2
BLOCKS
  0
BLOCK
  5
21
100
AcDbEntity
  8
0
100
AcDbBlockBegin
  2
*MODEL_SPACE
 70
     0
 10
0.0
 20
0.0
 30
0.0
  3
*MODEL_SPACE
  1

  0
ENDBLK
  5
7A7
100
AcDbEntity
  8
0
100
AcDbBlockEnd
  0
BLOCK
  5
23
100
AcDbEntity
 67
     1
  8
0
100
AcDbBlockBegin
  2
*PAPER_SPACE
 70
     0
 10
0.0
 20
0.0
 30
0.0
  3
*PAPER_SPACE
  1

  0
ENDBLK
  5
7A8
100
AcDbEntity
 67
     1
  8
0
100
AcDbBlockEnd
  0
BLOCK
  5
7A9
100
AcDbEntity
  8
0
100
AcDbBlockBegin
  2
MARK1_1
 70
    64
 10
0.0
 20
0.0
  0
LINE
  5
7AA
100
AcDbEntity
  8
0
  6
CONTINUOUS
 62
     0
100
AcDbLine
 10
1.0
 20
0.25
 11
0.0
 21
0.0
  0
LINE
  5
7AB
100
AcDbEntity
  8
0
  6
CONTINUOUS
 62
     0
100
AcDbLine
 10
0.0
 20
0.0
 11
1.0
 21
-0.25
  0
ENDBLK
  5
7AC
100
AcDbEntity
  8
0
100
AcDbBlockEnd
  0
BLOCK
  5
29E
100
AcDbEntity
  8
0
100
AcDbBlockBegin
  2
*D1
 70
    65
 10
0.0
 20
0.0
  0
LINE
  5
29F
100
AcDbEntity
  8
0
  6
CONTINUOUS
 62
     2
100
AcDbLine
 10
89.5000000000016
 20
-94.9999587574885
 11
57.0000000000016
 21
-94.9999587574885
  0
LINE
  5
2A0
100
AcDbEntity
  8
0
  6
CONTINUOUS
 62
     2
100
AcDbLine
 10
87.5000000000016
 20
-95.4999587574885
 11
89.5000000000016
 21
-94.9999587574885
  0
LINE
  5
2A1
100
AcDbEntity
  8
0
  6
CONTINUOUS
 62
     2
100
AcDbLine
 10
89.5000000000016
 20
-94.9999587574885
 11
87.5000000000016
 21
-94.4999587574885
  0
LINE
  5
2A2
100
AcDbEntity
  8
0
  6
CONTINUOUS
 62
     2
100
AcDbLine
 10
24.5000000000016
 20
-94.9999587574885
 11
57.0000000000016
 21
-94.9999587574885
  0
LINE
  5
2A3
100
AcDbEntity
  8
0
  6
CONTINUOUS
 62
     2
100
AcDbLine
 10
26.5000000000016
 20
-94.4999587574885
 11
24.5000000000016
 21
-94.9999587574885
  0
LINE
  5
2A4
100
AcDbEntity
  8
0
  6
CONTINUOUS
 62
     2
100
AcDbLine
 10
24.5000000000016
 20
-94.9999587574885
 11
26.5000000000016
 21
-95.4999587574885
  0
LINE
  5
2A5
100
AcDbEntity
  8
0
  6
CONTINUOUS
 62
     2
100
AcDbLine
 10
89.5000000000016
 20
-108.499958757487
 11
89.5000000000016
 21
-93.9999587574885
  0
LINE
  5
2A6
100
AcDbEntity
  8
0
  6
CONTINUOUS
 62
     2
100
AcDbLine
 10
24.5000000000016
 20
-108.499958757487
 11
24.5000000000016
 21
-93.9999587574885
  0
MTEXT
  5
2A7
100
AcDbEntity
  8
0
  6
CONTINUOUS
 62
     2
100
AcDbMText
 10
54.8125000000016
 20
-94.4999587574885
 40
3.5
 41
0.0
 11
1.0
 21
0.0
 71
     7
 72
     5
  7
STANDARD
  1
{\T1.60714;\W0.666667;65}
 73
     1
 44
1.0
  0
POINT
  5
2A8
100
AcDbEntity
  8
DEFPOINTS
  6
BYBLOCK
 62
     0
100
AcDbPoint
 10
89.5000000000016
 20
-108.999958757487
  0
POINT
  5
2A9
100
AcDbEntity
  8
DEFPOINTS
  6
BYBLOCK
 62
     0
100
AcDbPoint
 10
24.5000000000016
 20
-108.999958757487
  0
POINT
  5
2AA
100
AcDbEntity
  8
DEFPOINTS
  6
BYBLOCK
 62
     0
100
AcDbPoint
 10
24.5000000000016
 20
-94.9999587574885
  0
ENDBLK
  5
2AB
100
AcDbEntity
  8
4
100
AcDbBlockEnd
  0
BLOCK
  5
2AE
100
AcDbEntity
  8
0
100
AcDbBlockBegin
  2
*D2
 70
    65
 10
0.0
 20
0.0
  0
LINE
  5
2AF
100
AcDbEntity
  8
0
  6
CONTINUOUS
 62
     2
100
AcDbLine
 10
13.6640518941562
 20
-79.9999587574885
 11
57.0000000144484
 21
-79.9999587574885
  0
LINE
  5
2B0
100
AcDbEntity
  8
0
  6
CONTINUOUS
 62
     2
100
AcDbLine
 10
15.6640518941562
 20
-79.4999587574885
 11
13.6640518941562
 21
-79.9999587574885
  0
LINE
  5
2B1
100
AcDbEntity
  8
0
  6
CONTINUOUS
 62
     2
100
AcDbLine
 10
13.6640518941562
 20
-79.9999587574885
 11
15.6640518941562
 21
-80.4999587574885
  0
LINE
  5
2B2
100
AcDbEntity
  8
0
  6
CONTINUOUS
 62
     2
100
AcDbLine
 10
100.335948134741
 20
-79.9999587574885
 11
57.0000000144484
 21
-79.9999587574885
  0
LINE
  5
2B3
100
AcDbEntity
  8
0
  6
CONTINUOUS
 62
     2
100
AcDbLine
 10
98.3359481347406
 20
-80.4999587574885
 11
100.335948134741
 21
-79.9999587574885
  0
LINE
  5
2B4
100
AcDbEntity
  8
0
  6
CONTINUOUS
 62
     2
100
AcDbLine
 10
100.335948134741
 20
-79.9999587574885
 11
98.3359481347406
 21
-79.4999587574885
  0
LINE
  5
2B5
100
AcDbEntity
  8
0
  6
CONTINUOUS
 62
     2
100
AcDbLine
 10
13.6640518941562
 20
-161.306673726401
 11
13.6640518941562
 21
-78.9999587574885
  0
LINE
  5
2B6
100
AcDbEntity
  8
0
  6
CONTINUOUS
 62
     2
100
AcDbLine
 10
100.335948134741
 20
-161.306672402223
 11
100.335948134741
 21
-78.9999587574885
  0
MTEXT
  5
2B7
100
AcDbEntity
  8
0
  6
CONTINUOUS
 62
     2
100
AcDbMText
 10
52.1875000144485
 20
-79.4999587574885
 40
3.5
 41
0.0
 11
1.0
 21
0.0
 71
     7
 72
     5
  7
STANDARD
  1
{\T1.60714;\W0.666667;(87)}
 73
     1
 44
1.0
  0
POINT
  5
2B8
100
AcDbEntity
  8
DEFPOINTS
  6
BYBLOCK
 62
     0
100
AcDbPoint
 10
13.6640518941562
 20
-161.806673726401
  0
POINT
  5
2B9
100
AcDbEntity
  8
DEFPOINTS
  6
BYBLOCK
 62
     0
100
AcDbPoint
 10
100.335948134741
 20
-161.806672402223
  0
POINT
  5
2BA
100
AcDbEntity
  8
DEFPOINTS
  6
BYBLOCK
 62
     0
100
AcDbPoint
 10
100.335948134741
 20
-79.9999587574885
  0
ENDBLK
  5
2BB
100
AcDbEntity
  8
4
100
AcDbBlockEnd
  0
BLOCK
  5
2BE
100
AcDbEntity
  8
0
100
AcDbBlockBegin
  2
*D3
 70
    65
 10
0.0
 20
0.0
  0
LINE
  5
2BF
100
AcDbEntity
  8
0
  6
CONTINUOUS
 62
     2
100
AcDbLine
 10
-15.0
 20
-226.999958757488
 11
-15.0
 21
-203.499958757488
  0
LINE
  5
2C0
100
AcDbEntity
  8
0
  6
CONTINUOUS
 62
     2
100
AcDbLine
 10
-15.5
 20
-224.999958757488
 11
-15.0
 21
-226.999958757488
  0
LINE
  5
2C1
100
AcDbEntity
  8
0
  6
CONTINUOUS
 62
     2
100
AcDbLine
 10
-15.0
 20
-226.999958757488
 11
-14.5
 21
-224.999958757488
  0
LINE
  5
2C2
100
AcDbEntity
  8
0
  6
CONTINUOUS
 62
     2
100
AcDbLine
 10
-15.0
 20
-179.999958757488
 11
-15.0
 21
-203.499958757488
  0
LINE
  5
2C3
100
AcDbEntity
  8
0
  6
CONTINUOUS
 62
     2
100
AcDbLine
 10
-14.5
 20
-181.999958757488
 11
-15.0
 21
-179.999958757488
  0
LINE
  5
2C4
100
AcDbEntity
  8
0
  6
CONTINUOUS
 62
     2
100
AcDbLine
 10
-15.0
 20
-179.999958757488
 11
-15.5
 21
-181.999958757488
  0
LINE
  5
2C5
100
AcDbEntity
  8
0
  6
CONTINUOUS
 62
     2
100
AcDbLine
 10
56.5000000000016
 20
-226.999958757488
 11
-16.0
 21
-226.999958757488
  0
LINE
  5
2C6
100
AcDbEntity
  8
0
  6
CONTINUOUS
 62
     2
100
AcDbLine
 10
-3.49999999999841
 20
-179.999958757488
 11
-16.0
 21
-179.999958757488
  0
MTEXT
  5
2C7
100
AcDbEntity
  8
0
  6
CONTINUOUS
 62
     2
100
AcDbMText
 10
-15.5
 20
-205.687458757488
 40
3.5
 41
0.0
 11
6.12323399573677E-017
 21
1.0
 71
     7
 72
     5
  7
STANDARD
  1
{\T1.60714;\W0.666667;47}
 73
     1
 44
1.0
  0
POINT
  5
2C8
100
AcDbEntity
  8
DEFPOINTS
  6
BYBLOCK
 62
     0
100
AcDbPoint
 10
57.0000000000016
 20
-226.999958757488
  0
POINT
  5
2C9
100
AcDbEntity
  8
DEFPOINTS
  6
BYBLOCK
 62
     0
100
AcDbPoint
 10
-2.99999999999841
 20
-179.999958757488
  0
POINT
  5
2CA
100
AcDbEntity
  8
DEFPOINTS
  6
BYBLOCK
 62
     0
100
AcDbPoint
 10
-15.0
 20
-179.999958757488
  0
ENDBLK
  5
2CB
100
AcDbEntity
  8
4
100
AcDbBlockEnd
  0
BLOCK
  5
2CE
100
AcDbEntity
  8
0
100
AcDbBlockBegin
  2
*D4
 70
    65
 10
0.0
 20
0.0
  0
LINE
  5
2CF
100
AcDbEntity
  8
0
  6
CONTINUOUS
 62
     2
100
AcDbLine
 10
-15.0
 20
-179.999958757488
 11
-15.0
 21
-142.999958757488
  0
LINE
  5
2D0
100
AcDbEntity
  8
0
  6
CONTINUOUS
 62
     2
100
AcDbLine
 10
-15.5
 20
-177.999958757488
 11
-15.0
 21
-179.999958757488
  0
LINE
  5
2D1
100
AcDbEntity
  8
0
  6
CONTINUOUS
 62
     2
100
AcDbLine
 10
-15.0
 20
-179.999958757488
 11
-14.5
 21
-177.999958757488
  0
LINE
  5
2D2
100
AcDbEntity
  8
0
  6
CONTINUOUS
 62
     2
100
AcDbLine
 10
-15.0
 20
-105.999958757488
 11
-15.0
 21
-142.999958757488
  0
LINE
  5
2D3
100
AcDbEntity
  8
0
  6
CONTINUOUS
 62
     2
100
AcDbLine
 10
-14.5
 20
-107.999958757488
 11
-15.0
 21
-105.999958757488
  0
LINE
  5
2D4
100
AcDbEntity
  8
0
  6
CONTINUOUS
 62
     2
100
AcDbLine
 10
-15.0
 20
-105.999958757488
 11
-15.5
 21
-107.999958757488
  0
LINE
  5
2D5
100
AcDbEntity
  8
0
  6
CONTINUOUS
 62
     2
100
AcDbLine
 10
26.0000000000016
 20
-105.999958757488
 11
-16.0
 21
-105.999958757488
  0
MTEXT
  5
2D6
100
AcDbEntity
  8
0
  6
CONTINUOUS
 62
     2
100
AcDbMText
 10
-15.5
 20
-145.187458757488
 40
3.5
 41
0.0
 11
6.12323399573677E-017
 21
1.0
 71
     7
 72
     5
  7
STANDARD
  1
{\T1.60714;\W0.666667;74}
 73
     1
 44
1.0
  0
POINT
  5
2D7
100
AcDbEntity
  8
DEFPOINTS
  6
BYBLOCK
 62
     0
100
AcDbPoint
 10
-2.99999999999841
 20
-179.999958757488
  0
POINT
  5
2D8
100
AcDbEntity
  8
DEFPOINTS
  6
BYBLOCK
 62
     0
100
AcDbPoint
 10
26.5000000000016
 20
-105.999958757488
  0
POINT
  5
2D9
100
AcDbEntity
  8
DEFPOINTS
  6
BYBLOCK
 62
     0
100
AcDbPoint
 10
-15.0
 20
-105.999958757488
  0
ENDBLK
  5
2DA
100
AcDbEntity
  8
4
100
AcDbBlockEnd
  0
BLOCK
  5
2DD
100
AcDbEntity
  8
0
100
AcDbBlockBegin
  2
*D5
 70
    65
 10
0.0
 20
0.0
  0
LINE
  5
2DE
100
AcDbEntity
  8
0
  6
CONTINUOUS
 62
     2
100
AcDbLine
 10
47.5000000000016
 20
-247.825064223962
 11
57.0000000000016
 21
-247.825064223962
  0
LINE
  5
2DF
100
AcDbEntity
  8
0
  6
CONTINUOUS
 62
     2
100
AcDbLine
 10
49.5000000000016
 20
-247.325064223962
 11
47.5000000000016
 21
-247.825064223962
  0
LINE
  5
2E0
100
AcDbEntity
  8
0
  6
CONTINUOUS
 62
     2
100
AcDbLine
 10
47.5000000000016
 20
-247.825064223962
 11
49.5000000000016
 21
-248.325064223962
  0
LINE
  5
2E1
100
AcDbEntity
  8
0
  6
CONTINUOUS
 62
     2
100
AcDbLine
 10
66.5000000000016
 20
-247.825064223962
 11
57.0000000000016
 21
-247.825064223962
  0
LINE
  5
2E2
100
AcDbEntity
  8
0
  6
CONTINUOUS
 62
     2
100
AcDbLine
 10
64.5000000000016
 20
-248.325064223962
 11
66.5000000000016
 21
-247.825064223962
  0
LINE
  5
2E3
100
AcDbEntity
  8
0
  6
CONTINUOUS
 62
     2
100
AcDbLine
 10
66.5000000000016
 20
-247.825064223962
 11
64.5000000000016
 21
-247.325064223962
  0
LINE
  5
2E4
100
AcDbEntity
  8
0
  6
CONTINUOUS
 62
     2
100
AcDbLine
 10
47.5000000000016
 20
-188.469274913847
 11
47.5000000000016
 21
-248.825064223962
  0
LINE
  5
2E5
100
AcDbEntity
  8
0
  6
CONTINUOUS
 62
     2
100
AcDbLine
 10
66.5000000000016
 20
-188.469274913847
 11
66.5000000000016
 21
-248.825064223962
  0
MTEXT
  5
2E6
100
AcDbEntity
  8
0
  6
CONTINUOUS
 62
     2
100
AcDbMText
 10
53.5000000000016
 20
-247.325064223962
 40
3.5
 41
0.0
 11
1.0
 21
0.0
 71
     7
 72
     5
  7
STANDARD
  1
{\T1.60714;\W0.666667;□19}
 73
     1
 44
1.0
  0
POINT
  5
2E7
100
AcDbEntity
  8
DEFPOINTS
  6
BYBLOCK
 62
     0
100
AcDbPoint
 10
47.5000000000016
 20
-187.969274913847
  0
POINT
  5
2E8
100
AcDbEntity
  8
DEFPOINTS
  6
BYBLOCK
 62
     0
100
AcDbPoint
 10
66.5000000000016
 20
-187.969274913847
  0
POINT
  5
2E9
100
AcDbEntity
  8
DEFPOINTS
  6
BYBLOCK
 62
     0
100
AcDbPoint
 10
66.5000000000016
 20
-247.825064223962
  0
ENDBLK
  5
2EA
100
AcDbEntity
  8
4
100
AcDbBlockEnd
  0
BLOCK
  5
2ED
100
AcDbEntity
  8
0
100
AcDbBlockBegin
  2
*D6
 70
    65
 10
0.0
 20
0.0
  0
ARC
  5
2EE
100
AcDbEntity
  8
0
  6
CONTINUOUS
 62
     2
100
AcDbCircle
 10
57.0000000000016
 20
-179.999958757488
 40
57.0000000000016
100
AcDbArc
 50
150.0
 51
165.0
  0
LINE
  5
2EF
100
AcDbEntity
  8
0
  6
CONTINUOUS
 62
     2
100
AcDbLine
 10
7.06956468617934
 20
-153.482009565057
 11
7.63655198428712
 21
-151.499958757488
  0
LINE
  5
2F0
100
AcDbEntity
  8
0
  6
CONTINUOUS
 62
     2
100
AcDbLine
 10
7.63655198428712
 20
-151.499958757488
 11
6.2035392823949
 21
-152.982009565057
  0
ARC
  5
2F1
100
AcDbEntity
  8
0
  6
CONTINUOUS
 62
     2
100
AcDbCircle
 10
57.0000000000016
 20
-179.999958757488
 40
57.0000000000016
100
AcDbArc
 50
165.0
 51
180.0
  0
LINE
  5
2F2
100
AcDbEntity
  8
0
  6
CONTINUOUS
 62
     2
100
AcDbLine
 10
-0.5
 20
-177.999958757488
 11
0.0
 21
-179.999958757488
  0
LINE
  5
2F3
100
AcDbEntity
  8
0
  6
CONTINUOUS
 62
     2
100
AcDbLine
 10
0.0
 20
-179.999958757488
 11
0.5
 21
-177.999958757488
  0
LINE
  5
2F4
100
AcDbEntity
  8
0
  6
CONTINUOUS
 62
     2
100
AcDbLine
 10
13.2657171088873
 20
-154.749958757489
 11
6.77052658050268
 21
-150.999958757488
  0
LINE
  5
2F5
100
AcDbEntity
  8
0
  6
CONTINUOUS
 62
     2
100
AcDbLine
 10
-2.49999999999841
 20
-179.999958757488
 11
1.0
 21
-179.999958757488
  0
MTEXT
  5
2F6
100
AcDbEntity
  8
0
  6
CONTINUOUS
 62
     2
100
AcDbMText
 10
0.553398330519793
 20
-168.498604056105
 40
3.5
 41
0.0
 11
0.25881904510252
 21
0.965925826289069
 71
     7
 72
     5
  7
STANDARD
  1
{\T1.60714;\W0.666667;30%%d}
 73
     1
 44
1.0
  0
POINT
  5
2F7
100
AcDbEntity
  8
DEFPOINTS
  6
BYBLOCK
 62
     0
100
AcDbPoint
 10
13.6987298107796
 20
-154.999958757489
  0
POINT
  5
2F8
100
AcDbEntity
  8
DEFPOINTS
  6
BYBLOCK
 62
     0
100
AcDbPoint
 10
-2.99999999999841
 20
-179.999958757488
  0
POINT
  5
2F9
100
AcDbEntity
  8
DEFPOINTS
  6
BYBLOCK
 62
     0
100
AcDbPoint
 10
57.0000000000016
 20
-179.999958757488
  0
ENDBLK
  5
2FA
100
AcDbEntity
  8
4
100
AcDbBlockEnd
  0
BLOCK
  5
2FD
100
AcDbEntity
  8
0
100
AcDbBlockBegin
  2
*D7
 70
    65
 10
0.0
 20
0.0
  0
ARC
  5
2FE
100
AcDbEntity
  8
0
  6
CONTINUOUS
 62
     2
100
AcDbCircle
 10
57.0000000000016
 20
-179.999958757488
 40
58.1288629377498
100
AcDbArc
 50
0.0
 51
14.9999999999999
  0
LINE
  5
2FF
100
AcDbEntity
  8
0
  6
CONTINUOUS
 62
     2
100
AcDbLine
 10
114.628862937751
 20
-177.999958757488
 11
115.128862937751
 21
-179.999958757488
  0
LINE
  5
300
100
AcDbEntity
  8
0
  6
CONTINUOUS
 62
     2
100
AcDbLine
 10
115.128862937751
 20
-179.999958757488
 11
115.628862937751
 21
-177.999958757488
  0
ARC
  5
301
100
AcDbEntity
  8
0
  6
CONTINUOUS
 62
     2
100
AcDbCircle
 10
57.0000000000016
 20
-179.999958757488
 40
58.1288629377498
100
AcDbArc
 50
14.9999999999999
 51
29.9999999999998
  0
LINE
  5
302
100
AcDbEntity
  8
0
  6
CONTINUOUS
 62
     2
100
AcDbLine
 10
108.774084699089
 20
-152.417578096183
 11
107.341071997197
 21
-150.935527288614
  0
LINE
  5
303
100
AcDbEntity
  8
0
  6
CONTINUOUS
 62
     2
100
AcDbLine
 10
107.341071997197
 20
-150.935527288614
 11
107.908059295305
 21
-152.917578096183
  0
LINE
  5
304
100
AcDbEntity
  8
0
  6
CONTINUOUS
 62
     2
100
AcDbLine
 10
112.925625842188
 20
-179.999958757488
 11
116.128862937751
 21
-179.999958757488
  0
LINE
  5
305
100
AcDbEntity
  8
0
  6
CONTINUOUS
 62
     2
100
AcDbLine
 10
100.734282891116
 20
-154.749958757489
 11
108.207097400981
 21
-150.435527288614
  0
MTEXT
  5
306
100
AcDbEntity
  8
0
  6
CONTINUOUS
 62
     2
100
AcDbMText
 10
112.725266219677
 20
-161.444952044482
 40
3.5
 41
0.0
 11
0.258819045102519
 21
-0.965925826289069
 71
     7
 72
     5
  7
STANDARD
  1
{\T1.60714;\W0.666667;30%%d}
 73
     1
 44
1.0
  0
POINT
  5
307
100
AcDbEntity
  8
DEFPOINTS
  6
BYBLOCK
 62
     0
100
AcDbPoint
 10
112.425625842188
 20
-179.999958757488
  0
POINT
  5
308
100
AcDbEntity
  8
DEFPOINTS
  6
BYBLOCK
 62
     0
100
AcDbPoint
 10
100.301270189224
 20
-154.999958757489
  0
POINT
  5
309
100
AcDbEntity
  8
DEFPOINTS
  6
BYBLOCK
 62
     0
100
AcDbPoint
 10
57.0000000000016
 20
-179.999958757488
  0
ENDBLK
  5
30A
100
AcDbEntity
  8
4
100
AcDbBlockEnd
  0
BLOCK
  5
30D
100
AcDbEntity
  8
0
100
AcDbBlockBegin
  2
*D8
 70
    65
 10
0.0
 20
0.0
  0
LINE
  5
30E
100
AcDbEntity
  8
0
  6
CONTINUOUS
 62
     2
100
AcDbLine
 10
128.588740321165
 20
-179.999958757488
 11
128.588740321165
 21
-163.249958757488
  0
LINE
  5
30F
100
AcDbEntity
  8
0
  6
CONTINUOUS
 62
     2
100
AcDbLine
 10
128.088740321165
 20
-177.999958757488
 11
128.588740321165
 21
-179.999958757488
  0
LINE
  5
310
100
AcDbEntity
  8
0
  6
CONTINUOUS
 62
     2
100
AcDbLine
 10
128.588740321165
 20
-179.999958757488
 11
129.088740321165
 21
-177.999958757488
  0
LINE
  5
311
100
AcDbEntity
  8
0
  6
CONTINUOUS
 62
     2
100
AcDbLine
 10
128.588740321165
 20
-146.499958757487
 11
128.588740321165
 21
-163.249958757488
  0
LINE
  5
312
100
AcDbEntity
  8
0
  6
CONTINUOUS
 62
     2
100
AcDbLine
 10
129.088740321165
 20
-148.499958757487
 11
128.588740321165
 21
-146.499958757487
  0
LINE
  5
313
100
AcDbEntity
  8
0
  6
CONTINUOUS
 62
     2
100
AcDbLine
 10
128.588740321165
 20
-146.499958757487
 11
128.088740321165
 21
-148.499958757487
  0
LINE
  5
314
100
AcDbEntity
  8
0
  6
CONTINUOUS
 62
     2
100
AcDbLine
 10
112.925625842188
 20
-179.999958757488
 11
129.588740321165
 21
-179.999958757488
  0
LINE
  5
315
100
AcDbEntity
  8
0
  6
CONTINUOUS
 62
     2
100
AcDbLine
 10
90.0000000000016
 20
-146.499958757487
 11
129.588740321165
 21
-146.499958757487
  0
MTEXT
  5
316
100
AcDbEntity
  8
0
  6
CONTINUOUS
 62
     2
100
AcDbMText
 10
128.088740321165
 20
-168.062458757488
 40
3.5
 41
0.0
 11
6.12323399573677E-017
 21
1.0
 71
     7
 72
     5
  7
STANDARD
  1
{\T1.60714;\W0.666667;33.5}
 73
     1
 44
1.0
  0
POINT
  5
317
100
AcDbEntity
  8
DEFPOINTS
  6
BYBLOCK
 62
     0
100
AcDbPoint
 10
112.425625842188
 20
-179.999958757488
  0
POINT
  5
318
100
AcDbEntity
  8
DEFPOINTS
  6
BYBLOCK
 62
     0
100
AcDbPoint
 10
89.5000000000016
 20
-146.499958757487
  0
POINT
  5
319
100
AcDbEntity
  8
DEFPOINTS
  6
BYBLOCK
 62
     0
100
AcDbPoint
 10
128.588740321165
 20
-146.499958757487
  0
ENDBLK
  5
31A
100
AcDbEntity
  8
4
100
AcDbBlockEnd
  0
BLOCK
  5
31D
100
AcDbEntity
  8
0
100
AcDbBlockBegin
  2
*D9
 70
    65
 10
0.0
 20
0.0
  0
LINE
  5
31E
100
AcDbEntity
  8
0
  6
CONTINUOUS
 62
     2
100
AcDbLine
 10
79.7987231185026
 20
-210.400916376714
 11
87.8706241739104
 21
-221.16439293707
  0
LINE
  5
31F
100
AcDbEntity
  8
0
  6
CONTINUOUS
 62
     2
100
AcDbLine
 10
87.8706241739104
 20
-221.16439293707
 11
95.8706241739104
 21
-221.16439293707
  0
LINE
  5
320
100
AcDbEntity
  8
0
  6
CONTINUOUS
 62
     2
100
AcDbLine
 10
79.7987231185026
 20
-210.400916376714
 11
57.0000000000016
 21
-179.999958757488
  0
LINE
  5
321
100
AcDbEntity
  8
0
  6
CONTINUOUS
 62
     2
100
AcDbLine
 10
78.1987777225391
 20
-209.100849174629
 11
79.7987231185026
 21
-210.400916376714
  0
LINE
  5
322
100
AcDbEntity
  8
0
  6
CONTINUOUS
 62
     2
100
AcDbLine
 10
79.7987231185026
 20
-210.400916376714
 11
78.998802923045
 21
-208.500882776774
  0
LINE
  5
323
100
AcDbEntity
  8
0
  6
CONTINUOUS
 62
     2
100
AcDbLine
 10
34.2012768815006
 20
-149.599001138263
 11
57.0000000000016
 21
-179.999958757488
  0
LINE
  5
324
100
AcDbEntity
  8
0
  6
CONTINUOUS
 62
     2
100
AcDbLine
 10
35.8012222774641
 20
-150.899068340348
 11
34.2012768815006
 21
-149.599001138263
  0
LINE
  5
325
100
AcDbEntity
  8
0
  6
CONTINUOUS
 62
     2
100
AcDbLine
 10
34.2012768815006
 20
-149.599001138263
 11
35.0011970769582
 21
-151.499034738203
  0
MTEXT
  5
326
100
AcDbEntity
  8
0
  6
CONTINUOUS
 62
     2
100
AcDbMText
 10
88.3706241739104
 20
-220.66439293707
 40
3.5
 41
0.0
 11
1.0
 21
0.0
 71
     7
 72
     5
  7
STANDARD
  1
{\T1.60714;\W0.666667;%%c76}
 73
     1
 44
1.0
  0
POINT
  5
327
100
AcDbEntity
  8
DEFPOINTS
  6
BYBLOCK
 62
     0
100
AcDbPoint
 10
34.2012768815006
 20
-149.599001138263
  0
POINT
  5
328
100
AcDbEntity
  8
DEFPOINTS
  6
BYBLOCK
 62
     0
100
AcDbPoint
 10
79.7987231185026
 20
-210.400916376714
  0
ENDBLK
  5
329
100
AcDbEntity
  8
4
100
AcDbBlockEnd
  0
BLOCK
  5
32C
100
AcDbEntity
  8
0
100
AcDbBlockBegin
  2
*D10
 70
    65
 10
0.0
 20
0.0
  0
LINE
  5
32D
100
AcDbEntity
  8
0
  6
CONTINUOUS
 62
     2
100
AcDbLine
 10
21.8201528581911
 20
-211.166902064121
 11
11.7665261367803
 21
-220.073729111697
  0
LINE
  5
32E
100
AcDbEntity
  8
0
  6
CONTINUOUS
 62
     2
100
AcDbLine
 10
11.7665261367803
 20
-220.073729111697
 11
3.76652613678027
 21
-220.073729111697
  0
LINE
  5
32F
100
AcDbEntity
  8
0
  6
CONTINUOUS
 62
     2
100
AcDbLine
 10
21.8201528581911
 20
-211.166902064121
 11
57.0000000000016
 21
-179.999958757488
  0
LINE
  5
330
100
AcDbEntity
  8
0
  6
CONTINUOUS
 62
     2
100
AcDbLine
 10
22.9856044035168
 20
-209.466395464458
 11
21.8201528581911
 21
-211.166902064121
  0
LINE
  5
331
100
AcDbEntity
  8
0
  6
CONTINUOUS
 62
     2
100
AcDbLine
 10
21.8201528581911
 20
-211.166902064121
 11
23.6487308568494
 21
-210.214902850454
  0
LINE
  5
332
100
AcDbEntity
  8
0
  6
CONTINUOUS
 62
     2
100
AcDbLine
 10
92.179847141812
 20
-148.833015450856
 11
57.0000000000016
 21
-179.999958757488
  0
LINE
  5
333
100
AcDbEntity
  8
0
  6
CONTINUOUS
 62
     2
100
AcDbLine
 10
91.0143955964864
 20
-150.533522050519
 11
92.179847141812
 21
-148.833015450856
  0
LINE
  5
334
100
AcDbEntity
  8
0
  6
CONTINUOUS
 62
     2
100
AcDbLine
 10
92.179847141812
 20
-148.833015450856
 11
90.3512691431538
 21
-149.785014664523
  0
MTEXT
  5
335
100
AcDbEntity
  8
0
  6
CONTINUOUS
 62
     2
100
AcDbMText
 10
4.26652613678027
 20
-219.573729111697
 40
3.5
 41
0.0
 11
1.0
 21
0.0
 71
     7
 72
     5
  7
STANDARD
  1
{\T1.60714;\W0.666667;%%c94}
 73
     1
 44
1.0
  0
POINT
  5
336
100
AcDbEntity
  8
DEFPOINTS
  6
BYBLOCK
 62
     0
100
AcDbPoint
 10
92.179847141812
 20
-148.833015450856
  0
POINT
  5
337
100
AcDbEntity
  8
DEFPOINTS
  6
BYBLOCK
 62
     0
100
AcDbPoint
 10
21.8201528581911
 20
-211.166902064121
  0
ENDBLK
  5
338
100
AcDbEntity
  8
4
100
AcDbBlockEnd
  0
BLOCK
  5
61A
100
AcDbEntity
  8
0
100
AcDbBlockBegin
  2
*D11
 70
    65
 10
0.0
 20
0.0
  0
LINE
  5
61B
100
AcDbEntity
  8
0
  6
CONTINUOUS
 62
     2
100
AcDbLine
 10
570.000000000002
 20
115.0
 11
285.000000000002
 21
115.0
  0
LINE
  5
61C
100
AcDbEntity
  8
0
  6
CONTINUOUS
 62
     2
100
AcDbLine
 10
568.000000000002
 20
114.5
 11
570.000000000002
 21
115.0
  0
LINE
  5
61D
100
AcDbEntity
  8
0
  6
CONTINUOUS
 62
     2
100
AcDbLine
 10
570.000000000002
 20
115.0
 11
568.000000000002
 21
115.5
  0
LINE
  5
61E
100
AcDbEntity
  8
0
  6
CONTINUOUS
 62
     2
100
AcDbLine
 10
1.47792889038101E-012
 20
115.0
 11
285.000000000002
 21
115.0
  0
LINE
  5
61F
100
AcDbEntity
  8
0
  6
CONTINUOUS
 62
     2
100
AcDbLine
 10
2.00000000000148
 20
115.5
 11
1.47792889038101E-012
 21
115.0
  0
LINE
  5
620
100
AcDbEntity
  8
0
  6
CONTINUOUS
 62
     2
100
AcDbLine
 10
1.47792889038101E-012
 20
115.0
 11
2.00000000000148
 21
114.5
  0
LINE
  5
621
100
AcDbEntity
  8
0
  6
CONTINUOUS
 62
     2
100
AcDbLine
 10
570.000000000002
 20
34.499999999999
 11
570.000000000002
 21
116.0
  0
LINE
  5
622
100
AcDbEntity
  8
0
  6
CONTINUOUS
 62
     2
100
AcDbLine
 10
1.47792889038101E-012
 20
10.0
 11
1.47792889038101E-012
 21
116.0
  0
MTEXT
  5
623
100
AcDbEntity
  8
0
  6
CONTINUOUS
 62
     2
100
AcDbMText
 10
281.500000000002
 20
115.5
 40
3.5
 41
0.0
 11
1.0
 21
0.0
 71
     7
 72
     5
  7
STANDARD
  1
{\T1.60714;\W0.666667;570}
 73
     1
 44
1.0
  0
POINT
  5
624
100
AcDbEntity
  8
DEFPOINTS
  6
BYBLOCK
 62
     0
100
AcDbPoint
 10
570.000000000002
 20
33.999999999999
  0
POINT
  5
625
100
AcDbEntity
  8
DEFPOINTS
  6
BYBLOCK
 62
     0
100
AcDbPoint
 10
1.47792889038101E-012
 20
9.5
  0
POINT
  5
626
100
AcDbEntity
  8
DEFPOINTS
  6
BYBLOCK
 62
     0
100
AcDbPoint
 10
1.47792889038101E-012
 20
115.0
  0
ENDBLK
  5
627
100
AcDbEntity
  8
4
100
AcDbBlockEnd
  0
BLOCK
  5
62A
100
AcDbEntity
  8
0
100
AcDbBlockBegin
  2
*D12
 70
    65
 10
0.0
 20
0.0
  0
LINE
  5
62B
100
AcDbEntity
  8
0
  6
CONTINUOUS
 62
     2
100
AcDbLine
 10
570.000000000002
 20
100.0
 11
429.750000000002
 21
100.0
  0
LINE
  5
62C
100
AcDbEntity
  8
0
  6
CONTINUOUS
 62
     2
100
AcDbLine
 10
568.000000000002
 20
99.5
 11
570.000000000002
 21
100.0
  0
LINE
  5
62D
100
AcDbEntity
  8
0
  6
CONTINUOUS
 62
     2
100
AcDbLine
 10
570.000000000002
 20
100.0
 11
568.000000000002
 21
100.5
  0
LINE
  5
62E
100
AcDbEntity
  8
0
  6
CONTINUOUS
 62
     2
100
AcDbLine
 10
289.500000000001
 20
100.0
 11
429.750000000002
 21
100.0
  0
LINE
  5
62F
100
AcDbEntity
  8
0
  6
CONTINUOUS
 62
     2
100
AcDbLine
 10
291.500000000001
 20
100.5
 11
289.500000000001
 21
100.0
  0
LINE
  5
630
100
AcDbEntity
  8
0
  6
CONTINUOUS
 62
     2
100
AcDbLine
 10
289.500000000001
 20
100.0
 11
291.500000000001
 21
99.5
  0
LINE
  5
631
100
AcDbEntity
  8
0
  6
CONTINUOUS
 62
     2
100
AcDbLine
 10
570.000000000002
 20
34.999999999999
 11
570.000000000002
 21
101.0
  0
LINE
  5
632
100
AcDbEntity
  8
0
  6
CONTINUOUS
 62
     2
100
AcDbLine
 10
289.500000000001
 20
43.999999999999
 11
289.500000000001
 21
101.0
  0
MTEXT
  5
633
100
AcDbEntity
  8
0
  6
CONTINUOUS
 62
     2
100
AcDbMText
 10
423.625000000001
 20
100.5
 40
3.5
 41
0.0
 11
1.0
 21
0.0
 71
     7
 72
     5
  7
STANDARD
  1
{\T1.60714;\W0.666667;280.5}
 73
     1
 44
1.0
  0
POINT
  5
634
100
AcDbEntity
  8
DEFPOINTS
  6
BYBLOCK
 62
     0
100
AcDbPoint
 10
570.000000000002
 20
34.499999999999
  0
POINT
  5
635
100
AcDbEntity
  8
DEFPOINTS
  6
BYBLOCK
 62
     0
100
AcDbPoint
 10
289.500000000001
 20
43.499999999999
  0
POINT
  5
636
100
AcDbEntity
  8
DEFPOINTS
  6
BYBLOCK
 62
     0
100
AcDbPoint
 10
289.500000000001
 20
100.0
  0
ENDBLK
  5
637
100
AcDbEntity
  8
4
100
AcDbBlockEnd
  0
BLOCK
  5
63A
100
AcDbEntity
  8
0
100
AcDbBlockBegin
  2
*D13
 70
    65
 10
0.0
 20
0.0
  0
LINE
  5
63B
100
AcDbEntity
  8
0
  6
CONTINUOUS
 62
     2
100
AcDbLine
 10
289.500000000001
 20
100.0
 11
173.250000000001
 21
100.0
  0
LINE
  5
63C
100
AcDbEntity
  8
0
  6
CONTINUOUS
 62
     2
100
AcDbLine
 10
287.500000000001
 20
99.5
 11
289.500000000001
 21
100.0
  0
LINE
  5
63D
100
AcDbEntity
  8
0
  6
CONTINUOUS
 62
     2
100
AcDbLine
 10
289.500000000001
 20
100.0
 11
287.500000000001
 21
100.5
  0
LINE
  5
63E
100
AcDbEntity
  8
0
  6
CONTINUOUS
 62
     2
100
AcDbLine
 10
57.0000000000016
 20
100.0
 11
173.250000000001
 21
100.0
  0
LINE
  5
63F
100
AcDbEntity
  8
0
  6
CONTINUOUS
 62
     2
100
AcDbLine
 10
59.0000000000016
 20
100.5
 11
57.0000000000016
 21
100.0
  0
LINE
  5
640
100
AcDbEntity
  8
0
  6
CONTINUOUS
 62
     2
100
AcDbLine
 10
57.0000000000016
 20
100.0
 11
59.0000000000016
 21
99.5
  0
LINE
  5
641
100
AcDbEntity
  8
0
  6
CONTINUOUS
 62
     2
100
AcDbLine
 10
57.0000000000016
 20
39.5
 11
57.0000000000016
 21
101.0
  0
MTEXT
  5
642
100
AcDbEntity
  8
0
  6
CONTINUOUS
 62
     2
100
AcDbMText
 10
167.125000000001
 20
100.5
 40
3.5
 41
0.0
 11
1.0
 21
0.0
 71
     7
 72
     5
  7
STANDARD
  1
{\T1.60714;\W0.666667;232.5}
 73
     1
 44
1.0
  0
POINT
  5
643
100
AcDbEntity
  8
DEFPOINTS
  6
BYBLOCK
 62
     0
100
AcDbPoint
 10
289.500000000001
 20
43.999999999999
  0
POINT
  5
644
100
AcDbEntity
  8
DEFPOINTS
  6
BYBLOCK
 62
     0
100
AcDbPoint
 10
57.0000000000016
 20
39.0
  0
POINT
  5
645
100
AcDbEntity
  8
DEFPOINTS
  6
BYBLOCK
 62
     0
100
AcDbPoint
 10
57.0000000000016
 20
100.0
  0
ENDBLK
  5
646
100
AcDbEntity
  8
4
100
AcDbBlockEnd
  0
BLOCK
  5
649
100
AcDbEntity
  8
0
100
AcDbBlockBegin
  2
*D14
 70
    65
 10
0.0
 20
0.0
  0
LINE
  5
64A
100
AcDbEntity
  8
0
  6
CONTINUOUS
 62
     2
100
AcDbLine
 10
57.0000000000016
 20
100.0
 11
28.5000000000015
 21
100.0
  0
LINE
  5
64B
100
AcDbEntity
  8
0
  6
CONTINUOUS
 62
     2
100
AcDbLine
 10
55.0000000000016
 20
99.5
 11
57.0000000000016
 21
100.0
  0
LINE
  5
64C
100
AcDbEntity
  8
0
  6
CONTINUOUS
 62
     2
100
AcDbLine
 10
57.0000000000016
 20
100.0
 11
55.0000000000016
 21
100.5
  0
LINE
  5
64D
100
AcDbEntity
  8
0
  6
CONTINUOUS
 62
     2
100
AcDbLine
 10
1.47792889038101E-012
 20
100.0
 11
28.5000000000015
 21
100.0
  0
LINE
  5
64E
100
AcDbEntity
  8
0
  6
CONTINUOUS
 62
     2
100
AcDbLine
 10
2.00000000000148
 20
100.5
 11
1.47792889038101E-012
 21
100.0
  0
LINE
  5
64F
100
AcDbEntity
  8
0
  6
CONTINUOUS
 62
     2
100
AcDbLine
 10
1.47792889038101E-012
 20
100.0
 11
2.00000000000148
 21
99.5
  0
LINE
  5
650
100
AcDbEntity
  8
0
  6
CONTINUOUS
 62
     2
100
AcDbLine
 10
1.47792889038101E-012
 20
10.0
 11
1.47792889038101E-012
 21
101.0
  0
MTEXT
  5
651
100
AcDbEntity
  8
0
  6
CONTINUOUS
 62
     2
100
AcDbMText
 10
26.3125000000015
 20
100.5
 40
3.5
 41
0.0
 11
1.0
 21
0.0
 71
     7
 72
     5
  7
STANDARD
  1
{\T1.60714;\W0.666667;57}
 73
     1
 44
1.0
  0
POINT
  5
652
100
AcDbEntity
  8
DEFPOINTS
  6
BYBLOCK
 62
     0
100
AcDbPoint
 10
57.0000000000016
 20
39.0
  0
POINT
  5
653
100
AcDbEntity
  8
DEFPOINTS
  6
BYBLOCK
 62
     0
100
AcDbPoint
 10
1.47792889038101E-012
 20
9.5
  0
POINT
  5
654
100
AcDbEntity
  8
DEFPOINTS
  6
BYBLOCK
 62
     0
100
AcDbPoint
 10
1.47792889038101E-012
 20
100.0
  0
ENDBLK
  5
655
100
AcDbEntity
  8
4
100
AcDbBlockEnd
  0
BLOCK
  5
658
100
AcDbEntity
  8
0
100
AcDbBlockBegin
  2
*D15
 70
    65
 10
0.0
 20
0.0
  0
LINE
  5
659
100
AcDbEntity
  8
0
  6
CONTINUOUS
 62
     2
100
AcDbLine
 10
1.47792889038101E-012
 20
85.0
 11
15.0000000000015
 21
85.0
  0
LINE
  5
65A
100
AcDbEntity
  8
0
  6
CONTINUOUS
 62
     2
100
AcDbLine
 10
2.00000000000148
 20
85.5
 11
1.47792889038101E-012
 21
85.0
  0
LINE
  5
65B
100
AcDbEntity
  8
0
  6
CONTINUOUS
 62
     2
100
AcDbLine
 10
1.47792889038101E-012
 20
85.0
 11
2.00000000000148
 21
84.5
  0
LINE
  5
65C
100
AcDbEntity
  8
0
  6
CONTINUOUS
 62
     2
100
AcDbLine
 10
30.0000000000015
 20
85.0
 11
15.0000000000015
 21
85.0
  0
LINE
  5
65D
100
AcDbEntity
  8
0
  6
CONTINUOUS
 62
     2
100
AcDbLine
 10
28.0000000000015
 20
84.5
 11
30.0000000000015
 21
85.0
  0
LINE
  5
65E
100
AcDbEntity
  8
0
  6
CONTINUOUS
 62
     2
100
AcDbLine
 10
30.0000000000015
 20
85.0
 11
28.0000000000015
 21
85.5
  0
LINE
  5
65F
100
AcDbEntity
  8
0
  6
CONTINUOUS
 62
     2
100
AcDbLine
 10
1.47792889038101E-012
 20
10.0
 11
1.47792889038101E-012
 21
86.0
  0
LINE
  5
660
100
AcDbEntity
  8
0
  6
CONTINUOUS
 62
     2
100
AcDbLine
 10
30.0000000000015
 20
13.0
 11
30.0000000000015
 21
86.0
  0
MTEXT
  5
661
100
AcDbEntity
  8
0
  6
CONTINUOUS
 62
     2
100
AcDbMText
 10
12.8125000000015
 20
85.5
 40
3.5
 41
0.0
 11
1.0
 21
0.0
 71
     7
 72
     5
  7
STANDARD
  1
{\T1.60714;\W0.666667;30}
 73
     1
 44
1.0
  0
POINT
  5
662
100
AcDbEntity
  8
DEFPOINTS
  6
BYBLOCK
 62
     0
100
AcDbPoint
 10
1.47792889038101E-012
 20
9.5
  0
POINT
  5
663
100
AcDbEntity
  8
DEFPOINTS
  6
BYBLOCK
 62
     0
100
AcDbPoint
 10
30.0000000000015
 20
12.5
  0
POINT
  5
664
100
AcDbEntity
  8
DEFPOINTS
  6
BYBLOCK
 62
     0
100
AcDbPoint
 10
30.0000000000015
 20
85.0
  0
ENDBLK
  5
665
100
AcDbEntity
  8
4
100
AcDbBlockEnd
  0
BLOCK
  5
668
100
AcDbEntity
  8
0
100
AcDbBlockBegin
  2
*D16
 70
    65
 10
0.0
 20
0.0
  0
LINE
  5
669
100
AcDbEntity
  8
0
  6
CONTINUOUS
 62
     2
100
AcDbLine
 10
1.47792889038101E-012
 20
70.0
 11
5.00000000000148
 21
70.0
  0
LINE
  5
66A
100
AcDbEntity
  8
0
  6
CONTINUOUS
 62
     2
100
AcDbLine
 10
2.00000000000148
 20
70.5
 11
1.47792889038101E-012
 21
70.0
  0
LINE
  5
66B
100
AcDbEntity
  8
0
  6
CONTINUOUS
 62
     2
100
AcDbLine
 10
1.47792889038101E-012
 20
70.0
 11
2.00000000000148
 21
69.5
  0
LINE
  5
66C
100
AcDbEntity
  8
0
  6
CONTINUOUS
 62
     2
100
AcDbLine
 10
10.0000000000015
 20
70.0
 11
5.00000000000148
 21
70.0
  0
LINE
  5
66D
100
AcDbEntity
  8
0
  6
CONTINUOUS
 62
     2
100
AcDbLine
 10
8.00000000000148
 20
69.5
 11
10.0000000000015
 21
70.0
  0
LINE
  5
66E
100
AcDbEntity
  8
0
  6
CONTINUOUS
 62
     2
100
AcDbLine
 10
10.0000000000015
 20
70.0
 11
8.00000000000148
 21
70.5
  0
LINE
  5
66F
100
AcDbEntity
  8
0
  6
CONTINUOUS
 62
     2
100
AcDbLine
 10
1.47792889038101E-012
 20
10.0
 11
1.47792889038101E-012
 21
71.0
  0
LINE
  5
670
100
AcDbEntity
  8
0
  6
CONTINUOUS
 62
     2
100
AcDbLine
 10
10.0000000000015
 20
10.0
 11
10.0000000000015
 21
71.0
  0
MTEXT
  5
671
100
AcDbEntity
  8
0
  6
CONTINUOUS
 62
     2
100
AcDbMText
 10
2.81250000000148
 20
70.5
 40
3.5
 41
0.0
 11
1.0
 21
0.0
 71
     7
 72
     5
  7
STANDARD
  1
{\T1.60714;\W0.666667;10}
 73
     1
 44
1.0
  0
POINT
  5
672
100
AcDbEntity
  8
DEFPOINTS
  6
BYBLOCK
 62
     0
100
AcDbPoint
 10
1.47792889038101E-012
 20
9.5
  0
POINT
  5
673
100
AcDbEntity
  8
DEFPOINTS
  6
BYBLOCK
 62
     0
100
AcDbPoint
 10
10.0000000000015
 20
9.5
  0
POINT
  5
674
100
AcDbEntity
  8
DEFPOINTS
  6
BYBLOCK
 62
     0
100
AcDbPoint
 10
10.0000000000015
 20
70.0
  0
ENDBLK
  5
675
100
AcDbEntity
  8
4
100
AcDbBlockEnd
  0
BLOCK
  5
678
100
AcDbEntity
  8
0
100
AcDbBlockBegin
  2
*D17
 70
    65
 10
0.0
 20
0.0
  0
LINE
  5
679
100
AcDbEntity
  8
0
  6
CONTINUOUS
 62
     2
100
AcDbLine
 10
-30.0
 20
29.0000004768372
 11
-30.0
 21
4.76837158203125E-007
  0
LINE
  5
67A
100
AcDbEntity
  8
0
  6
CONTINUOUS
 62
     2
100
AcDbLine
 10
-29.5
 20
27.0000004768372
 11
-30.0
 21
29.0000004768372
  0
LINE
  5
67B
100
AcDbEntity
  8
0
  6
CONTINUOUS
 62
     2
100
AcDbLine
 10
-30.0
 20
29.0000004768372
 11
-30.5
 21
27.0000004768372
  0
LINE
  5
67C
100
AcDbEntity
  8
0
  6
CONTINUOUS
 62
     2
100
AcDbLine
 10
-30.0
 20
-28.9999995231628
 11
-30.0
 21
4.76837158203125E-007
  0
LINE
  5
67D
100
AcDbEntity
  8
0
  6
CONTINUOUS
 62
     2
100
AcDbLine
 10
-30.5
 20
-26.9999995231628
 11
-30.0
 21
-28.9999995231628
  0
LINE
  5
67E
100
AcDbEntity
  8
0
  6
CONTINUOUS
 62
     2
100
AcDbLine
 10
-30.0
 20
-28.9999995231628
 11
-29.5
 21
-26.9999995231628
  0
LINE
  5
67F
100
AcDbEntity
  8
0
  6
CONTINUOUS
 62
     2
100
AcDbLine
 10
48.5000000000016
 20
29.0000004768372
 11
-31.0
 21
29.0000004768372
  0
LINE
  5
680
100
AcDbEntity
  8
0
  6
CONTINUOUS
 62
     2
100
AcDbLine
 10
48.5000000000016
 20
-28.9999995231628
 11
-31.0
 21
-28.9999995231628
  0
MTEXT
  5
681
100
AcDbEntity
  8
0
  6
CONTINUOUS
 62
     2
100
AcDbMText
 10
-31.5
 20
-8.37499952316284
 40
3.5
 41
0.0
 11
6.12323399573677E-017
 21
1.0
 71
     7
 72
     5
  7
STANDARD
  1
{\T1.60714;\W0.666667;%%c58}
 73
     1
 44
1.0
  0
MTEXT
  5
682
100
AcDbEntity
  8
0
  6
CONTINUOUS
 62
     2
100
AcDbMText
 10
-33.5
 20
-0.374999523162842
 40
2.5
 41
0.0
 11
6.12323399573677E-017
 21
1.0
 71
     7
 72
     5
  7
STANDARD
  1
{\T1.60714;\W0.666667;-0.03}
 73
     1
 44
1.0
  0
MTEXT
  5
683
100
AcDbEntity
  8
0
  6
CONTINUOUS
 62
     2
100
AcDbMText
 10
-30.5
 20
-0.374999523162842
 40
2.5
 41
0.0
 11
6.12323399573677E-017
 21
1.0
 71
     7
 72
     5
  7
STANDARD
  1
{\T1.60714;\W0.666667;-0.05}
 73
     1
 44
1.0
  0
POINT
  5
684
100
AcDbEntity
  8
DEFPOINTS
  6
BYBLOCK
 62
     0
100
AcDbPoint
 10
49.0000000000016
 20
29.0000004768372
  0
POINT
  5
685
100
AcDbEntity
  8
DEFPOINTS
  6
BYBLOCK
 62
     0
100
AcDbPoint
 10
49.0000000000016
 20
-28.9999995231628
  0
POINT
  5
686
100
AcDbEntity
  8
DEFPOINTS
  6
BYBLOCK
 62
     0
100
AcDbPoint
 10
-30.0
 20
-28.9999995231628
  0
ENDBLK
  5
687
100
AcDbEntity
  8
4
100
AcDbBlockEnd
  0
BLOCK
  5
68A
100
AcDbEntity
  8
0
100
AcDbBlockBegin
  2
*D18
 70
    65
 10
0.0
 20
0.0
  0
LINE
  5
68B
100
AcDbEntity
  8
0
  6
CONTINUOUS
 62
     2
100
AcDbLine
 10
9.09233580289424
 20
-2.43642067494295
 11
-5.46811319578319
 21
-41.5206757220075
  0
LINE
  5
68C
100
AcDbEntity
  8
0
  6
CONTINUOUS
 62
     2
100
AcDbLine
 10
-5.46811319578319
 20
-41.5206757220075
 11
-16.0931131957832
 21
-41.5206757220075
  0
LINE
  5
68D
100
AcDbEntity
  8
0
  6
CONTINUOUS
 62
     2
100
AcDbLine
 10
8.86267501183921
 20
-4.4851412320351
 11
9.09233580289424
 21
-2.43642067494295
  0
LINE
  5
68E
100
AcDbEntity
  8
0
  6
CONTINUOUS
 62
     2
100
AcDbLine
 10
9.09233580289424
 20
-2.43642067494295
 11
7.92559013686114
 21
-4.13603961776307
  0
LINE
  5
68F
100
AcDbEntity
  8
0
  6
CONTINUOUS
 62
     2
100
AcDbLine
 10
9.09233580289424
 20
-2.43642067494295
 11
10.0000000000015
 21
0.0
  0
LINE
  5
690
100
AcDbEntity
  8
0
  6
CONTINUOUS
 62
     2
100
AcDbLine
 10
10.9076641971087
 20
2.43642067494295
 11
10.0000000000015
 21
0.0
  0
LINE
  5
691
100
AcDbEntity
  8
0
  6
CONTINUOUS
 62
     2
100
AcDbLine
 10
10.9076641971087
 20
2.43642067494295
 11
11.9549690399249
 21
5.24767529987719
  0
LINE
  5
692
100
AcDbEntity
  8
0
  6
CONTINUOUS
 62
     2
100
AcDbLine
 10
11.1373249881637
 20
4.4851412320351
 11
10.9076641971087
 21
2.43642067494295
  0
LINE
  5
693
100
AcDbEntity
  8
0
  6
CONTINUOUS
 62
     2
100
AcDbLine
 10
10.9076641971087
 20
2.43642067494295
 11
12.0744098631418
 21
4.13603961776307
  0
MTEXT
  5
694
100
AcDbEntity
  8
0
  6
CONTINUOUS
 62
     2
100
AcDbMText
 10
-15.5931131957832
 20
-41.0206757220075
 40
3.5
 41
0.0
 11
1.0
 21
0.0
 71
     7
 72
     5
  7
STANDARD
  1
{\T1.60714;\W0.666667;%%c5.2}
 73
     1
 44
1.0
  0
POINT
  5
695
100
AcDbEntity
  8
DEFPOINTS
  6
BYBLOCK
 62
     0
100
AcDbPoint
 10
10.9076641971087
 20
2.43642067494295
  0
POINT
  5
696
100
AcDbEntity
  8
DEFPOINTS
  6
BYBLOCK
 62
     0
100
AcDbPoint
 10
9.09233580289424
 20
-2.43642067494295
  0
ENDBLK
  5
697
100
AcDbEntity
  8
4
100
AcDbBlockEnd
  0
BLOCK
  5
69A
100
AcDbEntity
  8
0
100
AcDbBlockBegin
  2
*D19
 70
    65
 10
0.0
 20
0.0
  0
LINE
  5
69B
100
AcDbEntity
  8
0
  6
CONTINUOUS
 62
     2
100
AcDbLine
 10
-15.0
 20
12.5
 11
-15.0
 21
0.0
  0
LINE
  5
69C
100
AcDbEntity
  8
0
  6
CONTINUOUS
 62
     2
100
AcDbLine
 10
-14.5
 20
10.5
 11
-15.0
 21
12.5
  0
LINE
  5
69D
100
AcDbEntity
  8
0
  6
CONTINUOUS
 62
     2
100
AcDbLine
 10
-15.0
 20
12.5
 11
-15.5
 21
10.5
  0
LINE
  5
69E
100
AcDbEntity
  8
0
  6
CONTINUOUS
 62
     2
100
AcDbLine
 10
-15.0
 20
-12.5
 11
-15.0
 21
0.0
  0
LINE
  5
69F
100
AcDbEntity
  8
0
  6
CONTINUOUS
 62
     2
100
AcDbLine
 10
-15.5
 20
-10.5
 11
-15.0
 21
-12.5
  0
LINE
  5
6A0
100
AcDbEntity
  8
0
  6
CONTINUOUS
 62
     2
100
AcDbLine
 10
-15.0
 20
-12.5
 11
-14.5
 21
-10.5
  0
LINE
  5
6A1
100
AcDbEntity
  8
0
  6
CONTINUOUS
 62
     2
100
AcDbLine
 10
29.5000000000015
 20
12.5
 11
-16.0
 21
12.5
  0
LINE
  5
6A2
100
AcDbEntity
  8
0
  6
CONTINUOUS
 62
     2
100
AcDbLine
 10
29.5000000000015
 20
-12.5
 11
-16.0
 21
-12.5
  0
MTEXT
  5
6A3
100
AcDbEntity
  8
0
  6
CONTINUOUS
 62
     2
100
AcDbMText
 10
-15.5
 20
-3.5
 40
3.5
 41
0.0
 11
6.12323399573677E-017
 21
1.0
 71
     7
 72
     5
  7
STANDARD
  1
{\T1.60714;\W0.666667;%%c25}
 73
     1
 44
1.0
  0
POINT
  5
6A4
100
AcDbEntity
  8
DEFPOINTS
  6
BYBLOCK
 62
     0
100
AcDbPoint
 10
30.0000000000015
 20
12.5
  0
POINT
  5
6A5
100
AcDbEntity
  8
DEFPOINTS
  6
BYBLOCK
 62
     0
100
AcDbPoint
 10
30.0000000000015
 20
-12.5
  0
POINT
  5
6A6
100
AcDbEntity
  8
DEFPOINTS
  6
BYBLOCK
 62
     0
100
AcDbPoint
 10
-15.0
 20
-12.5
  0
ENDBLK
  5
6A7
100
AcDbEntity
  8
4
100
AcDbBlockEnd
  0
BLOCK
  5
559
100
AcDbEntity
  8
0
100
AcDbBlockBegin
  2
M6_0001
 70
    64
 10
0.0
 20
0.0
  0
CIRCLE
  5
55A
100
AcDbEntity
  8
2
  6
CONTINUOUS
 62
     0
100
AcDbCircle
 10
0.0
 20
0.0
 40
2.6
  0
CIRCLE
  5
55B
100
AcDbEntity
  8
8
  6
CONTINUOUS
 62
     7
100
AcDbCircle
 10
0.0
 20
0.0
 40
3.0
  0
ENDBLK
  5
55C
100
AcDbEntity
  8
8
100
AcDbBlockEnd
  0
BLOCK
  5
26
100
AcDbEntity
  8
0
100
AcDbBlockBegin
  2
SUB1
 70
    64
 10
0.0
 20
0.0
  0
LINE
  5
27
100
AcDbEntity
  8
2
  6
CONTINUOUS
 62
     0
100
AcDbLine
 10
599.1
 20
114.0
 11
599.1
 21
80.0
  0
LINE
  5
29
100
AcDbEntity
  8
2
  6
CONTINUOUS
 62
     0
100
AcDbLine
 10
595.1
 20
84.5
 11
594.1
 21
84.5
  0
LINE
  5
2A
100
AcDbEntity
  8
2
  6
CONTINUOUS
 62
     0
100
AcDbLine
 10
595.1
 20
109.5
 11
594.1
 21
109.5
  0
LINE
  5
2B
100
AcDbEntity
  8
2
  6
CONTINUOUS
 62
     0
100
AcDbLine
 10
594.1
 20
80.5
 11
594.1
 21
113.5
  0
LINE
  5
2C
100
AcDbEntity
  8
2
  6
CONTINUOUS
 62
     0
100
AcDbLine
 10
599.1
 20
80.5
 11
609.1
 21
80.5
  0
LINE
  5
2D
100
AcDbEntity
  8
2
  6
CONTINUOUS
 62
     0
100
AcDbLine
 10
609.1
 20
82.0
 11
599.1
 21
82.0
  0
LINE
  5
2E
100
AcDbEntity
  8
2
  6
CONTINUOUS
 62
     0
100
AcDbLine
 10
599.1
 20
83.5
 11
609.1
 21
83.5
  0
LINE
  5
2F
100
AcDbEntity
  8
2
  6
CONTINUOUS
 62
     0
100
AcDbLine
 10
609.1
 20
85.0
 11
599.1
 21
85.0
  0
LINE
  5
30
100
AcDbEntity
  8
2
  6
CONTINUOUS
 62
     0
100
AcDbLine
 10
599.1
 20
86.5
 11
609.1
 21
86.5
  0
LINE
  5
31
100
AcDbEntity
  8
2
  6
CONTINUOUS
 62
     0
100
AcDbLine
 10
609.1
 20
88.0
 11
599.1
 21
88.0
  0
LINE
  5
32
100
AcDbEntity
  8
2
  6
CONTINUOUS
 62
     0
100
AcDbLine
 10
599.1
 20
89.5
 11
609.1
 21
89.5
  0
LINE
  5
33
100
AcDbEntity
  8
2
  6
CONTINUOUS
 62
     0
100
AcDbLine
 10
609.1
 20
91.0
 11
599.1
 21
91.0
  0
LINE
  5
34
100
AcDbEntity
  8
2
  6
CONTINUOUS
 62
     0
100
AcDbLine
 10
599.1
 20
92.5
 11
609.1
 21
92.5
  0
LINE
  5
35
100
AcDbEntity
  8
2
  6
CONTINUOUS
 62
     0
100
AcDbLine
 10
609.1
 20
94.0
 11
599.1
 21
94.0
  0
LINE
  5
36
100
AcDbEntity
  8
2
  6
CONTINUOUS
 62
     0
100
AcDbLine
 10
599.1
 20
95.5
 11
609.1
 21
95.5
  0
LINE
  5
37
100
AcDbEntity
  8
2
  6
CONTINUOUS
 62
     0
100
AcDbLine
 10
609.1
 20
97.0
 11
599.1
 21
97.0
  0
LINE
  5
38
100
AcDbEntity
  8
2
  6
CONTINUOUS
 62
     0
100
AcDbLine
 10
599.1
 20
98.5
 11
609.1
 21
98.5
  0
LINE
  5
39
100
AcDbEntity
  8
2
  6
CONTINUOUS
 62
     0
100
AcDbLine
 10
609.1
 20
100.0
 11
599.1
 21
100.0
  0
LINE
  5
3A
100
AcDbEntity
  8
2
  6
CONTINUOUS
 62
     0
100
AcDbLine
 10
599.1
 20
101.5
 11
609.1
 21
101.5
  0
LINE
  5
3B
100
AcDbEntity
  8
2
  6
CONTINUOUS
 62
     0
100
AcDbLine
 10
609.1
 20
103.0
 11
599.1
 21
103.0
  0
LINE
  5
3C
100
AcDbEntity
  8
2
  6
CONTINUOUS
 62
     0
100
AcDbLine
 10
599.1
 20
104.5
 11
609.1
 21
104.5
  0
LINE
  5
3D
100
AcDbEntity
  8
2
  6
CONTINUOUS
 62
     0
100
AcDbLine
 10
609.1
 20
106.0
 11
599.1
 21
106.0
  0
LINE
  5
3E
100
AcDbEntity
  8
2
  6
CONTINUOUS
 62
     0
100
AcDbLine
 10
599.1
 20
107.5
 11
609.1
 21
107.5
  0
LINE
  5
3F
100
AcDbEntity
  8
2
  6
CONTINUOUS
 62
     0
100
AcDbLine
 10
609.1
 20
109.0
 11
599.1
 21
109.0
  0
LINE
  5
40
100
AcDbEntity
  8
2
  6
CONTINUOUS
 62
     0
100
AcDbLine
 10
599.1
 20
110.5
 11
609.1
 21
110.5
  0
LINE
  5
41
100
AcDbEntity
  8
2
  6
CONTINUOUS
 62
     0
100
AcDbLine
 10
609.1
 20
112.0
 11
599.1
 21
112.0
  0
LINE
  5
42
100
AcDbEntity
  8
2
  6
CONTINUOUS
 62
     0
100
AcDbLine
 10
599.1
 20
113.5
 11
609.1
 21
113.5
  0
LINE
  5
43
100
AcDbEntity
  8
2
  6
CONTINUOUS
 62
     0
100
AcDbLine
 10
587.1
 20
82.0
 11
594.1
 21
82.0
  0
LINE
  5
44
100
AcDbEntity
  8
2
  6
CONTINUOUS
 62
     0
100
AcDbLine
 10
594.1
 20
83.5
 11
587.1
 21
83.5
  0
LINE
  5
45
100
AcDbEntity
  8
2
  6
CONTINUOUS
 62
     0
100
AcDbLine
 10
587.1
 20
85.0
 11
594.1
 21
85.0
  0
LINE
  5
46
100
AcDbEntity
  8
2
  6
CONTINUOUS
 62
     0
100
AcDbLine
 10
594.1
 20
86.5
 11
587.1
 21
86.5
  0
LINE
  5
47
100
AcDbEntity
  8
2
  6
CONTINUOUS
 62
     0
100
AcDbLine
 10
587.1
 20
88.0
 11
594.1
 21
88.0
  0
LINE
  5
48
100
AcDbEntity
  8
2
  6
CONTINUOUS
 62
     0
100
AcDbLine
 10
594.1
 20
89.5
 11
587.1
 21
89.5
  0
LINE
  5
49
100
AcDbEntity
  8
2
  6
CONTINUOUS
 62
     0
100
AcDbLine
 10
587.1
 20
91.0
 11
594.1
 21
91.0
  0
LINE
  5
4A
100
AcDbEntity
  8
2
  6
CONTINUOUS
 62
     0
100
AcDbLine
 10
594.1
 20
92.5
 11
587.1
 21
92.5
  0
LINE
  5
4B
100
AcDbEntity
  8
2
  6
CONTINUOUS
 62
     0
100
AcDbLine
 10
587.1
 20
94.0
 11
594.1
 21
94.0
  0
LINE
  5
4C
100
AcDbEntity
  8
2
  6
CONTINUOUS
 62
     0
100
AcDbLine
 10
594.1
 20
95.5
 11
587.1
 21
95.5
  0
LINE
  5
4D
100
AcDbEntity
  8
2
  6
CONTINUOUS
 62
     0
100
AcDbLine
 10
587.1
 20
97.0
 11
594.1
 21
97.0
  0
LINE
  5
4E
100
AcDbEntity
  8
2
  6
CONTINUOUS
 62
     0
100
AcDbLine
 10
594.1
 20
98.5
 11
587.1
 21
98.5
  0
LINE
  5
4F
100
AcDbEntity
  8
2
  6
CONTINUOUS
 62
     0
100
AcDbLine
 10
587.1
 20
100.0
 11
594.1
 21
100.0
  0
LINE
  5
50
100
AcDbEntity
  8
2
  6
CONTINUOUS
 62
     0
100
AcDbLine
 10
594.1
 20
101.5
 11
587.1
 21
101.5
  0
LINE
  5
51
100
AcDbEntity
  8
2
  6
CONTINUOUS
 62
     0
100
AcDbLine
 10
587.1
 20
103.0
 11
594.1
 21
103.0
  0
LINE
  5
52
100
AcDbEntity
  8
2
  6
CONTINUOUS
 62
     0
100
AcDbLine
 10
594.1
 20
104.5
 11
587.1
 21
104.5
  0
LINE
  5
53
100
AcDbEntity
  8
2
  6
CONTINUOUS
 62
     0
100
AcDbLine
 10
587.1
 20
106.0
 11
594.1
 21
106.0
  0
LINE
  5
54
100
AcDbEntity
  8
2
  6
CONTINUOUS
 62
     0
100
AcDbLine
 10
594.1
 20
107.5
 11
587.1
 21
107.5
  0
LINE
  5
55
100
AcDbEntity
  8
2
  6
CONTINUOUS
 62
     0
100
AcDbLine
 10
587.1
 20
109.0
 11
594.1
 21
109.0
  0
LINE
  5
56
100
AcDbEntity
  8
2
  6
CONTINUOUS
 62
     0
100
AcDbLine
 10
594.1
 20
110.5
 11
587.1
 21
110.5
  0
LINE
  5
57
100
AcDbEntity
  8
2
  6
CONTINUOUS
 62
     0
100
AcDbLine
 10
587.1
 20
112.0
 11
594.1
 21
112.0
  0
LINE
  5
58
100
AcDbEntity
  8
2
  6
CONTINUOUS
 62
     0
100
AcDbLine
 10
577.6
 20
85.5
 11
577.6
 21
108.5
  0
LINE
  5
59
100
AcDbEntity
  8
2
  6
CONTINUOUS
 62
     0
100
AcDbLine
 10
586.6
 20
88.5
 11
586.6
 21
90.5
  0
LINE
  5
5A
100
AcDbEntity
  8
2
  6
CONTINUOUS
 62
     0
100
AcDbLine
 10
586.6
 20
90.5
 11
578.6
 21
90.5
  0
ARC
  5
5B
100
AcDbEntity
  8
2
  6
CONTINUOUS
 62
     0
100
AcDbCircle
 10
578.6
 20
89.5
 40
1.0
100
AcDbArc
 50
90.0
 51
180.0
  0
LINE
  5
5C
100
AcDbEntity
  8
2
  6
CONTINUOUS
 62
     0
100
AcDbLine
 10
578.6
 20
88.5
 11
586.6
 21
88.5
  0
POINT
  5
5D
100
AcDbEntity
  8
2
  6
CONTINUOUS
 62
     0
100
AcDbPoint
 10
577.6
 20
89.5
  0
ARC
  5
5E
100
AcDbEntity
  8
2
  6
CONTINUOUS
 62
     0
100
AcDbCircle
 10
578.6
 20
89.5
 40
1.0
100
AcDbArc
 50
180.0
 51
270.0
  0
LINE
  5
5F
100
AcDbEntity
  8
2
  6
CONTINUOUS
 62
     0
100
AcDbLine
 10
586.6
 20
105.5
 11
586.6
 21
103.5
  0
LINE
  5
60
100
AcDbEntity
  8
2
  6
CONTINUOUS
 62
     0
100
AcDbLine
 10
586.6
 20
103.5
 11
578.6
 21
103.5
  0
ARC
  5
61
100
AcDbEntity
  8
2
  6
CONTINUOUS
 62
     0
100
AcDbCircle
 10
578.6
 20
104.5
 40
1.0
100
AcDbArc
 50
180.0
 51
270.0
  0
LINE
  5
62
100
AcDbEntity
  8
2
  6
CONTINUOUS
 62
     0
100
AcDbLine
 10
578.6
 20
105.5
 11
586.6
 21
105.5
  0
ARC
  5
63
100
AcDbEntity
  8
2
  6
CONTINUOUS
 62
     0
100
AcDbCircle
 10
578.6
 20
104.5
 40
1.0
100
AcDbArc
 50
90.0
 51
180.0
  0
ARC
  5
64
100
AcDbEntity
  8
2
  6
CONTINUOUS
 62
     0
100
AcDbCircle
 10
579.6
 20
108.5
 40
1.99999999999994
100
AcDbArc
 50
90.0
 51
180.0
  0
LINE
  5
65
100
AcDbEntity
  8
2
  6
CONTINUOUS
 62
     0
100
AcDbLine
 10
587.1
 20
110.5
 11
579.6
 21
110.5
  0
LINE
  5
66
100
AcDbEntity
  8
2
  6
CONTINUOUS
 62
     0
100
AcDbLine
 10
594.1
 20
113.5
 11
587.6
 21
113.5
  0
LINE
  5
67
100
AcDbEntity
  8
2
  6
CONTINUOUS
 62
     0
100
AcDbLine
 10
587.1
 20
81.0
 11
587.1
 21
113.0
  0
ARC
  5
68
100
AcDbEntity
  8
2
  6
CONTINUOUS
 62
     0
100
AcDbCircle
 10
587.6
 20
113.0
 40
0.499999999999943
100
AcDbArc
 50
90.0
 51
180.0
  0
LINE
  5
69
100
AcDbEntity
  8
2
  6
CONTINUOUS
 62
     0
100
AcDbLine
 10
599.1
 20
114.0
 11
595.6
 21
114.0
  0
ARC
  5
6A
100
AcDbEntity
  8
2
  6
CONTINUOUS
 62
     0
100
AcDbCircle
 10
595.6
 20
113.5
 40
0.499999999999943
100
AcDbArc
 50
90.0
 51
180.0
  0
LINE
  5
6B
100
AcDbEntity
  8
2
  6
CONTINUOUS
 62
     0
100
AcDbLine
 10
575.1
 20
108.5
 11
577.6
 21
108.5
  0
LINE
  5
6C
100
AcDbEntity
  8
2
  6
CONTINUOUS
 62
     0
100
AcDbLine
 10
575.1
 20
85.5
 11
577.6
 21
85.5
  0
ARC
  5
6D
100
AcDbEntity
  8
2
  6
CONTINUOUS
 62
     0
100
AcDbCircle
 10
579.6
 20
85.5
 40
1.99999999999994
100
AcDbArc
 50
180.0
 51
270.0
  0
LINE
  5
6E
100
AcDbEntity
  8
2
  6
CONTINUOUS
 62
     0
100
AcDbLine
 10
587.1
 20
83.5
 11
579.6
 21
83.5
  0
LINE
  5
6F
100
AcDbEntity
  8
2
  6
CONTINUOUS
 62
     0
100
AcDbLine
 10
594.1
 20
80.5
 11
587.6
 21
80.5
  0
ARC
  5
70
100
AcDbEntity
  8
2
  6
CONTINUOUS
 62
     0
100
AcDbCircle
 10
587.6
 20
81.0
 40
0.499999999999943
100
AcDbArc
 50
180.0
 51
270.0
  0
LINE
  5
71
100
AcDbEntity
  8
2
  6
CONTINUOUS
 62
     0
100
AcDbLine
 10
595.6
 20
80.0
 11
599.1
 21
80.0
  0
ARC
  5
72
100
AcDbEntity
  8
2
  6
CONTINUOUS
 62
     0
100
AcDbCircle
 10
595.6
 20
80.5
 40
0.499999999999943
100
AcDbArc
 50
180.0
 51
270.0
  0
LINE
  5
73
100
AcDbEntity
  8
2
  6
CONTINUOUS
 62
     0
100
AcDbLine
 10
595.1
 20
113.5
 11
595.1
 21
80.5
  0
LINE
  5
74
100
AcDbEntity
  8
2
  6
CONTINUOUS
 62
     0
100
AcDbLine
 10
599.1
 20
80.0
 11
608.6
 21
80.0
  0
LINE
  5
75
100
AcDbEntity
  8
2
  6
CONTINUOUS
 62
     0
100
AcDbLine
 10
608.6
 20
114.0
 11
599.1
 21
114.0
  0
LINE
  5
76
100
AcDbEntity
  8
7
  6
CENTER2
 62
    40
100
AcDbLine
 10
524.2
 20
97.0
 11
626.1
 21
97.0
  0
LINE
  5
78
100
AcDbEntity
  8
6
  6
CENTER
 62
     0
100
AcDbLine
 10
-67.0000000000001
 20
0.0
 11
523.0
 21
0.0
  0
LINE
  5
7A
100
AcDbEntity
  8
2
  6
CONTINUOUS
 62
     0
100
AcDbLine
 10
140.499999999999
 20
-31.000000000001
 11
225.499999999999
 21
-31.000000000001
  0
LINE
  5
7B
100
AcDbEntity
  8
2
  6
CONTINUOUS
 62
     0
100
AcDbLine
 10
225.499999999999
 20
-44.000000000001
 11
232.499999999999
 21
-44.000000000001
  0
LINE
  5
7C
100
AcDbEntity
  8
2
  6
CONTINUOUS
 62
     0
100
AcDbLine
 10
140.499999999999
 20
30.999999999999
 11
225.499999999999
 21
30.999999999999
  0
LINE
  5
7D
100
AcDbEntity
  8
2
  6
CONTINUOUS
 62
     0
100
AcDbLine
 10
225.499999999999
 20
43.999999999999
 11
232.499999999999
 21
43.999999999999
  0
LINE
  5
7E
100
AcDbEntity
  8
7
  6
CENTER2
 62
    40
100
AcDbLine
 10
474.999999999999
 20
39.999999999999
 11
474.999999999999
 21
44.2
  0
LINE
  5
7F
100
AcDbEntity
  8
2
  6
CONTINUOUS
 62
     0
100
AcDbLine
 10
257.499999999999
 20
-44.000000000001
 11
257.499999999999
 21
-41.000000000001
  0
LINE
  5
80
100
AcDbEntity
  8
2
  6
CONTINUOUS
 62
     0
100
AcDbLine
 10
257.499999999999
 20
-41.000000000001
 11
257.499999999999
 21
-35.000000000001
  0
LINE
  5
81
100
AcDbEntity
  8
2
  6
CONTINUOUS
 62
     0
100
AcDbLine
 10
257.499999999999
 20
-35.000000000001
 11
257.499999999999
 21
-28.000000000001
  0
LINE
  5
82
100
AcDbEntity
  8
2
  6
CONTINUOUS
 62
     0
100
AcDbLine
 10
257.499999999999
 20
-28.000000000001
 11
257.499999999999
 21
27.999999999999
  0
LINE
  5
83
100
AcDbEntity
  8
2
  6
CONTINUOUS
 62
     0
100
AcDbLine
 10
257.499999999999
 20
27.999999999999
 11
257.499999999999
 21
34.999999999999
  0
LINE
  5
84
100
AcDbEntity
  8
2
  6
CONTINUOUS
 62
     0
100
AcDbLine
 10
257.499999999999
 20
34.999999999999
 11
257.499999999999
 21
40.999999999999
  0
LINE
  5
85
100
AcDbEntity
  8
2
  6
CONTINUOUS
 62
     0
100
AcDbLine
 10
257.499999999999
 20
40.999999999999
 11
257.499999999999
 21
43.999999999999
  0
LINE
  5
86
100
AcDbEntity
  8
2
  6
CONTINUOUS
 62
     0
100
AcDbLine
 10
269.499999999999
 20
-44.000000000001
 11
269.499999999999
 21
43.999999999999
  0
LINE
  5
87
100
AcDbEntity
  8
2
  6
CONTINUOUS
 62
     0
100
AcDbLine
 10
269.499999999999
 20
-12.500000000001
 11
269.499999999999
 21
-9.50000000000102
  0
LINE
  5
88
100
AcDbEntity
  8
2
  6
CONTINUOUS
 62
     0
100
AcDbLine
 10
269.499999999999
 20
-9.50000000000102
 11
269.499999999999
 21
-8.50000000000102
  0
LINE
  5
89
100
AcDbEntity
  8
2
  6
CONTINUOUS
 62
     0
100
AcDbLine
 10
269.499999999999
 20
-8.50000000000102
 11
269.499999999999
 21
8.49999999999898
  0
LINE
  5
8A
100
AcDbEntity
  8
2
  6
CONTINUOUS
 62
     0
100
AcDbLine
 10
269.499999999999
 20
8.49999999999898
 11
269.499999999999
 21
9.49999999999898
  0
LINE
  5
8B
100
AcDbEntity
  8
2
  6
CONTINUOUS
 62
     0
100
AcDbLine
 10
269.499999999999
 20
9.49999999999898
 11
269.499999999999
 21
12.499999999999
  0
LINE
  5
8C
100
AcDbEntity
  8
2
  6
CONTINUOUS
 62
     0
100
AcDbLine
 10
269.499999999999
 20
-44.000000000001
 11
232.499999999999
 21
-44.000000000001
  0
LINE
  5
8D
100
AcDbEntity
  8
2
  6
CONTINUOUS
 62
     0
100
AcDbLine
 10
269.499999999999
 20
-27.000000000001
 11
269.499999999999
 21
-13.000000000001
  0
LINE
  5
8E
100
AcDbEntity
  8
2
  6
CONTINUOUS
 62
     0
100
AcDbLine
 10
269.499999999999
 20
43.999999999999
 11
232.499999999999
 21
43.999999999999
  0
LINE
  5
8F
100
AcDbEntity
  8
2
  6
CONTINUOUS
 62
     0
100
AcDbLine
 10
269.499999999999
 20
12.999999999999
 11
269.499999999999
 21
26.999999999999
  0
ARC
  5
90
100
AcDbEntity
  8
2
  6
CONTINUOUS
 62
     0
100
AcDbCircle
 10
270.499999999999
 20
31.999999999999
 40
1.0
100
AcDbArc
 50
180.0
 51
270.0
  0
ARC
  5
91
100
AcDbEntity
  8
2
  6
CONTINUOUS
 62
     0
100
AcDbCircle
 10
270.499999999999
 20
-32.000000000001
 40
0.999999999999886
100
AcDbArc
 50
90.0
 51
180.0
  0
LINE
  5
92
100
AcDbEntity
  8
2
  6
CONTINUOUS
 62
     0
100
AcDbLine
 10
446.5
 20
43.999999999999
 11
439.5
 21
43.999999999999
  0
ARC
  5
93
100
AcDbEntity
  8
2
  6
CONTINUOUS
 62
     0
100
AcDbCircle
 10
439.5
 20
42.999999999999
 40
1.0
100
AcDbArc
 50
90.0
 51
180.0
  0
LINE
  5
94
100
AcDbEntity
  8
2
  6
CONTINUOUS
 62
     0
100
AcDbLine
 10
270.499999999999
 20
30.999999999999
 11
437.5
 21
30.999999999999
  0
ARC
  5
95
100
AcDbEntity
  8
2
  6
CONTINUOUS
 62
     0
100
AcDbCircle
 10
437.5
 20
31.999999999999
 40
1.0
100
AcDbArc
 50
270.0
 51
0.0
  0
LINE
  5
96
100
AcDbEntity
  8
2
  6
CONTINUOUS
 62
     0
100
AcDbLine
 10
438.5
 20
32.499999999999
 11
438.5
 21
42.999999999999
  0
LINE
  5
97
100
AcDbEntity
  8
2
  6
CONTINUOUS
 62
     0
100
AcDbLine
 10
438.5
 20
32.499999999999
 11
438.5
 21
17.962999999999
  0
LINE
  5
98
100
AcDbEntity
  8
2
  6
CONTINUOUS
 62
     0
100
AcDbLine
 10
453.0
 20
43.999999999999
 11
453.0
 21
-1.02318153949454E-012
  0
LINE
  5
99
100
AcDbEntity
  8
2
  6
CONTINUOUS
 62
     0
100
AcDbLine
 10
453.0
 20
43.999999999999
 11
446.5
 21
43.999999999999
  0
LINE
  5
9A
100
AcDbEntity
  8
2
  6
CONTINUOUS
 62
     0
100
AcDbLine
 10
446.5
 20
43.999999999999
 11
446.5
 21
-1.02318153949454E-012
  0
LINE
  5
9B
100
AcDbEntity
  8
2
  6
CONTINUOUS
 62
     0
100
AcDbLine
 10
446.5
 20
-44.000000000001
 11
439.5
 21
-44.000000000001
  0
ARC
  5
9C
100
AcDbEntity
  8
2
  6
CONTINUOUS
 62
     0
100
AcDbCircle
 10
439.5
 20
-43.000000000001
 40
1.0
100
AcDbArc
 50
180.0
 51
270.0
  0
LINE
  5
9D
100
AcDbEntity
  8
2
  6
CONTINUOUS
 62
     0
100
AcDbLine
 10
270.499999999999
 20
-31.000000000001
 11
437.5
 21
-31.000000000001
  0
ARC
  5
9E
100
AcDbEntity
  8
2
  6
CONTINUOUS
 62
     0
100
AcDbCircle
 10
437.5
 20
-32.000000000001
 40
1.0
100
AcDbArc
 50
0.0
 51
90.0
  0
LINE
  5
9F
100
AcDbEntity
  8
2
  6
CONTINUOUS
 62
     0
100
AcDbLine
 10
438.5
 20
-32.500000000001
 11
438.5
 21
-43.000000000001
  0
LINE
  5
A0
100
AcDbEntity
  8
2
  6
CONTINUOUS
 62
     0
100
AcDbLine
 10
438.5
 20
-32.500000000001
 11
438.5
 21
-17.963000000001
  0
LINE
  5
A1
100
AcDbEntity
  8
2
  6
CONTINUOUS
 62
     0
100
AcDbLine
 10
453.0
 20
-44.000000000001
 11
453.0
 21
-1.02318153949454E-012
  0
LINE
  5
A2
100
AcDbEntity
  8
2
  6
CONTINUOUS
 62
     0
100
AcDbLine
 10
453.0
 20
-44.000000000001
 11
446.5
 21
-44.000000000001
  0
LINE
  5
A3
100
AcDbEntity
  8
2
  6
CONTINUOUS
 62
     0
100
AcDbLine
 10
446.5
 20
-44.000000000001
 11
446.5
 21
-1.02318153949454E-012
  0
LINE
  5
A4
100
AcDbEntity
  8
2
  6
CONTINUOUS
 62
     0
100
AcDbLine
 10
453.0
 20
30.999999999999
 11
453.0
 21
-31.000000000001
  0
LINE
  5
A5
100
AcDbEntity
  8
2
  6
CONTINUOUS
 62
     0
100
AcDbLine
 10
513.0
 20
31.999999999999
 11
463.0
 21
31.999999999999
  0
LINE
  5
A6
100
AcDbEntity
  8
2
  6
CONTINUOUS
 62
     0
100
AcDbLine
 10
463.0
 20
33.999999999999
 11
513.0
 21
33.999999999999
  0
LINE
  5
A7
100
AcDbEntity
  8
2
  6
CONTINUOUS
 62
     0
100
AcDbLine
 10
483.2
 20
33.999999999999
 11
483.2
 21
37.999999999999
  0
LINE
  5
A8
100
AcDbEntity
  8
2
  6
CONTINUOUS
 62
     0
100
AcDbLine
 10
481.2
 20
39.999999999999
 11
475.0
 21
39.999999999999
  0
ARC
  5
A9
100
AcDbEntity
  8
2
  6
CONTINUOUS
 62
     0
100
AcDbCircle
 10
481.2
 20
37.999999999999
 40
1.99999999999994
100
AcDbArc
 50
0.0
 51
90.0
  0
LINE
  5
AA
100
AcDbEntity
  8
2
  6
CONTINUOUS
 62
     0
100
AcDbLine
 10
506.3
 20
42.999999999999
 11
498.0
 21
42.999999999999
  0
LINE
  5
AB
100
AcDbEntity
  8
2
  6
CONTINUOUS
 62
     0
100
AcDbLine
 10
509.3
 20
33.999999999999
 11
509.3
 21
39.999999999999
  0
ARC
  5
AC
100
AcDbEntity
  8
2
  6
CONTINUOUS
 62
     0
100
AcDbCircle
 10
506.3
 20
39.999999999999
 40
2.99999999999994
100
AcDbArc
 50
0.0
 51
90.0
  0
LINE
  5
AD
100
AcDbEntity
  8
2
  6
CONTINUOUS
 62
     0
100
AcDbLine
 10
489.7
 20
42.999999999999
 11
498.0
 21
42.999999999999
  0
LINE
  5
AE
100
AcDbEntity
  8
2
  6
CONTINUOUS
 62
     0
100
AcDbLine
 10
486.7
 20
33.999999999999
 11
486.7
 21
39.999999999999
  0
ARC
  5
AF
100
AcDbEntity
  8
2
  6
CONTINUOUS
 62
     0
100
AcDbCircle
 10
489.7
 20
39.999999999999
 40
2.99999999999994
100
AcDbArc
 50
90.0
 51
180.0
  0
LINE
  5
B0
100
AcDbEntity
  8
2
  6
CONTINUOUS
 62
     0
100
AcDbLine
 10
466.8
 20
33.999999999999
 11
466.8
 21
37.999999999999
  0
LINE
  5
B1
100
AcDbEntity
  8
2
  6
CONTINUOUS
 62
     0
100
AcDbLine
 10
468.8
 20
39.999999999999
 11
475.0
 21
39.999999999999
  0
ARC
  5
B2
100
AcDbEntity
  8
2
  6
CONTINUOUS
 62
     0
100
AcDbCircle
 10
468.8
 20
37.999999999999
 40
1.99999999999994
100
AcDbArc
 50
90.0
 51
180.0
  0
LINE
  5
B3
100
AcDbEntity
  8
2
  6
CONTINUOUS
 62
     0
100
AcDbLine
 10
453.0
 20
30.999999999999
 11
463.0
 21
30.999999999999
  0
LINE
  5
B4
100
AcDbEntity
  8
2
  6
CONTINUOUS
 62
     0
100
AcDbLine
 10
463.0
 20
33.999999999999
 11
463.0
 21
24.499999999999
  0
LINE
  5
B5
100
AcDbEntity
  8
2
  6
CONTINUOUS
 62
     0
100
AcDbLine
 10
513.0
 20
19.999999999999
 11
513.0
 21
17.862999999999
  0
LINE
  5
B6
100
AcDbEntity
  8
2
  6
CONTINUOUS
 62
     0
100
AcDbLine
 10
513.0
 20
19.999999999999
 11
513.0
 21
24.499999999999
  0
LINE
  5
B7
100
AcDbEntity
  8
2
  6
CONTINUOUS
 62
     0
100
AcDbLine
 10
513.0
 20
24.499999999999
 11
463.0
 21
24.499999999999
  0
LINE
  5
B8
100
AcDbEntity
  8
2
  6
CONTINUOUS
 62
     0
100
AcDbLine
 10
513.0
 20
33.999999999999
 11
513.0
 21
24.499999999999
  0
LINE
  5
B9
100
AcDbEntity
  8
2
  6
CONTINUOUS
 62
     0
100
AcDbLine
 10
479.3
 20
44.699999999999
 11
479.3
 21
39.999999999999
  0
LINE
  5
BA
100
AcDbEntity
  8
2
  6
CONTINUOUS
 62
     0
100
AcDbLine
 10
470.7
 20
39.999999999999
 11
470.7
 21
44.699999999999
  0
LINE
  5
BB
100
AcDbEntity
  8
2
  6
CONTINUOUS
 62
     0
100
AcDbLine
 10
513.0
 20
-29.000000000001
 11
513.0
 21
17.862999999999
  0
LINE
  5
BC
100
AcDbEntity
  8
2
  6
CONTINUOUS
 62
     0
100
AcDbLine
 10
453.0
 20
-31.000000000001
 11
511.000000000001
 21
-31.000000000001
  0
ARC
  5
BD
100
AcDbEntity
  8
2
  6
CONTINUOUS
 62
     0
100
AcDbCircle
 10
511.000000000001
 20
-29.000000000001
 40
2.0
100
AcDbArc
 50
270.0
 51
0.0
  0
LINE
  5
BE
100
AcDbEntity
  8
2
  6
CONTINUOUS
 62
     0
100
AcDbLine
 10
437.0
 20
33.499999999999
 11
437.0
 21
43.499999999999
  0
LINE
  5
BF
100
AcDbEntity
  8
2
  6
CONTINUOUS
 62
     0
100
AcDbLine
 10
431.4
 20
43.499999999999
 11
438.5
 21
43.499999999999
  0
LINE
  5
C0
100
AcDbEntity
  8
2
  6
CONTINUOUS
 62
     0
100
AcDbLine
 10
431.4
 20
33.499999999999
 11
438.5
 21
33.499999999999
  0
LINE
  5
C1
100
AcDbEntity
  8
2
  6
CONTINUOUS
 62
     0
100
AcDbLine
 10
431.0
 20
34.192820323027
 11
431.0
 21
42.807179676972
  0
LINE
  5
C2
100
AcDbEntity
  8
2
  6
CONTINUOUS
 62
     0
100
AcDbLine
 10
431.4
 20
33.499999999999
 11
431.4
 21
43.499999999999
  0
LINE
  5
C3
100
AcDbEntity
  8
2
  6
CONTINUOUS
 62
     0
100
AcDbLine
 10
431.4
 20
33.499999999999
 11
431.0
 21
34.192820323027
  0
LINE
  5
C4
100
AcDbEntity
  8
2
  6
CONTINUOUS
 62
     0
100
AcDbLine
 10
431.4
 20
43.499999999999
 11
431.0
 21
42.807179676972
  0
LINE
  5
C5
100
AcDbEntity
  8
2
  6
CONTINUOUS
 62
     0
100
AcDbLine
 10
437.0
 20
38.499999999999
 11
438.5
 21
36.415529012679
  0
LINE
  5
C6
100
AcDbEntity
  8
2
  6
CONTINUOUS
 62
     0
100
AcDbLine
 10
438.5
 20
38.499999999999
 11
437.0
 21
40.560367822646
  0
LINE
  5
C7
100
AcDbEntity
  8
2
  6
CONTINUOUS
 62
     0
100
AcDbLine
 10
437.0
 20
-42.500000000001
 11
437.0
 21
-32.500000000001
  0
LINE
  5
C8
100
AcDbEntity
  8
2
  6
CONTINUOUS
 62
     0
100
AcDbLine
 10
431.4
 20
-32.500000000001
 11
438.5
 21
-32.500000000001
  0
LINE
  5
C9
100
AcDbEntity
  8
2
  6
CONTINUOUS
 62
     0
100
AcDbLine
 10
431.4
 20
-42.500000000001
 11
438.5
 21
-42.500000000001
  0
LINE
  5
CA
100
AcDbEntity
  8
2
  6
CONTINUOUS
 62
     0
100
AcDbLine
 10
431.0
 20
-41.807179676973
 11
431.0
 21
-33.192820323028
  0
LINE
  5
CB
100
AcDbEntity
  8
2
  6
CONTINUOUS
 62
     0
100
AcDbLine
 10
431.4
 20
-42.500000000001
 11
431.4
 21
-32.500000000001
  0
LINE
  5
CC
100
AcDbEntity
  8
2
  6
CONTINUOUS
 62
     0
100
AcDbLine
 10
431.4
 20
-42.500000000001
 11
431.0
 21
-41.807179676973
  0
LINE
  5
CD
100
AcDbEntity
  8
2
  6
CONTINUOUS
 62
     0
100
AcDbLine
 10
431.4
 20
-32.500000000001
 11
431.0
 21
-33.192820323028
  0
LINE
  5
CE
100
AcDbEntity
  8
2
  6
CONTINUOUS
 62
     0
100
AcDbLine
 10
437.0
 20
-37.500000000001
 11
438.5
 21
-39.584470987321
  0
LINE
  5
CF
100
AcDbEntity
  8
2
  6
CONTINUOUS
 62
     0
100
AcDbLine
 10
438.5
 20
-37.500000000001
 11
437.0
 21
-35.439632177354
  0
INSERT
  5
D1
100
AcDbEntity
  8
2
  6
CONTINUOUS
 62
     0
100
AcDbBlockReference
  2
SUB2
 10
269.499999999999
 20
-38.0
 41
1.0
 42
1.0
 50
0.0
  0
INSERT
  5
DF
100
AcDbEntity
  8
2
  6
CONTINUOUS
 62
     0
100
AcDbBlockReference
  2
SUB3
 10
269.499999999999
 20
38.0
 41
1.0
 42
1.0
 50
0.0
  0
LINE
  5
EC
100
AcDbEntity
  8
2
  6
CONTINUOUS
 62
     0
100
AcDbLine
 10
232.499999999999
 20
-44.000000000001
 11
232.499999999999
 21
43.999999999999
  0
ARC
  5
ED
100
AcDbEntity
  8
2
  6
CONTINUOUS
 62
     0
100
AcDbCircle
 10
450.700000000001
 20
44.699999999999
 40
20.0
100
AcDbArc
 50
0.0
 51
90.0
  0
ARC
  5
EE
100
AcDbEntity
  8
2
  6
CONTINUOUS
 62
     0
100
AcDbCircle
 10
450.700000000001
 20
44.699999999999
 40
28.6
100
AcDbArc
 50
0.0
 51
90.0
  0
ARC
  5
EF
100
AcDbEntity
  8
7
  6
CENTER2
 62
    40
100
AcDbCircle
 10
450.700000000001
 20
44.699999999999
 40
24.3
100
AcDbArc
 50
0.0
 51
90.0
  0
LINE
  5
F0
100
AcDbEntity
  8
2
  6
CONTINUOUS
 62
     0
100
AcDbLine
 10
210.299999999999
 20
62.799999999999
 11
210.299999999999
 21
50.199999999999
  0
LINE
  5
F1
100
AcDbEntity
  8
2
  6
CONTINUOUS
 62
     0
100
AcDbLine
 10
192.299999999999
 20
50.199999999999
 11
210.299999999999
 21
50.199999999999
  0
LINE
  5
F2
100
AcDbEntity
  8
2
  6
CONTINUOUS
 62
     0
100
AcDbLine
 10
192.299999999999
 20
62.799999999999
 11
210.299999999999
 21
62.799999999999
  0
ARC
  5
F3
100
AcDbEntity
  8
2
  6
CONTINUOUS
 62
     0
100
AcDbCircle
 10
524.2
 20
70.8
 40
20.0
100
AcDbArc
 50
90.0
 51
180.0
  0
ARC
  5
F4
100
AcDbEntity
  8
2
  6
CONTINUOUS
 62
     0
100
AcDbCircle
 10
524.2
 20
70.8
 40
32.4
100
AcDbArc
 50
90.0
 51
180.0
  0
LINE
  5
F5
100
AcDbEntity
  8
2
  6
CONTINUOUS
 62
     0
100
AcDbLine
 10
504.2
 20
70.8
 11
504.2
 21
42.999999999999
  0
LINE
  5
F6
100
AcDbEntity
  8
2
  6
CONTINUOUS
 62
     0
100
AcDbLine
 10
491.8
 20
42.999999999999
 11
491.8
 21
70.8
  0
LINE
  5
F7
100
AcDbEntity
  8
7
  6
CENTER2
 62
    40
100
AcDbLine
 10
474.999999999999
 20
16.080260469154
 11
474.999999999999
 21
44.699999999999
  0
LINE
  5
F8
100
AcDbEntity
  8
7
  6
CENTER2
 62
    40
100
AcDbLine
 10
498.0
 20
18.117987278092
 11
498.0
 21
71.598824419682
  0
ARC
  5
F9
100
AcDbEntity
  8
7
  6
CENTER2
 62
    40
100
AcDbCircle
 10
524.2
 20
70.8
 40
26.2
100
AcDbArc
 50
90.0
 51
180.0
  0
LINE
  5
FA
100
AcDbEntity
  8
2
  6
CONTINUOUS
 62
     0
100
AcDbLine
 10
563.1
 20
82.0
 11
563.1
 21
81.0
  0
LINE
  5
FB
100
AcDbEntity
  8
2
  6
CONTINUOUS
 62
     0
100
AcDbLine
 10
563.1
 20
112.0
 11
563.1
 21
113.0
  0
ARC
  5
FC
100
AcDbEntity
  8
2
  6
CONTINUOUS
 62
     0
100
AcDbCircle
 10
556.6
 20
86.5
 40
5.50000000000011
100
AcDbArc
 50
270.0
 51
0.0
  0
LINE
  5
FD
100
AcDbEntity
  8
2
  6
CONTINUOUS
 62
     0
100
AcDbLine
 10
562.1
 20
86.5
 11
562.1
 21
107.5
  0
ARC
  5
FE
100
AcDbEntity
  8
2
  6
CONTINUOUS
 62
     0
100
AcDbCircle
 10
556.6
 20
107.5
 40
5.50000000000011
100
AcDbArc
 50
0.0
 51
90.0
  0
LINE
  5
FF
100
AcDbEntity
  8
2
  6
CONTINUOUS
 62
     0
100
AcDbLine
 10
562.1
 20
89.5
 11
551.1
 21
89.5
  0
LINE
  5
100
100
AcDbEntity
  8
2
  6
CONTINUOUS
 62
     0
100
AcDbLine
 10
562.1
 20
104.5
 11
551.1
 21
104.5
  0
CIRCLE
  5
101
100
AcDbEntity
  8
2
  6
CONTINUOUS
 62
     0
100
AcDbCircle
 10
556.6
 20
85.0
 40
1.5
  0
CIRCLE
  5
102
100
AcDbEntity
  8
2
  6
CONTINUOUS
 62
     0
100
AcDbCircle
 10
556.6
 20
109.0
 40
3.0
  0
LINE
  5
103
100
AcDbEntity
  8
2
  6
CONTINUOUS
 62
     0
100
AcDbLine
 10
558.283
 20
107.085
 11
555.783
 21
111.415
  0
LINE
  5
104
100
AcDbEntity
  8
2
  6
CONTINUOUS
 62
     0
100
AcDbLine
 10
555.783
 20
111.415
 11
554.917
 21
110.915
  0
LINE
  5
105
100
AcDbEntity
  8
2
  6
CONTINUOUS
 62
     0
100
AcDbLine
 10
554.917
 20
110.915
 11
557.417
 21
106.585
  0
LINE
  5
106
100
AcDbEntity
  8
2
  6
CONTINUOUS
 62
     0
100
AcDbLine
 10
557.417
 20
106.585
 11
558.283
 21
107.085
  0
LINE
  5
107
100
AcDbEntity
  8
2
  6
CONTINUOUS
 62
     0
100
AcDbLine
 10
563.6
 20
88.0
 11
574.6
 21
88.0
  0
LINE
  5
108
100
AcDbEntity
  8
2
  6
CONTINUOUS
 62
     0
100
AcDbLine
 10
574.6
 20
91.0
 11
563.6
 21
91.0
  0
LINE
  5
109
100
AcDbEntity
  8
2
  6
CONTINUOUS
 62
     0
100
AcDbLine
 10
574.6
 20
88.0
 11
574.6
 21
91.0
  0
LINE
  5
10A
100
AcDbEntity
  8
2
  6
CONTINUOUS
 62
     0
100
AcDbLine
 10
563.6
 20
91.0
 11
563.6
 21
88.0
  0
LINE
  5
10B
100
AcDbEntity
  8
2
  6
CONTINUOUS
 62
     0
100
AcDbLine
 10
563.1
 20
112.0
 11
563.1
 21
82.0
  0
LINE
  5
10C
100
AcDbEntity
  8
2
  6
CONTINUOUS
 62
     0
100
AcDbLine
 10
563.6
 20
106.0
 11
574.6
 21
106.0
  0
LINE
  5
10D
100
AcDbEntity
  8
2
  6
CONTINUOUS
 62
     0
100
AcDbLine
 10
574.6
 20
103.0
 11
563.6
 21
103.0
  0
LINE
  5
10E
100
AcDbEntity
  8
2
  6
CONTINUOUS
 62
     0
100
AcDbLine
 10
574.6
 20
106.0
 11
574.6
 21
103.0
  0
LINE
  5
10F
100
AcDbEntity
  8
2
  6
CONTINUOUS
 62
     0
100
AcDbLine
 10
563.6
 20
103.0
 11
563.6
 21
106.0
  0
LINE
  5
110
100
AcDbEntity
  8
2
  6
CONTINUOUS
 62
     0
100
AcDbLine
 10
551.1
 20
103.2
 11
524.2
 21
103.2
  0
ARC
  5
111
100
AcDbEntity
  8
2
  6
CONTINUOUS
 62
     0
100
AcDbCircle
 10
556.6
 20
86.5
 40
5.50000000000011
100
AcDbArc
 50
180.0
 51
270.0
  0
LINE
  5
112
100
AcDbEntity
  8
2
  6
CONTINUOUS
 62
     0
100
AcDbLine
 10
551.1
 20
86.5
 11
551.1
 21
107.5
  0
LINE
  5
113
100
AcDbEntity
  8
2
  6
CONTINUOUS
 62
     0
100
AcDbLine
 10
563.1
 20
81.0
 11
556.6
 21
81.0
  0
ARC
  5
114
100
AcDbEntity
  8
2
  6
CONTINUOUS
 62
     0
100
AcDbCircle
 10
556.6
 20
107.5
 40
5.50000000000011
100
AcDbArc
 50
90.0
 51
180.0
  0
LINE
  5
115
100
AcDbEntity
  8
2
  6
CONTINUOUS
 62
     0
100
AcDbLine
 10
563.1
 20
113.0
 11
556.6
 21
113.0
  0
LINE
  5
116
100
AcDbEntity
  8
2
  6
CONTINUOUS
 62
     0
100
AcDbLine
 10
574.1
 20
112.0
 11
563.1
 21
112.0
  0
ARC
  5
117
100
AcDbEntity
  8
2
  6
CONTINUOUS
 62
     0
100
AcDbCircle
 10
574.1
 20
111.0
 40
1.0
100
AcDbArc
 50
0.0
 51
90.0
  0
LINE
  5
118
100
AcDbEntity
  8
2
  6
CONTINUOUS
 62
     0
100
AcDbLine
 10
575.1
 20
83.0
 11
575.1
 21
111.0
  0
ARC
  5
119
100
AcDbEntity
  8
2
  6
CONTINUOUS
 62
     0
100
AcDbCircle
 10
574.1
 20
83.0
 40
1.0
100
AcDbArc
 50
270.0
 51
0.0
  0
LINE
  5
11A
100
AcDbEntity
  8
2
  6
CONTINUOUS
 62
     0
100
AcDbLine
 10
563.1
 20
82.0
 11
574.1
 21
82.0
  0
LINE
  5
11B
100
AcDbEntity
  8
2
  6
CONTINUOUS
 62
     0
100
AcDbLine
 10
524.2
 20
90.8
 11
551.1
 21
90.8
  0
LINE
  5
11C
100
AcDbEntity
  8
2
  6
CONTINUOUS
 62
     0
100
AcDbLine
 10
148.299999999999
 20
45.499999999999
 11
143.499999999999
 21
45.499999999999
  0
LINE
  5
11D
100
AcDbEntity
  8
2
  6
CONTINUOUS
 62
     0
100
AcDbLine
 10
148.299999999999
 20
45.499999999999
 11
148.299999999999
 21
67.499999999999
  0
LINE
  5
11E
100
AcDbEntity
  8
8
  6
CONTINUOUS
 62
     7
100
AcDbLine
 10
148.299999999999
 20
46.041499999999
 11
147.362094487699
 21
45.499999999999
  0
LINE
  5
120
100
AcDbEntity
  8
2
  6
CONTINUOUS
 62
     0
100
AcDbLine
 10
148.299999999999
 20
67.499999999999
 11
143.499999999999
 21
67.499999999999
  0
LINE
  5
121
100
AcDbEntity
  8
8
  6
CONTINUOUS
 62
     7
100
AcDbLine
 10
148.299999999999
 20
66.958499999999
 11
147.362094487699
 21
67.499999999999
  0
LINE
  5
122
100
AcDbEntity
  8
2
  6
CONTINUOUS
 62
     0
100
AcDbLine
 10
159.299999999999
 20
53.999999999999
 11
149.299999999999
 21
53.999999999999
  0
LINE
  5
123
100
AcDbEntity
  8
2
  6
CONTINUOUS
 62
     0
100
AcDbLine
 10
149.299999999999
 20
54.999999999999
 11
159.299999999999
 21
54.999999999999
  0
LINE
  5
124
100
AcDbEntity
  8
2
  6
CONTINUOUS
 62
     0
100
AcDbLine
 10
159.299999999999
 20
55.999999999999
 11
149.299999999999
 21
55.999999999999
  0
LINE
  5
125
100
AcDbEntity
  8
2
  6
CONTINUOUS
 62
     0
100
AcDbLine
 10
149.299999999999
 20
56.999999999999
 11
159.299999999999
 21
56.999999999999
  0
LINE
  5
126
100
AcDbEntity
  8
2
  6
CONTINUOUS
 62
     0
100
AcDbLine
 10
159.299999999999
 20
57.999999999999
 11
149.299999999999
 21
57.999999999999
  0
LINE
  5
127
100
AcDbEntity
  8
2
  6
CONTINUOUS
 62
     0
100
AcDbLine
 10
149.299999999999
 20
58.999999999999
 11
159.299999999999
 21
58.999999999999
  0
LINE
  5
128
100
AcDbEntity
  8
2
  6
CONTINUOUS
 62
     0
100
AcDbLine
 10
159.299999999999
 20
59.999999999999
 11
149.299999999999
 21
59.999999999999
  0
LINE
  5
129
100
AcDbEntity
  8
2
  6
CONTINUOUS
 62
     0
100
AcDbLine
 10
149.299999999999
 20
60.999999999999
 11
159.299999999999
 21
60.999999999999
  0
LINE
  5
12A
100
AcDbEntity
  8
2
  6
CONTINUOUS
 62
     0
100
AcDbLine
 10
159.299999999999
 20
61.999999999999
 11
149.299999999999
 21
61.999999999999
  0
LINE
  5
12B
100
AcDbEntity
  8
2
  6
CONTINUOUS
 62
     0
100
AcDbLine
 10
149.299999999999
 20
62.999999999999
 11
159.299999999999
 21
62.999999999999
  0
LINE
  5
12C
100
AcDbEntity
  8
2
  6
CONTINUOUS
 62
     0
100
AcDbLine
 10
159.299999999999
 20
63.999999999999
 11
149.299999999999
 21
63.999999999999
  0
LINE
  5
12D
100
AcDbEntity
  8
2
  6
CONTINUOUS
 62
     0
100
AcDbLine
 10
149.299999999999
 20
64.999999999999
 11
159.299999999999
 21
64.999999999999
  0
LINE
  5
12E
100
AcDbEntity
  8
2
  6
CONTINUOUS
 62
     0
100
AcDbLine
 10
159.299999999999
 20
65.999999999999
 11
149.299999999999
 21
65.999999999999
  0
LINE
  5
12F
100
AcDbEntity
  8
2
  6
CONTINUOUS
 62
     0
100
AcDbLine
 10
149.299999999999
 20
66.999999999999
 11
159.299999999999
 21
66.999999999999
  0
LINE
  5
130
100
AcDbEntity
  8
2
  6
CONTINUOUS
 62
     0
100
AcDbLine
 10
159.299999999999
 20
67.999999999999
 11
149.299999999999
 21
67.999999999999
  0
LINE
  5
131
100
AcDbEntity
  8
2
  6
CONTINUOUS
 62
     0
100
AcDbLine
 10
149.299999999999
 20
68.999999999999
 11
159.299999999999
 21
68.999999999999
  0
LINE
  5
132
100
AcDbEntity
  8
2
  6
CONTINUOUS
 62
     0
100
AcDbLine
 10
189.799999999999
 20
64.199999999999
 11
187.799999999999
 21
66.199999999999
  0
LINE
  5
133
100
AcDbEntity
  8
2
  6
CONTINUOUS
 62
     0
100
AcDbLine
 10
187.799999999999
 20
64.199999999999
 11
189.799999999999
 21
66.199999999999
  0
CIRCLE
  5
134
100
AcDbEntity
  8
2
  6
CONTINUOUS
 62
     0
100
AcDbCircle
 10
188.799999999999
 20
65.199999999999
 40
2.75
  0
LINE
  5
135
100
AcDbEntity
  8
2
  6
CONTINUOUS
 62
     0
100
AcDbLine
 10
189.799999999999
 20
48.799999999999
 11
187.799999999999
 21
46.799999999999
  0
LINE
  5
136
100
AcDbEntity
  8
2
  6
CONTINUOUS
 62
     0
100
AcDbLine
 10
187.799999999999
 20
48.799999999999
 11
189.799999999999
 21
46.799999999999
  0
CIRCLE
  5
137
100
AcDbEntity
  8
2
  6
CONTINUOUS
 62
     0
100
AcDbCircle
 10
188.799999999999
 20
47.799999999999
 40
2.75
  0
LINE
  5
138
100
AcDbEntity
  8
2
  6
CONTINUOUS
 62
     0
100
AcDbLine
 10
184.299999999999
 20
46.499999999999
 11
184.299999999999
 21
66.499999999999
  0
LINE
  5
139
100
AcDbEntity
  8
2
  6
CONTINUOUS
 62
     0
100
AcDbLine
 10
149.299999999999
 20
43.499999999999
 11
149.299999999999
 21
69.499999999999
  0
LINE
  5
13A
100
AcDbEntity
  8
2
  6
CONTINUOUS
 62
     0
100
AcDbLine
 10
159.299999999999
 20
69.499999999999
 11
159.299999999999
 21
43.499999999999
  0
LINE
  5
13B
100
AcDbEntity
  8
2
  6
CONTINUOUS
 62
     0
100
AcDbLine
 10
149.299999999999
 20
43.999999999999
 11
159.299999999999
 21
43.999999999999
  0
LINE
  5
13C
100
AcDbEntity
  8
2
  6
CONTINUOUS
 62
     0
100
AcDbLine
 10
159.299999999999
 20
44.999999999999
 11
149.299999999999
 21
44.999999999999
  0
LINE
  5
13D
100
AcDbEntity
  8
2
  6
CONTINUOUS
 62
     0
100
AcDbLine
 10
149.299999999999
 20
45.999999999999
 11
159.299999999999
 21
45.999999999999
  0
LINE
  5
13E
100
AcDbEntity
  8
2
  6
CONTINUOUS
 62
     0
100
AcDbLine
 10
159.299999999999
 20
46.999999999999
 11
149.299999999999
 21
46.999999999999
  0
LINE
  5
13F
100
AcDbEntity
  8
2
  6
CONTINUOUS
 62
     0
100
AcDbLine
 10
149.299999999999
 20
47.999999999999
 11
159.299999999999
 21
47.999999999999
  0
LINE
  5
140
100
AcDbEntity
  8
2
  6
CONTINUOUS
 62
     0
100
AcDbLine
 10
159.299999999999
 20
52.999999999999
 11
149.299999999999
 21
52.999999999999
  0
LINE
  5
141
100
AcDbEntity
  8
2
  6
CONTINUOUS
 62
     0
100
AcDbLine
 10
159.299999999999
 20
51.999999999999
 11
149.299999999999
 21
51.999999999999
  0
LINE
  5
142
100
AcDbEntity
  8
2
  6
CONTINUOUS
 62
     0
100
AcDbLine
 10
159.299999999999
 20
50.999999999999
 11
149.299999999999
 21
50.999999999999
  0
LINE
  5
143
100
AcDbEntity
  8
2
  6
CONTINUOUS
 62
     0
100
AcDbLine
 10
159.299999999999
 20
49.999999999999
 11
149.299999999999
 21
49.999999999999
  0
LINE
  5
144
100
AcDbEntity
  8
2
  6
CONTINUOUS
 62
     0
100
AcDbLine
 10
159.299999999999
 20
48.999999999999
 11
149.299999999999
 21
48.999999999999
  0
LINE
  5
145
100
AcDbEntity
  8
2
  6
CONTINUOUS
 62
     0
100
AcDbLine
 10
192.299999999999
 20
65.999999999999
 11
192.299999999999
 21
46.999999999999
  0
ARC
  5
146
100
AcDbEntity
  8
2
  6
CONTINUOUS
 62
     0
100
AcDbCircle
 10
190.299999999999
 20
65.999999999999
 40
1.99999999999994
100
AcDbArc
 50
0.0
 51
90.0
  0
ARC
  5
147
100
AcDbEntity
  8
2
  6
CONTINUOUS
 62
     0
100
AcDbCircle
 10
187.299999999999
 20
65.999999999999
 40
1.99999999999994
100
AcDbArc
 50
90.0
 51
180.0
  0
LINE
  5
148
100
AcDbEntity
  8
2
  6
CONTINUOUS
 62
     0
100
AcDbLine
 10
187.299999999999
 20
67.999999999999
 11
190.299999999999
 21
67.999999999999
  0
ARC
  5
149
100
AcDbEntity
  8
2
  6
CONTINUOUS
 62
     0
100
AcDbCircle
 10
184.216
 20
68.546999999999
 40
1.99999999999993
100
AcDbArc
 50
259.795999999989
 51
320.445000000019
  0
LINE
  5
14A
100
AcDbEntity
  8
2
  6
CONTINUOUS
 62
     0
100
AcDbLine
 10
172.299999999999
 20
68.299999999999
 11
184.299999999999
 21
66.499999999999
  0
LINE
  5
14B
100
AcDbEntity
  8
2
  6
CONTINUOUS
 62
     0
100
AcDbLine
 10
159.299999999999
 20
68.999999999999
 11
162.299999999999
 21
68.999999999999
  0
LINE
  5
14C
100
AcDbEntity
  8
2
  6
CONTINUOUS
 62
     0
100
AcDbLine
 10
162.299999999999
 20
68.999999999999
 11
162.299999999999
 21
43.999999999999
  0
LINE
  5
14D
100
AcDbEntity
  8
2
  6
CONTINUOUS
 62
     0
100
AcDbLine
 10
162.299999999999
 20
68.299999999999
 11
172.299999999999
 21
68.299999999999
  0
LINE
  5
14E
100
AcDbEntity
  8
2
  6
CONTINUOUS
 62
     0
100
AcDbLine
 10
149.299999999999
 20
69.499999999999
 11
159.299999999999
 21
69.499999999999
  0
LINE
  5
14F
100
AcDbEntity
  8
2
  6
CONTINUOUS
 62
     0
100
AcDbLine
 10
148.299999999999
 20
68.999999999999
 11
149.299999999999
 21
68.999999999999
  0
LINE
  5
150
100
AcDbEntity
  8
2
  6
CONTINUOUS
 62
     0
100
AcDbLine
 10
162.299999999999
 20
44.699999999999
 11
172.299999999999
 21
44.699999999999
  0
LINE
  5
151
100
AcDbEntity
  8
2
  6
CONTINUOUS
 62
     0
100
AcDbLine
 10
172.299999999999
 20
44.699999999999
 11
184.299999999999
 21
46.499999999999
  0
ARC
  5
152
100
AcDbEntity
  8
2
  6
CONTINUOUS
 62
     0
100
AcDbCircle
 10
184.216
 20
44.452999999999
 40
1.99999999999995
100
AcDbArc
 50
39.5549999999793
 51
100.20400000001
  0
ARC
  5
153
100
AcDbEntity
  8
2
  6
CONTINUOUS
 62
     0
100
AcDbCircle
 10
190.299999999999
 20
46.999999999999
 40
1.99999999999994
100
AcDbArc
 50
270.0
 51
0.0
  0
LINE
  5
154
100
AcDbEntity
  8
2
  6
CONTINUOUS
 62
     0
100
AcDbLine
 10
190.299999999999
 20
44.999999999999
 11
187.299999999999
 21
44.999999999999
  0
ARC
  5
155
100
AcDbEntity
  8
2
  6
CONTINUOUS
 62
     0
100
AcDbCircle
 10
187.299999999999
 20
46.999999999999
 40
1.99999999999994
100
AcDbArc
 50
180.0
 51
270.0
  0
LINE
  5
156
100
AcDbEntity
  8
2
  6
CONTINUOUS
 62
     0
100
AcDbLine
 10
185.299999999999
 20
46.999999999999
 11
185.299999999999
 21
65.999999999999
  0
LINE
  5
157
100
AcDbEntity
  8
2
  6
CONTINUOUS
 62
     0
100
AcDbLine
 10
162.299999999999
 20
43.999999999999
 11
159.299999999999
 21
43.999999999999
  0
LINE
  5
158
100
AcDbEntity
  8
2
  6
CONTINUOUS
 62
     0
100
AcDbLine
 10
159.299999999999
 20
43.499999999999
 11
149.299999999999
 21
43.499999999999
  0
LINE
  5
159
100
AcDbEntity
  8
2
  6
CONTINUOUS
 62
     0
100
AcDbLine
 10
149.299999999999
 20
43.999999999999
 11
148.299999999999
 21
43.999999999999
  0
LINE
  5
15A
100
AcDbEntity
  8
2
  6
CONTINUOUS
 62
     0
100
AcDbLine
 10
148.299999999999
 20
43.999999999999
 11
148.299999999999
 21
68.999999999999
  0
LINE
  5
15B
100
AcDbEntity
  8
2
  6
CONTINUOUS
 62
     0
100
AcDbLine
 10
143.499999999999
 20
41.999999999999
 11
143.499999999999
 21
70.999999999999
  0
LINE
  5
15C
100
AcDbEntity
  8
2
  6
CONTINUOUS
 62
     0
100
AcDbLine
 10
143.499999999999
 20
41.999999999999
 11
141.499999999999
 21
41.999999999999
  0
LINE
  5
15D
100
AcDbEntity
  8
2
  6
CONTINUOUS
 62
     0
100
AcDbLine
 10
97.9999999999995
 20
73.999999999999
 11
141.499999999999
 21
73.999999999999
  0
LINE
  5
15E
100
AcDbEntity
  8
2
  6
CONTINUOUS
 62
     0
100
AcDbLine
 10
141.499999999999
 20
70.999999999999
 11
143.499999999999
 21
70.999999999999
  0
LINE
  5
15F
100
AcDbEntity
  8
2
  6
CONTINUOUS
 62
     0
100
AcDbLine
 10
141.499999999999
 20
38.999999999999
 11
141.499999999999
 21
73.999999999999
  0
LINE
  5
160
100
AcDbEntity
  8
2
  6
CONTINUOUS
 62
     0
100
AcDbLine
 10
137.999999999999
 20
38.999999999999
 11
141.499999999999
 21
38.999999999999
  0
LINE
  5
161
100
AcDbEntity
  8
7
  6
CENTER2
 62
    40
100
AcDbLine
 10
129.999999999999
 20
29.18532285534
 11
129.999999999999
 21
43.319798654803
  0
LINE
  5
162
100
AcDbEntity
  8
7
  6
CENTER2
 62
    40
100
AcDbLine
 10
109.999999999999
 20
29.18532285534
 11
109.999999999999
 21
43.319798654803
  0
LINE
  5
163
100
AcDbEntity
  8
2
  6
CONTINUOUS
 62
     0
100
AcDbLine
 10
87.9999999999995
 20
63.999999999999
 11
97.9999999999995
 21
73.999999999999
  0
LINE
  5
164
100
AcDbEntity
  8
2
  6
CONTINUOUS
 62
     0
100
AcDbLine
 10
87.9999999999995
 20
34.0
 11
87.9999999999995
 21
63.999999999999
  0
LINE
  5
165
100
AcDbEntity
  8
2
  6
CONTINUOUS
 62
     0
100
AcDbLine
 10
25.4999999999799
 20
39.999999999999
 11
137.999999999999
 21
39.999999999999
  0
LINE
  5
166
100
AcDbEntity
  8
7
  6
CENTER2
 62
    40
100
AcDbLine
 10
85.7458422196215
 20
-40.0
 11
153.297086777645
 21
-40.0
  0
LINE
  5
167
100
AcDbEntity
  8
2
  6
CONTINUOUS
 62
     0
100
AcDbLine
 10
133.999999999999
 20
-47.0
 11
139.999999999999
 21
-47.0
  0
LINE
  5
168
100
AcDbEntity
  8
2
  6
CONTINUOUS
 62
     0
100
AcDbLine
 10
140.499999999999
 20
-45.5
 11
140.499999999999
 21
-31.5
  0
LINE
  5
169
100
AcDbEntity
  8
2
  6
CONTINUOUS
 62
     0
100
AcDbLine
 10
140.499999999999
 20
34.0
 11
140.499999999999
 21
-46.5
  0
LINE
  5
16A
100
AcDbEntity
  8
2
  6
CONTINUOUS
 62
     0
100
AcDbLine
 10
269.499999999999
 20
52.2
 11
210.299999999999
 21
52.2
  0
LINE
  5
16B
100
AcDbEntity
  8
7
  6
CENTER2
 62
    40
100
AcDbLine
 10
87.2153033965054
 20
56.499999999999
 11
269.499999999999
 21
56.499999999999
  0
LINE
  5
16C
100
AcDbEntity
  8
2
  6
CONTINUOUS
 62
     0
100
AcDbLine
 10
210.299999999999
 20
60.8
 11
268.858043749077
 21
60.8
  0
LINE
  5
16D
100
AcDbEntity
  8
2
  6
CONTINUOUS
 62
     0
100
AcDbLine
 10
133.499999999999
 20
34.0
 11
133.499999999999
 21
-46.4999995231624
  0
LINE
  5
16E
100
AcDbEntity
  8
2
  6
CONTINUOUS
 62
     0
100
AcDbLine
 10
106.999999999999
 20
-46.5000000000001
 11
106.999999999999
 21
-44.2500000000001
  0
LINE
  5
16F
100
AcDbEntity
  8
2
  6
CONTINUOUS
 62
     0
100
AcDbLine
 10
106.999999999999
 20
-35.7500000000001
 11
106.999999999999
 21
-33.0000000000001
  0
LINE
  5
170
100
AcDbEntity
  8
2
  6
CONTINUOUS
 62
     0
100
AcDbLine
 10
107.5
 20
-47.0000000000001
 11
132.999999999999
 21
-47.0000000000001
  0
LINE
  5
171
100
AcDbEntity
  8
2
  6
CONTINUOUS
 62
     0
100
AcDbLine
 10
-27.0000000000001
 20
12.5
 11
-9.0
 21
12.5
  0
LINE
  5
172
100
AcDbEntity
  8
2
  6
CONTINUOUS
 62
     0
100
AcDbLine
 10
107.0
 20
-46.4999995231624
 11
107.0
 21
34.0
  0
LINE
  5
173
100
AcDbEntity
  8
2
  6
CONTINUOUS
 62
     0
100
AcDbLine
 10
88.4999999999999
 20
-46.9999995231624
 11
106.5
 21
-46.9999995231624
  0
LINE
  5
174
100
AcDbEntity
  8
2
  6
CONTINUOUS
 62
     0
100
AcDbLine
 10
87.9999999999999
 20
31.55
 11
87.9999999999999
 21
-46.4999995231624
  0
LINE
  5
175
100
AcDbEntity
  8
2
  6
CONTINUOUS
 62
     0
100
AcDbLine
 10
33.0
 20
-46.4999995231624
 11
33.0
 21
31.5499999999998
  0
LINE
  5
176
100
AcDbEntity
  8
2
  6
CONTINUOUS
 62
     0
100
AcDbLine
 10
-27.0000000000001
 20
-12.5
 11
-9.0
 21
-12.5
  0
LINE
  5
177
100
AcDbEntity
  8
2
  6
CONTINUOUS
 62
     0
100
AcDbLine
 10
0.0
 20
35.0000004768372
 11
0.0
 21
-46.499999523163
  0
LINE
  5
178
100
AcDbEntity
  8
2
  6
CONTINUOUS
 62
     0
100
AcDbLine
 10
-8.5
 20
29.0000004768372
 11
0.0
 21
29.0000004768372
  0
LINE
  5
179
100
AcDbEntity
  8
2
  6
CONTINUOUS
 62
     0
100
AcDbLine
 10
0.0
 20
35.0000004768372
 11
8.00000000000001
 21
35.0000004768372
  0
LINE
  5
17A
100
AcDbEntity
  8
2
  6
CONTINUOUS
 62
     0
100
AcDbLine
 10
8.00000000000001
 20
35.0000004768372
 11
22.0
 21
35.0000004768372
  0
LINE
  5
17B
100
AcDbEntity
  8
2
  6
CONTINUOUS
 62
     0
100
AcDbLine
 10
-9.0
 20
-28.4999995231628
 11
-9.0
 21
28.5000004768372
  0
LINE
  5
17C
100
AcDbEntity
  8
7
  6
CENTER2
 62
    40
100
AcDbLine
 10
-47.0000000000001
 20
-9.5
 11
-47.0000000000001
 21
9.5
  0
LINE
  5
17D
100
AcDbEntity
  8
2
  6
CONTINUOUS
 62
     0
100
AcDbLine
 10
-27.0000000000001
 20
-12.5
 11
-27.0000000000001
 21
12.5
  0
ARC
  5
17E
100
AcDbEntity
  8
2
  6
CONTINUOUS
 62
     0
100
AcDbCircle
 10
-28.5000000000001
 20
11.0
 40
1.5
100
AcDbArc
 50
270.0
 51
0.0
  0
ARC
  5
17F
100
AcDbEntity
  8
2
  6
CONTINUOUS
 62
     0
100
AcDbCircle
 10
-49.083333333333
 20
0.0
 40
22.0833333333333
100
AcDbArc
 50
338.760689447689
 51
21.2393105523107
  0
LINE
  5
180
100
AcDbEntity
  8
2
  6
CONTINUOUS
 62
     0
100
AcDbLine
 10
-57.0000000000001
 20
9.5
 11
-28.5000000000001
 21
9.5
  0
LINE
  5
181
100
AcDbEntity
  8
2
  6
CONTINUOUS
 62
     0
100
AcDbLine
 10
-56.0000000000001
 20
8.0
 11
-28.5000000000001
 21
8.0
  0
LINE
  5
182
100
AcDbEntity
  8
2
  6
CONTINUOUS
 62
     0
100
AcDbLine
 10
-57.0000000000001
 20
-9.5
 11
-57.0000000000001
 21
9.5
  0
ARC
  5
183
100
AcDbEntity
  8
2
  6
CONTINUOUS
 62
     0
100
AcDbCircle
 10
-55.0550000000001
 20
6.30000000000007
 40
1.945
100
AcDbArc
 50
119.068910161083
 51
180.0
  0
LINE
  5
184
100
AcDbEntity
  8
2
  6
CONTINUOUS
 62
     0
100
AcDbLine
 10
-56.0000000000001
 20
-9.5
 11
-56.0000000000001
 21
-8.0
  0
LINE
  5
185
100
AcDbEntity
  8
2
  6
CONTINUOUS
 62
     0
100
AcDbLine
 10
-56.0000000000001
 20
8.0
 11
-56.0000000000001
 21
9.5
  0
LINE
  5
186
100
AcDbEntity
  8
2
  6
CONTINUOUS
 62
     0
100
AcDbLine
 10
-57.0000000000001
 20
-9.5
 11
-28.5000000000001
 21
-9.5
  0
LINE
  5
187
100
AcDbEntity
  8
2
  6
CONTINUOUS
 62
     0
100
AcDbLine
 10
-56.0000000000001
 20
-8.0
 11
-28.5000000000001
 21
-8.0
  0
ARC
  5
188
100
AcDbEntity
  8
2
  6
CONTINUOUS
 62
     0
100
AcDbCircle
 10
-55.0550000000001
 20
-6.30000000000007
 40
1.945
100
AcDbArc
 50
180.0
 51
240.931089838918
  0
ARC
  5
189
100
AcDbEntity
  8
2
  6
CONTINUOUS
 62
     0
100
AcDbCircle
 10
-28.5000000000001
 20
-11.0
 40
1.5
100
AcDbArc
 50
0.0
 51
90.0
  0
CIRCLE
  5
18A
100
AcDbEntity
  8
2
  6
CONTINUOUS
 62
     0
100
AcDbCircle
 10
-47.0000000000001
 20
0.0
 40
2.6
  0
LINE
  5
18B
100
AcDbEntity
  8
7
  6
CENTER2
 62
    40
100
AcDbLine
 10
-11.1055714646108
 20
-37.9999999999998
 11
36.0581772117365
 21
-37.9999999999998
  0
LINE
  5
18C
100
AcDbEntity
  8
2
  6
CONTINUOUS
 62
     0
100
AcDbLine
 10
0.5
 20
-46.999999523163
 11
7.50000000000001
 21
-46.999999523163
  0
LINE
  5
18D
100
AcDbEntity
  8
2
  6
CONTINUOUS
 62
     0
100
AcDbLine
 10
-8.5
 20
-28.9999995231628
 11
0.0
 21
-28.9999995231628
  0
LINE
  5
18E
100
AcDbEntity
  8
2
  6
CONTINUOUS
 62
     0
100
AcDbLine
 10
8.00000000000001
 20
-46.499999523163
 11
8.00000000000001
 21
35.0000004768372
  0
LINE
  5
18F
100
AcDbEntity
  8
2
  6
CONTINUOUS
 62
     0
100
AcDbLine
 10
8.50000000000001
 20
-46.9999995231624
 11
32.5
 21
-46.9999995231624
  0
LINE
  5
190
100
AcDbEntity
  8
7
  6
CENTER2
 62
    40
100
AcDbLine
 10
28.0
 20
24.617993809574
 11
28.0
 21
42.397641491852
  0
LINE
  5
191
100
AcDbEntity
  8
2
  6
CONTINUOUS
 62
     0
100
AcDbLine
 10
25.4999999999799
 20
39.999999999999
 11
22.4999999999799
 21
36.999999999999
  0
LINE
  5
192
100
AcDbEntity
  8
2
  6
CONTINUOUS
 62
     0
100
AcDbLine
 10
22.4999999999799
 20
33.999999999999
 11
22.4999999999799
 21
36.999999999999
  0
INSERT
  5
194
100
AcDbEntity
  8
9
  6
PHANTOM
 62
    10
100
AcDbBlockReference
  2
SUB4
 10
140.499999999999
 20
-40.0
 41
1.0
 42
1.0
 50
0.0
  0
LINE
  5
1A2
100
AcDbEntity
  8
2
  6
CONTINUOUS
 62
     0
100
AcDbLine
 10
87.4999999999999
 20
-36.5
 11
87.4999999999999
 21
-43.5
  0
LINE
  5
1A3
100
AcDbEntity
  8
2
  6
CONTINUOUS
 62
     0
100
AcDbLine
 10
87.9999999999999
 20
-36.0
 11
87.4999999999999
 21
-36.5
  0
LINE
  5
1A4
100
AcDbEntity
  8
2
  6
CONTINUOUS
 62
     0
100
AcDbLine
 10
87.4999999999999
 20
-43.5
 11
87.9999999999999
 21
-44.0
  0
LINE
  5
1A5
100
AcDbEntity
  8
2
  6
CONTINUOUS
 62
     0
100
AcDbLine
 10
450.700000000001
 20
64.7
 11
414.641956250946
 21
64.7
  0
LINE
  5
1A6
100
AcDbEntity
  8
7
  6
CENTER2
 62
    40
100
AcDbLine
 10
414.0
 20
68.999999999999
 11
450.700000000001
 21
68.999999999999
  0
LINE
  5
1A7
100
AcDbEntity
  8
2
  6
CONTINUOUS
 62
     0
100
AcDbLine
 10
414.0
 20
73.3
 11
450.700000000001
 21
73.3
  0
LINE
  5
1A8
100
AcDbEntity
  8
7
  6
CENTER2
 62
    40
100
AcDbLine
 10
414.0
 20
68.999999999999
 11
269.499999999999
 21
56.499999999999
  0
LINE
  5
1A9
100
AcDbEntity
  8
2
  6
CONTINUOUS
 62
     0
100
AcDbLine
 10
413.614704892124
 20
73.2827033144777
 11
269.754078883674
 21
60.8402248500498
  0
LINE
  5
1AA
100
AcDbEntity
  8
2
  6
CONTINUOUS
 62
     0
100
AcDbLine
 10
413.745921116348
 20
64.6597751499503
 11
269.885295107876
 21
52.2172966855204
  0
ARC
  5
1AB
100
AcDbEntity
  8
2
  6
CONTINUOUS
 62
     0
100
AcDbCircle
 10
268.858043749077
 20
70.8
 40
10.0
100
AcDbArc
 50
270.0
 51
275.140797928535
  0
ARC
  5
1AC
100
AcDbEntity
  8
2
  6
CONTINUOUS
 62
     0
100
AcDbCircle
 10
268.858043749077
 20
70.8
 40
18.6
100
AcDbArc
 50
270.0
 51
275.140797928535
  0
ARC
  5
1AD
100
AcDbEntity
  8
2
  6
CONTINUOUS
 62
     0
100
AcDbCircle
 10
414.641956250946
 20
54.7
 40
10.0
100
AcDbArc
 50
90.0
 51
95.1407979285339
  0
ARC
  5
1AE
100
AcDbEntity
  8
2
  6
CONTINUOUS
 62
     0
100
AcDbCircle
 10
414.641956250946
 20
54.7
 40
18.6
100
AcDbArc
 50
90.0
 51
95.1407979285339
  0
LINE
  5
1AF
100
AcDbEntity
  8
7
  6
CENTER2
 62
    40
100
AcDbLine
 10
283.722983842743
 20
38.0000000000001
 11
254.331862889707
 21
38.0000000000001
  0
LINE
  5
1B0
100
AcDbEntity
  8
7
  6
CENTER2
 62
    40
100
AcDbLine
 10
283.722983842743
 20
-37.9999999999999
 11
254.331862889707
 21
-37.9999999999999
  0
LINE
  5
1B1
100
AcDbEntity
  8
7
  6
CENTER2
 62
    40
100
AcDbLine
 10
428.281866781631
 20
-37.9999999999999
 11
457.672987734666
 21
-37.9999999999999
  0
LINE
  5
1B2
100
AcDbEntity
  8
7
  6
CENTER2
 62
    40
100
AcDbLine
 10
428.281866781631
 20
38.0000000000001
 11
457.672987734666
 21
38.0000000000001
  0
LINE
  5
1B3
100
AcDbEntity
  8
2
  6
CONTINUOUS
 62
     0
100
AcDbLine
 10
609.1
 20
80.5
 11
609.1
 21
113.5
  0
LINE
  5
1B4
100
AcDbEntity
  8
2
  6
CONTINUOUS
 62
     0
100
AcDbLine
 10
612.6
 20
113.0
 11
609.1
 21
113.0
  0
ARC
  5
1B5
100
AcDbEntity
  8
2
  6
CONTINUOUS
 62
     0
100
AcDbCircle
 10
612.6
 20
112.5
 40
0.499999999999943
100
AcDbArc
 50
0.0
 51
90.0
  0
LINE
  5
1B6
100
AcDbEntity
  8
2
  6
CONTINUOUS
 62
     0
100
AcDbLine
 10
616.1
 20
109.0
 11
613.1
 21
109.0
  0
ARC
  5
1B7
100
AcDbEntity
  8
2
  6
CONTINUOUS
 62
     0
100
AcDbCircle
 10
608.6
 20
80.5
 40
0.499999999999943
100
AcDbArc
 50
270.0
 51
0.0
  0
ARC
  5
1B8
100
AcDbEntity
  8
2
  6
CONTINUOUS
 62
     0
100
AcDbCircle
 10
612.6
 20
81.5
 40
0.499999999999943
100
AcDbArc
 50
270.0
 51
0.0
  0
LINE
  5
1B9
100
AcDbEntity
  8
2
  6
CONTINUOUS
 62
     0
100
AcDbLine
 10
609.1
 20
81.0
 11
612.6
 21
81.0
  0
LINE
  5
1BA
100
AcDbEntity
  8
2
  6
CONTINUOUS
 62
     0
100
AcDbLine
 10
613.1
 20
85.0
 11
616.1
 21
85.0
  0
LINE
  5
1BB
100
AcDbEntity
  8
2
  6
CONTINUOUS
 62
     0
100
AcDbLine
 10
616.1
 20
85.0
 11
616.1
 21
109.0
  0
LINE
  5
1BC
100
AcDbEntity
  8
2
  6
CONTINUOUS
 62
     0
100
AcDbLine
 10
613.1
 20
81.5
 11
613.1
 21
112.5
  0
ARC
  5
1BD
100
AcDbEntity
  8
2
  6
CONTINUOUS
 62
     0
100
AcDbCircle
 10
608.6
 20
113.5
 40
0.499999999999943
100
AcDbArc
 50
0.0
 51
90.0
  0
LINE
  5
1BE
100
AcDbEntity
  8
2
  6
CONTINUOUS
 62
     0
100
AcDbLine
 10
225.499999999999
 20
-44.000000000001
 11
225.499999999999
 21
43.999999999999
  0
LINE
  5
1BF
100
AcDbEntity
  8
7
  6
CENTER2
 62
    40
100
AcDbLine
 10
216.448004150401
 20
-38.0
 11
244.475796059282
 21
-38.0
  0
LINE
  5
1C0
100
AcDbEntity
  8
2
  6
CONTINUOUS
 62
     0
100
AcDbLine
 10
225.499999999999
 20
-44.000000000001
 11
232.499999999999
 21
-44.000000000001
  0
INSERT
  5
1C2
100
AcDbEntity
  8
2
  6
CONTINUOUS
 62
     0
100
AcDbBlockReference
  2
SUB5
 10
225.499999999999
 20
-38.0
 41
1.0
 42
1.0
 50
0.0
  0
LINE
  5
1CF
100
AcDbEntity
  8
2
  6
CONTINUOUS
 62
     0
100
AcDbLine
 10
225.499999999999
 20
-42.850000000001
 11
269.499999999999
 21
-42.850000000001
  0
LINE
  5
1D0
100
AcDbEntity
  8
7
  6
CENTER2
 62
    40
100
AcDbLine
 10
216.448004150401
 20
38.0
 11
244.475796059282
 21
38.0
  0
LINE
  5
1D1
100
AcDbEntity
  8
2
  6
CONTINUOUS
 62
     0
100
AcDbLine
 10
225.499999999999
 20
43.999999999999
 11
232.499999999999
 21
43.999999999999
  0
INSERT
  5
1D3
100
AcDbEntity
  8
2
  6
CONTINUOUS
 62
     0
100
AcDbBlockReference
  2
SUB6
 10
225.499999999999
 20
38.0
 41
1.0
 42
1.0
 50
0.0
  0
LINE
  5
1E0
100
AcDbEntity
  8
2
  6
CONTINUOUS
 62
     0
100
AcDbLine
 10
225.499999999999
 20
42.849999999999
 11
269.499999999999
 21
42.849999999999
  0
LINE
  5
1E1
100
AcDbEntity
  8
2
  6
CONTINUOUS
 62
     0
100
AcDbLine
 10
137.999999999999
 20
34.0
 11
137.999999999999
 21
73.999999999999
  0
LINE
  5
1E2
100
AcDbEntity
  8
7
  6
CENTER2
 62
    40
100
AcDbLine
 10
112.999999999999
 20
35.499999999999
 11
112.999999999999
 21
77.644507489582
  0
LINE
  5
1E3
100
AcDbEntity
  8
7
  6
CENTER2
 62
    40
100
AcDbLine
 10
100.999999999999
 20
35.499999999999
 11
100.999999999999
 21
77.644507489582
  0
LINE
  5
1E4
100
AcDbEntity
  8
2
  6
CONTINUOUS
 62
     0
100
AcDbLine
 10
109.999999999999
 20
69.199999999999
 11
115.999999999999
 21
69.199999999999
  0
LINE
  5
1E5
100
AcDbEntity
  8
2
  6
CONTINUOUS
 62
     0
100
AcDbLine
 10
109.999999999999
 20
69.199999999999
 11
109.999999999999
 21
73.999999999999
  0
LINE
  5
1E6
100
AcDbEntity
  8
2
  6
CONTINUOUS
 62
     0
100
AcDbLine
 10
115.999999999999
 20
69.199999999999
 11
115.999999999999
 21
73.999999999999
  0
LINE
  5
1E7
100
AcDbEntity
  8
2
  6
CONTINUOUS
 62
     0
100
AcDbLine
 10
97.9999999999995
 20
69.199999999999
 11
103.999999999999
 21
69.199999999999
  0
LINE
  5
1E8
100
AcDbEntity
  8
2
  6
CONTINUOUS
 62
     0
100
AcDbLine
 10
103.999999999999
 20
69.199999999999
 11
103.999999999999
 21
73.999999999999
  0
LINE
  5
1E9
100
AcDbEntity
  8
2
  6
CONTINUOUS
 62
     0
100
AcDbLine
 10
97.9999999999995
 20
69.199999999999
 11
97.9999999999995
 21
73.999999999999
  0
LINE
  5
1EA
100
AcDbEntity
  8
2
  6
CONTINUOUS
 62
     0
100
AcDbLine
 10
89.9999999999995
 20
63.171572875253
 11
97.9999999999995
 21
71.171572875253
  0
LINE
  5
1EB
100
AcDbEntity
  8
2
  6
CONTINUOUS
 62
     0
100
AcDbLine
 10
103.999999999999
 20
71.999999999999
 11
109.999999999999
 21
71.999999999999
  0
LINE
  5
1EC
100
AcDbEntity
  8
2
  6
CONTINUOUS
 62
     0
100
AcDbLine
 10
115.999999999999
 20
71.999999999999
 11
137.999999999999
 21
71.999999999999
  0
LINE
  5
1ED
100
AcDbEntity
  8
2
  6
CONTINUOUS
 62
     0
100
AcDbLine
 10
89.9999999999995
 20
39.999999999999
 11
89.9999999999995
 21
63.171572875253
  0
LINE
  5
1EE
100
AcDbEntity
  8
2
  6
CONTINUOUS
 62
     0
100
AcDbLine
 10
89.9999999999995
 20
63.171572875253
 11
87.9999999999995
 21
63.999999999999
  0
LINE
  5
1EF
100
AcDbEntity
  8
2
  6
CONTINUOUS
 62
     0
100
AcDbLine
 10
22.0
 20
34.0
 11
22.0
 21
35.0000004768372
  0
LINE
  5
1F0
100
AcDbEntity
  8
2
  6
CONTINUOUS
 62
     0
100
AcDbLine
 10
22.0
 20
34.0
 11
140.499999999999
 21
34.0
  0
LINE
  5
1F1
100
AcDbEntity
  8
2
  6
CONTINUOUS
 62
     0
100
AcDbLine
 10
25.4999999999799
 20
34.0
 11
25.4999999999799
 21
39.999999999999
  0
LINE
  5
1F2
100
AcDbEntity
  8
2
  6
CONTINUOUS
 62
     0
100
AcDbLine
 10
88.4999999999999
 20
28.433388850531
 11
106.5
 21
28.433388850531
  0
LINE
  5
1F3
100
AcDbEntity
  8
2
  6
CONTINUOUS
 62
     0
100
AcDbLine
 10
133.999999999999
 20
28.433388850531
 11
139.999999999999
 21
28.433388850531
  0
LINE
  5
1F4
100
AcDbEntity
  8
2
  6
CONTINUOUS
 62
     0
100
AcDbLine
 10
88.4999999999999
 20
18.193285553966
 11
106.5
 21
18.193285553966
  0
LINE
  5
1F5
100
AcDbEntity
  8
2
  6
CONTINUOUS
 62
     0
100
AcDbLine
 10
107.5
 20
18.193285553966
 11
132.999999999999
 21
18.193285553966
  0
LINE
  5
1F6
100
AcDbEntity
  8
2
  6
CONTINUOUS
 62
     0
100
AcDbLine
 10
133.999999999999
 20
18.193285553966
 11
139.999999999999
 21
18.193285553966
  0
LINE
  5
1F7
100
AcDbEntity
  8
2
  6
CONTINUOUS
 62
     0
100
AcDbLine
 10
88.4999999999999
 20
-46.6266742046288
 11
106.5
 21
-46.6266742046288
  0
LINE
  5
1F8
100
AcDbEntity
  8
2
  6
CONTINUOUS
 62
     0
100
AcDbLine
 10
107.5
 20
-46.6266742046288
 11
132.999999999999
 21
-46.6266742046288
  0
LINE
  5
1F9
100
AcDbEntity
  8
2
  6
CONTINUOUS
 62
     0
100
AcDbLine
 10
133.999999999999
 20
-46.6266742046288
 11
139.999999999999
 21
-46.6266742046288
  0
LINE
  5
1FA
100
AcDbEntity
  8
2
  6
CONTINUOUS
 62
     0
100
AcDbLine
 10
0.5
 20
28.433388850531
 11
7.50000000000001
 21
28.433388850531
  0
LINE
  5
1FB
100
AcDbEntity
  8
2
  6
CONTINUOUS
 62
     0
100
AcDbLine
 10
8.50000000000001
 20
28.433388850531
 11
32.5
 21
28.433388850531
  0
LINE
  5
1FC
100
AcDbEntity
  8
2
  6
CONTINUOUS
 62
     0
100
AcDbLine
 10
0.5
 20
18.193285553966
 11
7.50000000000001
 21
18.193285553966
  0
LINE
  5
1FD
100
AcDbEntity
  8
2
  6
CONTINUOUS
 62
     0
100
AcDbLine
 10
8.50000000000001
 20
18.193285553966
 11
32.5
 21
18.193285553966
  0
LINE
  5
1FE
100
AcDbEntity
  8
2
  6
CONTINUOUS
 62
     0
100
AcDbLine
 10
0.5
 20
-46.6266742046288
 11
7.50000000000001
 21
-46.6266742046288
  0
LINE
  5
1FF
100
AcDbEntity
  8
2
  6
CONTINUOUS
 62
     0
100
AcDbLine
 10
8.50000000000001
 20
-46.6266742046288
 11
32.5
 21
-46.6266742046288
  0
LINE
  5
200
100
AcDbEntity
  8
7
  6
CENTER2
 62
    40
100
AcDbLine
 10
-11.1055714646108
 20
19.0
 11
36.0581772117365
 21
19.0
  0
LINE
  5
201
100
AcDbEntity
  8
7
  6
CENTER2
 62
    40
100
AcDbLine
 10
85.7458422196215
 20
20.0
 11
153.297086777645
 21
20.0
  0
INSERT
  5
203
100
AcDbEntity
  8
9
  6
PHANTOM
 62
    10
100
AcDbBlockReference
  2
SUB7
 10
140.499999999999
 20
20.0
 41
1.0
 42
1.0
 50
0.0
  0
LINE
  5
210
100
AcDbEntity
  8
2
  6
CONTINUOUS
 62
     0
100
AcDbLine
 10
87.4999999999999
 20
23.5
 11
87.4999999999999
 21
16.5
  0
LINE
  5
211
100
AcDbEntity
  8
2
  6
CONTINUOUS
 62
     0
100
AcDbLine
 10
87.9999999999999
 20
24.0
 11
87.4999999999999
 21
23.5
  0
LINE
  5
212
100
AcDbEntity
  8
2
  6
CONTINUOUS
 62
     0
100
AcDbLine
 10
87.4999999999999
 20
16.5
 11
87.9999999999999
 21
16.0
  0
INSERT
  5
214
100
AcDbEntity
  8
2
  6
CONTINUOUS
 62
     0
100
AcDbBlockReference
  2
SUB8
 10
112.999999999999
 20
68.4999999999991
 41
1.0
 42
1.0
 50
0.0
  0
INSERT
  5
21F
100
AcDbEntity
  8
2
  6
CONTINUOUS
 62
     0
100
AcDbBlockReference
  2
SUB9
 10
100.999999999999
 20
68.4999999999991
 41
1.0
 42
1.0
 50
0.0
  0
LINE
  5
229
100
AcDbEntity
  8
2
  6
CONTINUOUS
 62
     0
100
AcDbLine
 10
0.0
 20
-46.499999523163
 11
0.5
 21
-46.999999523163
  0
LINE
  5
22A
100
AcDbEntity
  8
2
  6
CONTINUOUS
 62
     0
100
AcDbLine
 10
32.5
 20
-46.9999995231624
 11
33.0
 21
-46.4999995231624
  0
LINE
  5
22B
100
AcDbEntity
  8
2
  6
CONTINUOUS
 62
     0
100
AcDbLine
 10
88.4999999999999
 20
-46.9999995231624
 11
87.9999999999999
 21
-46.4999995231624
  0
LINE
  5
22C
100
AcDbEntity
  8
2
  6
CONTINUOUS
 62
     0
100
AcDbLine
 10
88.4999999999999
 20
28.433388850531
 11
88.4999999999999
 21
18.193285553966
  0
LINE
  5
22D
100
AcDbEntity
  8
2
  6
CONTINUOUS
 62
     0
100
AcDbLine
 10
88.4999999999999
 20
-46.6266742046288
 11
88.4999999999999
 21
-46.9999995231624
  0
LINE
  5
22E
100
AcDbEntity
  8
2
  6
CONTINUOUS
 62
     0
100
AcDbLine
 10
106.5
 20
-47.0000000000001
 11
106.5
 21
-46.6266742046288
  0
LINE
  5
22F
100
AcDbEntity
  8
2
  6
CONTINUOUS
 62
     0
100
AcDbLine
 10
106.5
 20
18.193285553966
 11
106.5
 21
28.433388850531
  0
LINE
  5
230
100
AcDbEntity
  8
2
  6
CONTINUOUS
 62
     0
100
AcDbLine
 10
107.5
 20
-47.0000000000001
 11
107.5
 21
-46.6266742046288
  0
LINE
  5
231
100
AcDbEntity
  8
2
  6
CONTINUOUS
 62
     0
100
AcDbLine
 10
107.5
 20
18.193285553966
 11
107.5
 21
34.0
  0
LINE
  5
232
100
AcDbEntity
  8
2
  6
CONTINUOUS
 62
     0
100
AcDbLine
 10
132.999999999999
 20
34.0
 11
132.999999999999
 21
18.193285553966
  0
LINE
  5
233
100
AcDbEntity
  8
2
  6
CONTINUOUS
 62
     0
100
AcDbLine
 10
132.999999999999
 20
-46.6266742046288
 11
132.999999999999
 21
-47.0
  0
LINE
  5
234
100
AcDbEntity
  8
2
  6
CONTINUOUS
 62
     0
100
AcDbLine
 10
133.999999999999
 20
28.433388850531
 11
133.999999999999
 21
18.193285553966
  0
LINE
  5
235
100
AcDbEntity
  8
2
  6
CONTINUOUS
 62
     0
100
AcDbLine
 10
133.999999999999
 20
-46.6266742046288
 11
133.999999999999
 21
-47.0
  0
LINE
  5
236
100
AcDbEntity
  8
2
  6
CONTINUOUS
 62
     0
100
AcDbLine
 10
139.999999999999
 20
28.433388850531
 11
139.999999999999
 21
18.193285553966
  0
LINE
  5
237
100
AcDbEntity
  8
2
  6
CONTINUOUS
 62
     0
100
AcDbLine
 10
139.999999999999
 20
-46.6266742046288
 11
139.999999999999
 21
-47.0
  0
LINE
  5
238
100
AcDbEntity
  8
2
  6
CONTINUOUS
 62
     0
100
AcDbLine
 10
140.499999999999
 20
-46.5
 11
139.999999999999
 21
-47.0
  0
LINE
  5
239
100
AcDbEntity
  8
2
  6
CONTINUOUS
 62
     0
100
AcDbLine
 10
88.4999999999999
 20
-46.6266742046288
 11
87.9999999999999
 21
-46.1266742046288
  0
LINE
  5
23A
100
AcDbEntity
  8
2
  6
CONTINUOUS
 62
     0
100
AcDbLine
 10
140.499999999999
 20
-46.1266746814665
 11
139.999999999999
 21
-46.6266746814665
  0
LINE
  5
23B
100
AcDbEntity
  8
2
  6
CONTINUOUS
 62
     0
100
AcDbLine
 10
107.5
 20
-46.6266742046288
 11
107.0
 21
-46.1266742046288
  0
LINE
  5
23C
100
AcDbEntity
  8
2
  6
CONTINUOUS
 62
     0
100
AcDbLine
 10
107.5
 20
-46.9999995231624
 11
107.0
 21
-46.4999995231624
  0
LINE
  5
23D
100
AcDbEntity
  8
2
  6
CONTINUOUS
 62
     0
100
AcDbLine
 10
133.999999999999
 20
-46.9999995231624
 11
133.499999999999
 21
-46.4999995231624
  0
LINE
  5
23E
100
AcDbEntity
  8
2
  6
CONTINUOUS
 62
     0
100
AcDbLine
 10
133.999999999999
 20
-46.6266742046288
 11
133.499999999999
 21
-46.1266742046288
  0
LINE
  5
23F
100
AcDbEntity
  8
2
  6
CONTINUOUS
 62
     0
100
AcDbLine
 10
133.499999999999
 20
-46.1266746814665
 11
132.999999999999
 21
-46.6266746814665
  0
LINE
  5
240
100
AcDbEntity
  8
2
  6
CONTINUOUS
 62
     0
100
AcDbLine
 10
133.499999999999
 20
-46.5
 11
132.999999999999
 21
-47.0
  0
LINE
  5
241
100
AcDbEntity
  8
2
  6
CONTINUOUS
 62
     0
100
AcDbLine
 10
106.999999523162
 20
-46.1266746814665
 11
106.499999523162
 21
-46.6266746814665
  0
LINE
  5
242
100
AcDbEntity
  8
2
  6
CONTINUOUS
 62
     0
100
AcDbLine
 10
106.999999523162
 20
-46.5
 11
106.499999523162
 21
-47.0
  0
LINE
  5
243
100
AcDbEntity
  8
2
  6
CONTINUOUS
 62
     0
100
AcDbLine
 10
88.4999999999999
 20
28.433388850531
 11
87.9999999999999
 21
28.933388850531
  0
LINE
  5
244
100
AcDbEntity
  8
2
  6
CONTINUOUS
 62
     0
100
AcDbLine
 10
88.4999999999999
 20
18.193285553966
 11
87.9999999999999
 21
17.693285553966
  0
LINE
  5
245
100
AcDbEntity
  8
2
  6
CONTINUOUS
 62
     0
100
AcDbLine
 10
106.5
 20
18.193285553966
 11
107.0
 21
17.693285553966
  0
LINE
  5
246
100
AcDbEntity
  8
2
  6
CONTINUOUS
 62
     0
100
AcDbLine
 10
107.0
 20
17.693285553966
 11
107.5
 21
18.193285553966
  0
LINE
  5
247
100
AcDbEntity
  8
2
  6
CONTINUOUS
 62
     0
100
AcDbLine
 10
106.5
 20
28.433388850531
 11
107.0
 21
28.933388850531
  0
LINE
  5
248
100
AcDbEntity
  8
2
  6
CONTINUOUS
 62
     0
100
AcDbLine
 10
133.999999999999
 20
28.433388850531
 11
133.499999999999
 21
28.933388850531
  0
LINE
  5
249
100
AcDbEntity
  8
2
  6
CONTINUOUS
 62
     0
100
AcDbLine
 10
139.999999999999
 20
28.433388850531
 11
140.499999999999
 21
28.933388850531
  0
LINE
  5
24A
100
AcDbEntity
  8
2
  6
CONTINUOUS
 62
     0
100
AcDbLine
 10
139.999999999999
 20
18.193285553966
 11
140.499999999999
 21
17.693285553966
  0
LINE
  5
24B
100
AcDbEntity
  8
2
  6
CONTINUOUS
 62
     0
100
AcDbLine
 10
133.999999999999
 20
18.193285553966
 11
133.499999999999
 21
17.693285553966
  0
LINE
  5
24C
100
AcDbEntity
  8
2
  6
CONTINUOUS
 62
     0
100
AcDbLine
 10
36.0
 20
-34.5
 11
84.9999999999999
 21
-34.5
  0
ARC
  5
24D
100
AcDbEntity
  8
2
  6
CONTINUOUS
 62
     0
100
AcDbCircle
 10
36.0
 20
-37.5
 40
3.0
100
AcDbArc
 50
90.0
 51
180.0
  0
ARC
  5
24E
100
AcDbEntity
  8
2
  6
CONTINUOUS
 62
     0
100
AcDbCircle
 10
84.9999999999999
 20
-37.5
 40
3.0
100
AcDbArc
 50
24.2951889453644
 51
90.0
  0
LINE
  5
24F
100
AcDbEntity
  8
2
  6
CONTINUOUS
 62
     0
100
AcDbLine
 10
34.1482358064508
 20
33.1305073509978
 11
35.39
 21
34.0
  0
ARC
  5
250
100
AcDbEntity
  8
2
  6
CONTINUOUS
 62
     0
100
AcDbCircle
 10
35.8689651155039
 20
30.673051218131
 40
2.99999999999992
100
AcDbArc
 50
125.000000000001
 51
163.003321833072
  0
LINE
  5
251
100
AcDbEntity
  8
2
  6
CONTINUOUS
 62
     0
100
AcDbLine
 10
86.8517641935492
 20
33.1305073509978
 11
85.61
 21
34.0
  0
ARC
  5
252
100
AcDbEntity
  8
2
  6
CONTINUOUS
 62
     0
100
AcDbCircle
 10
85.131034884496
 20
30.6730512181309
 40
2.99999999999992
100
AcDbArc
 50
16.9966781669294
 51
54.9999999999996
  0
LINE
  5
253
100
AcDbEntity
  8
2
  6
CONTINUOUS
 62
     0
100
AcDbLine
 10
0.5
 20
28.433388850531
 11
0.5
 21
18.193285553966
  0
LINE
  5
254
100
AcDbEntity
  8
2
  6
CONTINUOUS
 62
     0
100
AcDbLine
 10
0.5
 20
-46.6266742046288
 11
0.5
 21
-46.9999995231624
  0
LINE
  5
255
100
AcDbEntity
  8
2
  6
CONTINUOUS
 62
     0
100
AcDbLine
 10
7.50000000000001
 20
-46.9999995231624
 11
7.50000000000001
 21
-46.6266742046288
  0
LINE
  5
256
100
AcDbEntity
  8
2
  6
CONTINUOUS
 62
     0
100
AcDbLine
 10
7.50000000000001
 20
18.193285553966
 11
7.50000000000001
 21
28.433388850531
  0
LINE
  5
257
100
AcDbEntity
  8
2
  6
CONTINUOUS
 62
     0
100
AcDbLine
 10
8.50000000000001
 20
-46.9999995231624
 11
8.50000000000001
 21
-46.6266742046288
  0
LINE
  5
258
100
AcDbEntity
  8
2
  6
CONTINUOUS
 62
     0
100
AcDbLine
 10
8.50000000000001
 20
18.193285553966
 11
8.50000000000001
 21
28.433388850531
  0
LINE
  5
259
100
AcDbEntity
  8
2
  6
CONTINUOUS
 62
     0
100
AcDbLine
 10
32.5
 20
-46.9999995231624
 11
32.5
 21
-46.6266742046288
  0
LINE
  5
25A
100
AcDbEntity
  8
2
  6
CONTINUOUS
 62
     0
100
AcDbLine
 10
32.5
 20
18.193285553966
 11
32.5
 21
28.433388850531
  0
LINE
  5
25B
100
AcDbEntity
  8
2
  6
CONTINUOUS
 62
     0
100
AcDbLine
 10
8.00000000000001
 20
-46.499999523163
 11
7.50000000000001
 21
-46.999999523163
  0
LINE
  5
25C
100
AcDbEntity
  8
2
  6
CONTINUOUS
 62
     0
100
AcDbLine
 10
8.00000000000001
 20
-46.499999523163
 11
8.50000000000001
 21
-46.999999523163
  0
LINE
  5
25D
100
AcDbEntity
  8
2
  6
CONTINUOUS
 62
     0
100
AcDbLine
 10
32.5
 20
-46.6266742046288
 11
33.0
 21
-46.1266742046288
  0
LINE
  5
25E
100
AcDbEntity
  8
2
  6
CONTINUOUS
 62
     0
100
AcDbLine
 10
8.00000000000001
 20
-46.1266742046294
 11
8.50000000000001
 21
-46.6266742046294
  0
LINE
  5
25F
100
AcDbEntity
  8
2
  6
CONTINUOUS
 62
     0
100
AcDbLine
 10
8.00000000000001
 20
-46.1266742046294
 11
7.50000000000001
 21
-46.6266742046294
  0
LINE
  5
260
100
AcDbEntity
  8
2
  6
CONTINUOUS
 62
     0
100
AcDbLine
 10
0.0
 20
-46.1266742046294
 11
0.5
 21
-46.6266742046294
  0
LINE
  5
261
100
AcDbEntity
  8
2
  6
CONTINUOUS
 62
     0
100
AcDbLine
 10
32.5
 20
28.433388850531
 11
33.0
 21
28.933388850531
  0
LINE
  5
262
100
AcDbEntity
  8
2
  6
CONTINUOUS
 62
     0
100
AcDbLine
 10
32.5
 20
18.193285553966
 11
33.0
 21
17.693285553966
  0
LINE
  5
263
100
AcDbEntity
  8
2
  6
CONTINUOUS
 62
     0
100
AcDbLine
 10
8.00000000000001
 20
17.693285553966
 11
8.50000000000001
 21
18.193285553966
  0
LINE
  5
264
100
AcDbEntity
  8
2
  6
CONTINUOUS
 62
     0
100
AcDbLine
 10
8.00000000000001
 20
17.693285553966
 11
7.50000000000001
 21
18.193285553966
  0
LINE
  5
265
100
AcDbEntity
  8
2
  6
CONTINUOUS
 62
     0
100
AcDbLine
 10
0.5
 20
18.193285553966
 11
0.0
 21
17.693285553966
  0
LINE
  5
266
100
AcDbEntity
  8
2
  6
CONTINUOUS
 62
     0
100
AcDbLine
 10
0.5
 20
28.433388850531
 11
0.0
 21
28.933388850531
  0
LINE
  5
267
100
AcDbEntity
  8
2
  6
CONTINUOUS
 62
     0
100
AcDbLine
 10
7.50000000000001
 20
28.433388850531
 11
8.00000000000001
 21
28.933388850531
  0
LINE
  5
268
100
AcDbEntity
  8
2
  6
CONTINUOUS
 62
     0
100
AcDbLine
 10
8.00000000000001
 20
28.933388850531
 11
8.50000000000001
 21
28.433388850531
  0
LINE
  5
269
100
AcDbEntity
  8
2
  6
CONTINUOUS
 62
     0
100
AcDbLine
 10
89.9999999999995
 20
34.0
 11
89.9999999999995
 21
39.999999999999
  0
LINE
  5
26A
100
AcDbEntity
  8
2
  6
CONTINUOUS
 62
     0
100
AcDbLine
 10
136.999999999999
 20
34.0
 11
136.999999999999
 21
39.999999999999
  0
LINE
  5
26B
100
AcDbEntity
  8
2
  6
CONTINUOUS
 62
     0
100
AcDbLine
 10
137.999999999999
 20
71.999999999999
 11
141.499999999999
 21
71.999999999999
  0
LINE
  5
26C
100
AcDbEntity
  8
2
  6
CONTINUOUS
 62
     0
100
AcDbLine
 10
137.999999999999
 20
40.999999999999
 11
141.499999999999
 21
40.999999999999
  0
LINE
  5
26D
100
AcDbEntity
  8
2
  6
CONTINUOUS
 62
     0
100
AcDbLine
 10
-9.0
 20
28.5000004768372
 11
-8.5
 21
29.0000004768372
  0
LINE
  5
26E
100
AcDbEntity
  8
2
  6
CONTINUOUS
 62
     0
100
AcDbLine
 10
-9.0
 20
-28.4999995231628
 11
-8.5
 21
-28.9999995231628
  0
LINE
  5
26F
100
AcDbEntity
  8
2
  6
CONTINUOUS
 62
     0
100
AcDbLine
 10
-8.5
 20
-28.9999995231628
 11
-8.5
 21
29.0000004768372
  0
MTEXT
  5
270
100
AcDbEntity
  8
4
  6
CONTINUOUS
 62
     2
100
AcDbMText
 10
325.217028788292
 20
-20.3073986876478
 40
3.5
 41
0.0
 11
1.0
 21
0.0
 71
     7
 72
     5
  7
STANDARD
  1
{\T1.60714;\W0.666667;UNR-G100-3700NT}
  0
ENDBLK
  5
272
100
AcDbEntity
  8
4
100
AcDbBlockEnd
  0
BLOCK
  5
D2
100
AcDbEntity
  8
2
100
AcDbBlockBegin
  2
SUB2
 70
    64
 10
0.0
 20
0.0
  0
LINE
  5
D3
100
AcDbEntity
  8
2
  6
CONTINUOUS
 62
     0
100
AcDbLine
 10
0.0
 20
-5.0
 11
0.0
 21
5.0
  0
LINE
  5
D4
100
AcDbEntity
  8
2
  6
CONTINUOUS
 62
     0
100
AcDbLine
 10
1.5
 20
-5.0
 11
1.5
 21
5.0
  0
LINE
  5
D5
100
AcDbEntity
  8
2
  6
CONTINUOUS
 62
     0
100
AcDbLine
 10
7.10000000000002
 20
5.0
 11
0.0
 21
5.0
  0
LINE
  5
D6
100
AcDbEntity
  8
2
  6
CONTINUOUS
 62
     0
100
AcDbLine
 10
7.10000000000002
 20
-5.0
 11
0.0
 21
-5.0
  0
LINE
  5
D7
100
AcDbEntity
  8
2
  6
CONTINUOUS
 62
     0
100
AcDbLine
 10
7.5
 20
-4.307179676972
 11
7.5
 21
4.30717967697296
  0
LINE
  5
D8
100
AcDbEntity
  8
2
  6
CONTINUOUS
 62
     0
100
AcDbLine
 10
7.10000000000002
 20
-5.0
 11
7.10000000000002
 21
5.0
  0
LINE
  5
D9
100
AcDbEntity
  8
2
  6
CONTINUOUS
 62
     0
100
AcDbLine
 10
7.10000000000002
 20
-5.0
 11
7.5
 21
-4.307179676972
  0
LINE
  5
DA
100
AcDbEntity
  8
2
  6
CONTINUOUS
 62
     0
100
AcDbLine
 10
7.10000000000002
 20
5.0
 11
7.5
 21
4.30717967697296
  0
LINE
  5
DB
100
AcDbEntity
  8
2
  6
CONTINUOUS
 62
     0
100
AcDbLine
 10
1.5
 20
0.0
 11
0.0
 21
-2.08447098732
  0
LINE
  5
DC
100
AcDbEntity
  8
2
  6
CONTINUOUS
 62
     0
100
AcDbLine
 10
0.0
 20
0.0
 11
1.5
 21
2.06036782264698
  0
ENDBLK
  5
DD
100
AcDbEntity
  8
2
100
AcDbBlockEnd
  0
BLOCK
  5
E0
100
AcDbEntity
  8
2
100
AcDbBlockBegin
  2
SUB3
 70
    64
 10
0.0
 20
0.0
  0
LINE
  5
E1
100
AcDbEntity
  8
2
  6
CONTINUOUS
 62
     0
100
AcDbLine
 10
0.0
 20
-5.0
 11
0.0
 21
5.0
  0
LINE
  5
E2
100
AcDbEntity
  8
2
  6
CONTINUOUS
 62
     0
100
AcDbLine
 10
1.5
 20
-5.0
 11
1.5
 21
5.0
  0
LINE
  5
E3
100
AcDbEntity
  8
2
  6
CONTINUOUS
 62
     0
100
AcDbLine
 10
7.10000000000002
 20
5.0
 11
0.0
 21
5.0
  0
LINE
  5
E4
100
AcDbEntity
  8
2
  6
CONTINUOUS
 62
     0
100
AcDbLine
 10
7.10000000000002
 20
-5.0
 11
0.0
 21
-5.0
  0
LINE
  5
E5
100
AcDbEntity
  8
2
  6
CONTINUOUS
 62
     0
100
AcDbLine
 10
7.5
 20
-4.307179676972
 11
7.5
 21
4.30717967697296
  0
LINE
  5
E6
100
AcDbEntity
  8
2
  6
CONTINUOUS
 62
     0
100
AcDbLine
 10
7.10000000000002
 20
-5.0
 11
7.10000000000002
 21
5.0
  0
LINE
  5
E7
100
AcDbEntity
  8
2
  6
CONTINUOUS
 62
     0
100
AcDbLine
 10
7.10000000000002
 20
-5.0
 11
7.5
 21
-4.307179676972
  0
LINE
  5
E8
100
AcDbEntity
  8
2
  6
CONTINUOUS
 62
     0
100
AcDbLine
 10
7.10000000000002
 20
5.0
 11
7.5
 21
4.30717967697296
  0
LINE
  5
E9
100
AcDbEntity
  8
2
  6
CONTINUOUS
 62
     0
100
AcDbLine
 10
1.5
 20
0.0
 11
0.0
 21
-2.08447098732
  0
LINE
  5
EA
100
AcDbEntity
  8
2
  6
CONTINUOUS
 62
     0
100
AcDbLine
 10
0.0
 20
0.0
 11
1.5
 21
2.06036782264698
  0
ENDBLK
  5
EB
100
AcDbEntity
  8
2
100
AcDbBlockEnd
  0
BLOCK
  5
196
100
AcDbEntity
  8
9
100
AcDbBlockBegin
  2
SUB4
 70
    64
 10
0.0
 20
0.0
  0
LINE
  5
197
100
AcDbEntity
  8
2
  6
CONTINUOUS
 62
     0
100
AcDbLine
 10
0.0
 20
-6.5
 11
0.0
 21
6.5
  0
LINE
  5
198
100
AcDbEntity
  8
2
  6
CONTINUOUS
 62
     0
100
AcDbLine
 10
2.0
 20
-6.5
 11
2.0
 21
6.5
  0
LINE
  5
199
100
AcDbEntity
  8
2
  6
CONTINUOUS
 62
     0
100
AcDbLine
 10
9.5
 20
6.5
 11
0.0
 21
6.5
  0
LINE
  5
19A
100
AcDbEntity
  8
2
  6
CONTINUOUS
 62
     0
100
AcDbLine
 10
9.5
 20
-6.5
 11
0.0
 21
-6.5
  0
LINE
  5
19B
100
AcDbEntity
  8
2
  6
CONTINUOUS
 62
     0
100
AcDbLine
 10
10.0
 20
-5.63397459621558
 11
10.0
 21
5.63397459621558
  0
LINE
  5
19C
100
AcDbEntity
  8
2
  6
CONTINUOUS
 62
     0
100
AcDbLine
 10
9.5
 20
-6.5
 11
9.5
 21
6.5
  0
LINE
  5
19D
100
AcDbEntity
  8
2
  6
CONTINUOUS
 62
     0
100
AcDbLine
 10
9.5
 20
-6.5
 11
10.0
 21
-5.63397459621558
  0
LINE
  5
19E
100
AcDbEntity
  8
2
  6
CONTINUOUS
 62
     0
100
AcDbLine
 10
9.5
 20
6.5
 11
10.0
 21
5.63397459621558
  0
LINE
  5
19F
100
AcDbEntity
  8
2
  6
CONTINUOUS
 62
     0
100
AcDbLine
 10
2.0
 20
0.0
 11
0.0
 21
-2.68624043464661
  0
LINE
  5
1A0
100
AcDbEntity
  8
2
  6
CONTINUOUS
 62
     0
100
AcDbLine
 10
0.0
 20
0.0
 11
2.0
 21
2.60311198234558
  0
ENDBLK
  5
1A1
100
AcDbEntity
  8
2
100
AcDbBlockEnd
  0
BLOCK
  5
1C3
100
AcDbEntity
  8
2
100
AcDbBlockBegin
  2
SUB5
 70
    64
 10
0.0
 20
0.0
  0
LINE
  5
1C4
100
AcDbEntity
  8
2
  6
CONTINUOUS
 62
     0
100
AcDbLine
 10
0.0
 20
-5.0
 11
0.0
 21
5.0
  0
LINE
  5
1C5
100
AcDbEntity
  8
2
  6
CONTINUOUS
 62
     0
100
AcDbLine
 10
-1.5
 20
-5.0
 11
-1.5
 21
5.0
  0
LINE
  5
1C6
100
AcDbEntity
  8
2
  6
CONTINUOUS
 62
     0
100
AcDbLine
 10
-7.09999999999991
 20
5.0
 11
0.0
 21
5.0
  0
LINE
  5
1C7
100
AcDbEntity
  8
2
  6
CONTINUOUS
 62
     0
100
AcDbLine
 10
-7.09999999999991
 20
-5.0
 11
0.0
 21
-5.0
  0
LINE
  5
1C8
100
AcDbEntity
  8
2
  6
CONTINUOUS
 62
     0
100
AcDbLine
 10
-7.5
 20
-4.307179676972
 11
-7.5
 21
4.30717967697296
  0
LINE
  5
1C9
100
AcDbEntity
  8
2
  6
CONTINUOUS
 62
     0
100
AcDbLine
 10
-7.09999999999991
 20
-5.0
 11
-7.09999999999991
 21
5.0
  0
LINE
  5
1CA
100
AcDbEntity
  8
2
  6
CONTINUOUS
 62
     0
100
AcDbLine
 10
-7.09999999999991
 20
-5.0
 11
-7.5
 21
-4.307179676972
  0
LINE
  5
1CB
100
AcDbEntity
  8
2
  6
CONTINUOUS
 62
     0
100
AcDbLine
 10
-7.09999999999991
 20
5.0
 11
-7.5
 21
4.30717967697296
  0
LINE
  5
1CC
100
AcDbEntity
  8
2
  6
CONTINUOUS
 62
     0
100
AcDbLine
 10
-1.5
 20
0.0
 11
0.0
 21
-2.08447098732
  0
LINE
  5
1CD
100
AcDbEntity
  8
2
  6
CONTINUOUS
 62
     0
100
AcDbLine
 10
0.0
 20
0.0
 11
-1.5
 21
2.06036782264698
  0
ENDBLK
  5
1CE
100
AcDbEntity
  8
2
100
AcDbBlockEnd
  0
BLOCK
  5
1D4
100
AcDbEntity
  8
2
100
AcDbBlockBegin
  2
SUB6
 70
    64
 10
0.0
 20
0.0
  0
LINE
  5
1D5
100
AcDbEntity
  8
2
  6
CONTINUOUS
 62
     0
100
AcDbLine
 10
0.0
 20
-5.0
 11
0.0
 21
5.0
  0
LINE
  5
1D6
100
AcDbEntity
  8
2
  6
CONTINUOUS
 62
     0
100
AcDbLine
 10
-1.5
 20
-5.0
 11
-1.5
 21
5.0
  0
LINE
  5
1D7
100
AcDbEntity
  8
2
  6
CONTINUOUS
 62
     0
100
AcDbLine
 10
-7.09999999999991
 20
5.0
 11
0.0
 21
5.0
  0
LINE
  5
1D8
100
AcDbEntity
  8
2
  6
CONTINUOUS
 62
     0
100
AcDbLine
 10
-7.09999999999991
 20
-5.0
 11
0.0
 21
-5.0
  0
LINE
  5
1D9
100
AcDbEntity
  8
2
  6
CONTINUOUS
 62
     0
100
AcDbLine
 10
-7.5
 20
-4.307179676972
 11
-7.5
 21
4.30717967697296
  0
LINE
  5
1DA
100
AcDbEntity
  8
2
  6
CONTINUOUS
 62
     0
100
AcDbLine
 10
-7.09999999999991
 20
-5.0
 11
-7.09999999999991
 21
5.0
  0
LINE
  5
1DB
100
AcDbEntity
  8
2
  6
CONTINUOUS
 62
     0
100
AcDbLine
 10
-7.09999999999991
 20
-5.0
 11
-7.5
 21
-4.307179676972
  0
LINE
  5
1DC
100
AcDbEntity
  8
2
  6
CONTINUOUS
 62
     0
100
AcDbLine
 10
-7.09999999999991
 20
5.0
 11
-7.5
 21
4.30717967697296
  0
LINE
  5
1DD
100
AcDbEntity
  8
2
  6
CONTINUOUS
 62
     0
100
AcDbLine
 10
-1.5
 20
0.0
 11
0.0
 21
-2.08447098732
  0
LINE
  5
1DE
100
AcDbEntity
  8
2
  6
CONTINUOUS
 62
     0
100
AcDbLine
 10
0.0
 20
0.0
 11
-1.5
 21
2.06036782264698
  0
ENDBLK
  5
1DF
100
AcDbEntity
  8
2
100
AcDbBlockEnd
  0
BLOCK
  5
204
100
AcDbEntity
  8
9
100
AcDbBlockBegin
  2
SUB7
 70
    64
 10
0.0
 20
0.0
  0
LINE
  5
205
100
AcDbEntity
  8
2
  6
CONTINUOUS
 62
     0
100
AcDbLine
 10
0.0
 20
-6.5
 11
0.0
 21
6.5
  0
LINE
  5
206
100
AcDbEntity
  8
2
  6
CONTINUOUS
 62
     0
100
AcDbLine
 10
2.0
 20
-6.5
 11
2.0
 21
6.5
  0
LINE
  5
207
100
AcDbEntity
  8
2
  6
CONTINUOUS
 62
     0
100
AcDbLine
 10
9.5
 20
6.5
 11
0.0
 21
6.5
  0
LINE
  5
208
100
AcDbEntity
  8
2
  6
CONTINUOUS
 62
     0
100
AcDbLine
 10
9.5
 20
-6.5
 11
0.0
 21
-6.5
  0
LINE
  5
209
100
AcDbEntity
  8
2
  6
CONTINUOUS
 62
     0
100
AcDbLine
 10
10.0
 20
-5.63397459621558
 11
10.0
 21
5.63397459621552
  0
LINE
  5
20A
100
AcDbEntity
  8
2
  6
CONTINUOUS
 62
     0
100
AcDbLine
 10
9.5
 20
-6.5
 11
9.5
 21
6.5
  0
LINE
  5
20B
100
AcDbEntity
  8
2
  6
CONTINUOUS
 62
     0
100
AcDbLine
 10
9.5
 20
-6.5
 11
10.0
 21
-5.63397459621558
  0
LINE
  5
20C
100
AcDbEntity
  8
2
  6
CONTINUOUS
 62
     0
100
AcDbLine
 10
9.5
 20
6.5
 11
10.0
 21
5.63397459621552
  0
LINE
  5
20D
100
AcDbEntity
  8
2
  6
CONTINUOUS
 62
     0
100
AcDbLine
 10
2.0
 20
0.0
 11
0.0
 21
-2.68624043464661
  0
LINE
  5
20E
100
AcDbEntity
  8
2
  6
CONTINUOUS
 62
     0
100
AcDbLine
 10
0.0
 20
0.0
 11
2.0
 21
2.60311198234558
  0
ENDBLK
  5
20F
100
AcDbEntity
  8
2
100
AcDbBlockEnd
  0
BLOCK
  5
215
100
AcDbEntity
  8
2
100
AcDbBlockBegin
  2
SUB8
 70
    64
 10
0.0
 20
0.0
  0
LINE
  5
216
100
AcDbEntity
  8
2
  6
CONTINUOUS
 62
     0
100
AcDbLine
 10
-2.75
 20
0.699999999999932
 11
2.75
 21
0.699999999999932
  0
LINE
  5
217
100
AcDbEntity
  8
2
  6
CONTINUOUS
 62
     0
100
AcDbLine
 10
2.75
 20
3.5
 11
2.75
 21
0.699999999999932
  0
LINE
  5
218
100
AcDbEntity
  8
2
  6
CONTINUOUS
 62
     0
100
AcDbLine
 10
-2.75
 20
3.5
 11
-2.75
 21
0.699999999999932
  0
LINE
  5
219
100
AcDbEntity
  8
2
  6
CONTINUOUS
 62
     0
100
AcDbLine
 10
-2.40358983848623
 20
3.69999999999993
 11
2.40358983848623
 21
3.69999999999993
  0
LINE
  5
21A
100
AcDbEntity
  8
2
  6
CONTINUOUS
 62
     0
100
AcDbLine
 10
-2.75
 20
3.5
 11
2.75
 21
3.5
  0
LINE
  5
21B
100
AcDbEntity
  8
2
  6
CONTINUOUS
 62
     0
100
AcDbLine
 10
2.75
 20
3.5
 11
2.40358983848623
 21
3.69999999999993
  0
LINE
  5
21C
100
AcDbEntity
  8
2
  6
CONTINUOUS
 62
     0
100
AcDbLine
 10
-2.75
 20
3.5
 11
-2.40358983848623
 21
3.69999999999993
  0
ENDBLK
  5
21D
100
AcDbEntity
  8
2
100
AcDbBlockEnd
  0
BLOCK
  5
220
100
AcDbEntity
  8
2
100
AcDbBlockBegin
  2
SUB9
 70
    64
 10
0.0
 20
0.0
  0
LINE
  5
221
100
AcDbEntity
  8
2
  6
CONTINUOUS
 62
     0
100
AcDbLine
 10
-2.75
 20
0.699999999999932
 11
2.75
 21
0.699999999999932
  0
LINE
  5
222
100
AcDbEntity
  8
2
  6
CONTINUOUS
 62
     0
100
AcDbLine
 10
2.75
 20
3.5
 11
2.75
 21
0.699999999999932
  0
LINE
  5
223
100
AcDbEntity
  8
2
  6
CONTINUOUS
 62
     0
100
AcDbLine
 10
-2.75
 20
3.5
 11
-2.75
 21
0.699999999999932
  0
LINE
  5
224
100
AcDbEntity
  8
2
  6
CONTINUOUS
 62
     0
100
AcDbLine
 10
-2.40358983848623
 20
3.69999999999993
 11
2.40358983848623
 21
3.69999999999993
  0
LINE
  5
225
100
AcDbEntity
  8
2
  6
CONTINUOUS
 62
     0
100
AcDbLine
 10
-2.75
 20
3.5
 11
2.75
 21
3.5
  0
LINE
  5
226
100
AcDbEntity
  8
2
  6
CONTINUOUS
 62
     0
100
AcDbLine
 10
2.75
 20
3.5
 11
2.40358983848623
 21
3.69999999999993
  0
LINE
  5
227
100
AcDbEntity
  8
2
  6
CONTINUOUS
 62
     0
100
AcDbLine
 10
-2.75
 20
3.5
 11
-2.40358983848623
 21
3.69999999999993
  0
ENDBLK
  5
228
100
AcDbEntity
  8
2
100
AcDbBlockEnd
  0
BLOCK
  5
284
100
AcDbEntity
  8
7
100
AcDbBlockBegin
  2
SUB10
 70
    64
 10
0.0
 20
0.0
  0
CIRCLE
  5
285
100
AcDbEntity
  8
2
  6
CONTINUOUS
 62
     0
100
AcDbCircle
 10
0.0
 20
0.0
 40
4.25
  0
CIRCLE
  5
286
100
AcDbEntity
  8
2
  6
CONTINUOUS
 62
     0
100
AcDbCircle
 10
0.0
 20
0.0
 40
3.75
  0
LWPOLYLINE
  5
287
100
AcDbEntity
  8
2
  6
CONTINUOUS
 62
     0
100
AcDbPolyline
 90
        6
 70
     1
 43
0.0
 10
2.30940107675849
 20
0.0
 10
1.1547005383793
 20
2.0
 10
-1.15470053837919
 20
2.0
 10
-2.30940107675849
 20
0.0
 10
-1.15470053837919
 20
-2.0
 10
1.1547005383793
 20
-2.0
  0
ENDBLK
  5
288
100
AcDbEntity
  8
2
100
AcDbBlockEnd
  0
BLOCK
  5
28B
100
AcDbEntity
  8
7
100
AcDbBlockBegin
  2
SUB11
 70
    64
 10
0.0
 20
0.0
  0
CIRCLE
  5
28C
100
AcDbEntity
  8
2
  6
CONTINUOUS
 62
     0
100
AcDbCircle
 10
0.0
 20
0.0
 40
4.25
  0
CIRCLE
  5
28D
100
AcDbEntity
  8
2
  6
CONTINUOUS
 62
     0
100
AcDbCircle
 10
0.0
 20
0.0
 40
3.75
  0
LWPOLYLINE
  5
28E
100
AcDbEntity
  8
2
  6
CONTINUOUS
 62
     0
100
AcDbPolyline
 90
        6
 70
     1
 43
0.0
 10
-1.15470053837919
 20
2.0
 10
-2.30940107675849
 20
0.0
 10
-1.15470053837919
 20
-2.0
 10
1.1547005383793
 20
-2.0
 10
2.30940107675849
 20
0.0
 10
1.1547005383793
 20
2.0
  0
ENDBLK
  5
28F
100
AcDbEntity
  8
2
100
AcDbBlockEnd
  0
BLOCK
  5
292
100
AcDbEntity
  8
7
100
AcDbBlockBegin
  2
SUB12
 70
    64
 10
0.0
 20
0.0
  0
CIRCLE
  5
293
100
AcDbEntity
  8
2
  6
CONTINUOUS
 62
     0
100
AcDbCircle
 10
0.0
 20
0.0
 40
4.25
  0
CIRCLE
  5
294
100
AcDbEntity
  8
2
  6
CONTINUOUS
 62
     0
100
AcDbCircle
 10
0.0
 20
0.0
 40
3.75
  0
LWPOLYLINE
  5
295
100
AcDbEntity
  8
2
  6
CONTINUOUS
 62
     0
100
AcDbPolyline
 90
        6
 70
     1
 43
0.0
 10
-1.1547005383793
 20
-2.0
 10
1.1547005383793
 20
-2.0
 10
2.30940107675849
 20
0.0
 10
1.1547005383793
 20
1.99999999999994
 10
-1.1547005383793
 20
2.0
 10
-2.30940107675849
 20
0.0
  0
ENDBLK
  5
296
100
AcDbEntity
  8
2
100
AcDbBlockEnd
  0
BLOCK
  5
349
100
AcDbEntity
  8
2
100
AcDbBlockBegin
  2
SUB13
 70
    64
 10
0.0
 20
0.0
  0
LINE
  5
34A
100
AcDbEntity
  8
2
  6
CONTINUOUS
 62
     0
100
AcDbLine
 10
0.0
 20
-5.0
 11
0.0
 21
5.0
  0
LINE
  5
34B
100
AcDbEntity
  8
2
  6
CONTINUOUS
 62
     0
100
AcDbLine
 10
-1.5
 20
-5.0
 11
-1.5
 21
5.0
  0
LINE
  5
34C
100
AcDbEntity
  8
2
  6
CONTINUOUS
 62
     0
100
AcDbLine
 10
-7.10000000000014
 20
5.0
 11
0.0
 21
5.0
  0
LINE
  5
34D
100
AcDbEntity
  8
2
  6
CONTINUOUS
 62
     0
100
AcDbLine
 10
-7.10000000000014
 20
-5.0
 11
0.0
 21
-5.0
  0
LINE
  5
34E
100
AcDbEntity
  8
2
  6
CONTINUOUS
 62
     0
100
AcDbLine
 10
-7.5
 20
-4.30717967697205
 11
-7.5
 21
4.30717967697296
  0
LINE
  5
34F
100
AcDbEntity
  8
2
  6
CONTINUOUS
 62
     0
100
AcDbLine
 10
-7.10000000000014
 20
-5.0
 11
-7.10000000000014
 21
5.0
  0
LINE
  5
350
100
AcDbEntity
  8
2
  6
CONTINUOUS
 62
     0
100
AcDbLine
 10
-7.10000000000014
 20
-5.0
 11
-7.5
 21
-4.30717967697205
  0
LINE
  5
351
100
AcDbEntity
  8
2
  6
CONTINUOUS
 62
     0
100
AcDbLine
 10
-7.10000000000014
 20
5.0
 11
-7.5
 21
4.30717967697296
  0
LINE
  5
352
100
AcDbEntity
  8
2
  6
CONTINUOUS
 62
     0
100
AcDbLine
 10
-1.5
 20
0.0
 11
0.0
 21
-2.08447098731995
  0
LINE
  5
353
100
AcDbEntity
  8
2
  6
CONTINUOUS
 62
     0
100
AcDbLine
 10
0.0
 20
0.0
 11
-1.5
 21
2.06036782264698
  0
ENDBLK
  5
354
100
AcDbEntity
  8
2
100
AcDbBlockEnd
  0
BLOCK
  5
357
100
AcDbEntity
  8
2
100
AcDbBlockBegin
  2
SUB14
 70
    64
 10
0.0
 20
0.0
  0
LINE
  5
358
100
AcDbEntity
  8
2
  6
CONTINUOUS
 62
     0
100
AcDbLine
 10
0.0
 20
-5.0
 11
0.0
 21
5.0
  0
LINE
  5
359
100
AcDbEntity
  8
2
  6
CONTINUOUS
 62
     0
100
AcDbLine
 10
-1.5
 20
-5.0
 11
-1.5
 21
5.0
  0
LINE
  5
35A
100
AcDbEntity
  8
2
  6
CONTINUOUS
 62
     0
100
AcDbLine
 10
-7.099999999999
 20
5.0
 11
0.0
 21
5.0
  0
LINE
  5
35B
100
AcDbEntity
  8
2
  6
CONTINUOUS
 62
     0
100
AcDbLine
 10
-7.099999999999
 20
-5.0
 11
0.0
 21
-5.0
  0
LINE
  5
35C
100
AcDbEntity
  8
2
  6
CONTINUOUS
 62
     0
100
AcDbLine
 10
-7.5
 20
-4.30717967697205
 11
-7.5
 21
4.30717967697296
  0
LINE
  5
35D
100
AcDbEntity
  8
2
  6
CONTINUOUS
 62
     0
100
AcDbLine
 10
-7.099999999999
 20
-5.0
 11
-7.099999999999
 21
5.0
  0
LINE
  5
35E
100
AcDbEntity
  8
2
  6
CONTINUOUS
 62
     0
100
AcDbLine
 10
-7.099999999999
 20
-5.0
 11
-7.5
 21
-4.30717967697205
  0
LINE
  5
35F
100
AcDbEntity
  8
2
  6
CONTINUOUS
 62
     0
100
AcDbLine
 10
-7.099999999999
 20
5.0
 11
-7.5
 21
4.30717967697296
  0
LINE
  5
360
100
AcDbEntity
  8
2
  6
CONTINUOUS
 62
     0
100
AcDbLine
 10
-1.5
 20
0.0
 11
0.0
 21
-2.08447098731995
  0
LINE
  5
361
100
AcDbEntity
  8
2
  6
CONTINUOUS
 62
     0
100
AcDbLine
 10
0.0
 20
0.0
 11
-1.5
 21
2.06036782264698
  0
ENDBLK
  5
362
100
AcDbEntity
  8
2
100
AcDbBlockEnd
  0
BLOCK
  5
365
100
AcDbEntity
  8
2
100
AcDbBlockBegin
  2
SUB15
 70
    64
 10
0.0
 20
0.0
  0
LINE
  5
366
100
AcDbEntity
  8
2
  6
CONTINUOUS
 62
     0
100
AcDbLine
 10
0.0
 20
-5.0
 11
0.0
 21
5.0
  0
LINE
  5
367
100
AcDbEntity
  8
2
  6
CONTINUOUS
 62
     0
100
AcDbLine
 10
1.5
 20
-5.0
 11
1.5
 21
5.0
  0
LINE
  5
368
100
AcDbEntity
  8
2
  6
CONTINUOUS
 62
     0
100
AcDbLine
 10
7.10000000000014
 20
5.0
 11
0.0
 21
5.0
  0
LINE
  5
369
100
AcDbEntity
  8
2
  6
CONTINUOUS
 62
     0
100
AcDbLine
 10
7.10000000000014
 20
-5.0
 11
0.0
 21
-5.0
  0
LINE
  5
36A
100
AcDbEntity
  8
2
  6
CONTINUOUS
 62
     0
100
AcDbLine
 10
7.5
 20
-4.30717967697205
 11
7.5
 21
4.30717967697296
  0
LINE
  5
36B
100
AcDbEntity
  8
2
  6
CONTINUOUS
 62
     0
100
AcDbLine
 10
7.10000000000014
 20
-5.0
 11
7.10000000000014
 21
5.0
  0
LINE
  5
36C
100
AcDbEntity
  8
2
  6
CONTINUOUS
 62
     0
100
AcDbLine
 10
7.10000000000014
 20
-5.0
 11
7.5
 21
-4.30717967697205
  0
LINE
  5
36D
100
AcDbEntity
  8
2
  6
CONTINUOUS
 62
     0
100
AcDbLine
 10
7.10000000000014
 20
5.0
 11
7.5
 21
4.30717967697296
  0
LINE
  5
36E
100
AcDbEntity
  8
2
  6
CONTINUOUS
 62
     0
100
AcDbLine
 10
1.5
 20
0.0
 11
0.0
 21
-2.08447098731995
  0
LINE
  5
36F
100
AcDbEntity
  8
2
  6
CONTINUOUS
 62
     0
100
AcDbLine
 10
0.0
 20
0.0
 11
1.5
 21
2.06036782264698
  0
ENDBLK
  5
370
100
AcDbEntity
  8
2
100
AcDbBlockEnd
  0
BLOCK
  5
3AA
100
AcDbEntity
  8
2
100
AcDbBlockBegin
  2
SUB16
 70
    64
 10
0.0
 20
0.0
  0
CIRCLE
  5
3AB
100
AcDbEntity
  8
2
  6
CONTINUOUS
 62
     0
100
AcDbCircle
 10
0.0
 20
0.0
 40
2.75
  0
CIRCLE
  5
3AC
100
AcDbEntity
  8
2
  6
CONTINUOUS
 62
     0
100
AcDbCircle
 10
0.0
 20
0.0
 40
2.41
  0
LWPOLYLINE
  5
3AD
100
AcDbEntity
  8
2
  6
CONTINUOUS
 62
     0
100
AcDbPolyline
 90
        6
 70
     1
 43
0.0
 10
1.44337567297407
 20
0.0
 10
0.721687836487035
 20
1.25
 10
-0.721687836487035
 20
1.25
 10
-1.44337567297396
 20
0.0
 10
-0.721687836487035
 20
-1.25
 10
0.721687836487035
 20
-1.25
  0
ENDBLK
  5
3AE
100
AcDbEntity
  8
2
100
AcDbBlockEnd
  0
BLOCK
  5
3B1
100
AcDbEntity
  8
2
100
AcDbBlockBegin
  2
SUB17
 70
    64
 10
0.0
 20
0.0
  0
CIRCLE
  5
3B2
100
AcDbEntity
  8
2
  6
CONTINUOUS
 62
     0
100
AcDbCircle
 10
0.0
 20
0.0
 40
2.75
  0
CIRCLE
  5
3B3
100
AcDbEntity
  8
2
  6
CONTINUOUS
 62
     0
100
AcDbCircle
 10
0.0
 20
0.0
 40
2.41
  0
LWPOLYLINE
  5
3B4
100
AcDbEntity
  8
2
  6
CONTINUOUS
 62
     0
100
AcDbPolyline
 90
        6
 70
     1
 43
0.0
 10
1.44337567297407
 20
0.0
 10
0.721687836487035
 20
1.25
 10
-0.721687836487035
 20
1.25
 10
-1.4433756729735
 20
0.0
 10
-0.721687836487035
 20
-1.25
 10
0.721687836487035
 20
-1.25
  0
ENDBLK
  5
3B5
100
AcDbEntity
  8
2
100
AcDbBlockEnd
  0
BLOCK
  5
3B8
100
AcDbEntity
  8
2
100
AcDbBlockBegin
  2
SUB18
 70
    64
 10
0.0
 20
0.0
  0
CIRCLE
  5
3B9
100
AcDbEntity
  8
2
  6
CONTINUOUS
 62
     0
100
AcDbCircle
 10
0.0
 20
0.0
 40
2.75
  0
CIRCLE
  5
3BA
100
AcDbEntity
  8
2
  6
CONTINUOUS
 62
     0
100
AcDbCircle
 10
0.0
 20
0.0
 40
2.41
  0
LWPOLYLINE
  5
3BB
100
AcDbEntity
  8
2
  6
CONTINUOUS
 62
     0
100
AcDbPolyline
 90
        6
 70
     1
 43
0.0
 10
1.44337567297407
 20
0.0
 10
0.721687836487035
 20
1.25
 10
-0.721687836487035
 20
1.25
 10
-1.4433756729735
 20
0.0
 10
-0.721687836487035
 20
-1.25
 10
0.721687836487035
 20
-1.25
  0
ENDBLK
  5
3BC
100
AcDbEntity
  8
2
100
AcDbBlockEnd
  0
BLOCK
  5
3BF
100
AcDbEntity
  8
2
100
AcDbBlockBegin
  2
SUB19
 70
    64
 10
0.0
 20
0.0
  0
CIRCLE
  5
3C0
100
AcDbEntity
  8
2
  6
CONTINUOUS
 62
     0
100
AcDbCircle
 10
0.0
 20
0.0
 40
2.75
  0
CIRCLE
  5
3C1
100
AcDbEntity
  8
2
  6
CONTINUOUS
 62
     0
100
AcDbCircle
 10
0.0
 20
0.0
 40
2.41
  0
LWPOLYLINE
  5
3C2
100
AcDbEntity
  8
2
  6
CONTINUOUS
 62
     0
100
AcDbPolyline
 90
        6
 70
     1
 43
0.0
 10
1.44337567297407
 20
0.0
 10
0.721687836487035
 20
1.25
 10
-0.721687836487035
 20
1.25
 10
-1.44337567297396
 20
0.0
 10
-0.721687836487035
 20
-1.25
 10
0.721687836487035
 20
-1.25
  0
ENDBLK
  5
3C3
100
AcDbEntity
  8
2
100
AcDbBlockEnd
  0
BLOCK
  5
3C6
100
AcDbEntity
  8
2
100
AcDbBlockBegin
  2
SUB20
 70
    64
 10
0.0
 20
0.0
  0
CIRCLE
  5
3C7
100
AcDbEntity
  8
2
  6
CONTINUOUS
 62
     0
100
AcDbCircle
 10
0.0
 20
0.0
 40
2.75
  0
CIRCLE
  5
3C8
100
AcDbEntity
  8
2
  6
CONTINUOUS
 62
     0
100
AcDbCircle
 10
0.0
 20
0.0
 40
2.41
  0
LWPOLYLINE
  5
3C9
100
AcDbEntity
  8
2
  6
CONTINUOUS
 62
     0
100
AcDbPolyline
 90
        6
 70
     1
 43
0.0
 10
1.44337567297418
 20
0.0
 10
0.721687836487035
 20
1.25
 10
-0.721687836486922
 20
1.25
 10
-1.44337567297407
 20
0.0
 10
-0.721687836486922
 20
-1.25
 10
0.721687836487035
 20
-1.25
  0
ENDBLK
  5
3CA
100
AcDbEntity
  8
2
100
AcDbBlockEnd
  0
BLOCK
  5
442
100
AcDbEntity
  8
7
100
AcDbBlockBegin
  2
SUB21
 70
    64
 10
0.0
 20
0.0
  0
LINE
  5
443
100
AcDbEntity
  8
2
  6
CONTINUOUS
 62
     0
100
AcDbLine
 10
0.0
 20
-2.75
 11
0.0
 21
2.75
  0
LINE
  5
444
100
AcDbEntity
  8
2
  6
CONTINUOUS
 62
     0
100
AcDbLine
 10
0.699999999999932
 20
-2.75
 11
0.699999999999932
 21
2.75
  0
LINE
  5
445
100
AcDbEntity
  8
2
  6
CONTINUOUS
 62
     0
100
AcDbLine
 10
3.5
 20
2.75
 11
0.0
 21
2.75
  0
LINE
  5
446
100
AcDbEntity
  8
2
  6
CONTINUOUS
 62
     0
100
AcDbLine
 10
3.5
 20
-2.75
 11
0.0
 21
-2.75
  0
LINE
  5
447
100
AcDbEntity
  8
2
  6
CONTINUOUS
 62
     0
100
AcDbLine
 10
3.69999999999993
 20
-2.40358983848603
 11
3.69999999999993
 21
2.40358983848591
  0
LINE
  5
448
100
AcDbEntity
  8
2
  6
CONTINUOUS
 62
     0
100
AcDbLine
 10
3.5
 20
-2.75
 11
3.5
 21
2.75
  0
LINE
  5
449
100
AcDbEntity
  8
2
  6
CONTINUOUS
 62
     0
100
AcDbLine
 10
3.5
 20
2.75
 11
3.69999999999993
 21
2.40358983848591
  0
LINE
  5
44A
100
AcDbEntity
  8
2
  6
CONTINUOUS
 62
     0
100
AcDbLine
 10
3.5
 20
-2.75
 11
3.69999999999993
 21
-2.40358983848603
  0
LINE
  5
44B
100
AcDbEntity
  8
2
  6
CONTINUOUS
 62
     0
100
AcDbLine
 10
0.699999999999932
 20
0.0
 11
0.0
 21
-0.885575294495084
  0
LINE
  5
44C
100
AcDbEntity
  8
2
  6
CONTINUOUS
 62
     0
100
AcDbLine
 10
0.0
 20
0.0
 11
0.699999999999932
 21
0.883089601994016
  0
ENDBLK
  5
44D
100
AcDbEntity
  8
2
100
AcDbBlockEnd
  0
BLOCK
  5
451
100
AcDbEntity
  8
7
100
AcDbBlockBegin
  2
SUB22
 70
    64
 10
0.0
 20
0.0
  0
LINE
  5
452
100
AcDbEntity
  8
2
  6
CONTINUOUS
 62
     0
100
AcDbLine
 10
0.0
 20
-2.75
 11
0.0
 21
2.75
  0
LINE
  5
453
100
AcDbEntity
  8
2
  6
CONTINUOUS
 62
     0
100
AcDbLine
 10
0.699999999999932
 20
-2.75
 11
0.699999999999932
 21
2.75
  0
LINE
  5
454
100
AcDbEntity
  8
2
  6
CONTINUOUS
 62
     0
100
AcDbLine
 10
3.5
 20
2.75
 11
0.0
 21
2.75
  0
LINE
  5
455
100
AcDbEntity
  8
2
  6
CONTINUOUS
 62
     0
100
AcDbLine
 10
3.5
 20
-2.75
 11
0.0
 21
-2.75
  0
LINE
  5
456
100
AcDbEntity
  8
2
  6
CONTINUOUS
 62
     0
100
AcDbLine
 10
3.69999999999993
 20
-2.40358983848603
 11
3.69999999999993
 21
2.40358983848591
  0
LINE
  5
457
100
AcDbEntity
  8
2
  6
CONTINUOUS
 62
     0
100
AcDbLine
 10
3.5
 20
-2.75
 11
3.5
 21
2.75
  0
LINE
  5
458
100
AcDbEntity
  8
2
  6
CONTINUOUS
 62
     0
100
AcDbLine
 10
3.5
 20
2.75
 11
3.69999999999993
 21
2.40358983848591
  0
LINE
  5
459
100
AcDbEntity
  8
2
  6
CONTINUOUS
 62
     0
100
AcDbLine
 10
3.5
 20
-2.75
 11
3.69999999999993
 21
-2.40358983848603
  0
LINE
  5
45A
100
AcDbEntity
  8
2
  6
CONTINUOUS
 62
     0
100
AcDbLine
 10
0.699999999999932
 20
0.0
 11
0.0
 21
-0.885575294495084
  0
LINE
  5
45B
100
AcDbEntity
  8
2
  6
CONTINUOUS
 62
     0
100
AcDbLine
 10
0.0
 20
0.0
 11
0.699999999999932
 21
0.883089601994016
  0
ENDBLK
  5
45C
100
AcDbEntity
  8
2
100
AcDbBlockEnd
  0
BLOCK
  5
460
100
AcDbEntity
  8
7
100
AcDbBlockBegin
  2
SUB23
 70
    64
 10
0.0
 20
0.0
  0
LINE
  5
461
100
AcDbEntity
  8
2
  6
CONTINUOUS
 62
     0
100
AcDbLine
 10
0.0
 20
-2.75
 11
0.0
 21
2.75
  0
LINE
  5
462
100
AcDbEntity
  8
2
  6
CONTINUOUS
 62
     0
100
AcDbLine
 10
0.699999999999932
 20
-2.75
 11
0.699999999999932
 21
2.75
  0
LINE
  5
463
100
AcDbEntity
  8
2
  6
CONTINUOUS
 62
     0
100
AcDbLine
 10
3.5
 20
2.75
 11
0.0
 21
2.75
  0
LINE
  5
464
100
AcDbEntity
  8
2
  6
CONTINUOUS
 62
     0
100
AcDbLine
 10
3.5
 20
-2.75
 11
0.0
 21
-2.75
  0
LINE
  5
465
100
AcDbEntity
  8
2
  6
CONTINUOUS
 62
     0
100
AcDbLine
 10
3.69999999999993
 20
-2.40358983848603
 11
3.69999999999993
 21
2.40358983848603
  0
LINE
  5
466
100
AcDbEntity
  8
2
  6
CONTINUOUS
 62
     0
100
AcDbLine
 10
3.5
 20
-2.75
 11
3.5
 21
2.75
  0
LINE
  5
467
100
AcDbEntity
  8
2
  6
CONTINUOUS
 62
     0
100
AcDbLine
 10
3.5
 20
2.75
 11
3.69999999999993
 21
2.40358983848603
  0
LINE
  5
468
100
AcDbEntity
  8
2
  6
CONTINUOUS
 62
     0
100
AcDbLine
 10
3.5
 20
-2.75
 11
3.69999999999993
 21
-2.40358983848603
  0
LINE
  5
469
100
AcDbEntity
  8
2
  6
CONTINUOUS
 62
     0
100
AcDbLine
 10
0.699999999999932
 20
0.0
 11
0.0
 21
-0.88557529449497
  0
LINE
  5
46A
100
AcDbEntity
  8
2
  6
CONTINUOUS
 62
     0
100
AcDbLine
 10
0.0
 20
0.0
 11
0.699999999999932
 21
0.883089601994016
  0
ENDBLK
  5
46B
100
AcDbEntity
  8
2
100
AcDbBlockEnd
  0
BLOCK
  5
473
100
AcDbEntity
  8
7
100
AcDbBlockBegin
  2
SUB24
 70
    64
 10
0.0
 20
0.0
  0
LINE
  5
474
100
AcDbEntity
  8
2
  6
CONTINUOUS
 62
     0
100
AcDbLine
 10
0.0
 20
-2.75
 11
0.0
 21
2.75
  0
LINE
  5
475
100
AcDbEntity
  8
2
  6
CONTINUOUS
 62
     0
100
AcDbLine
 10
0.699999999999932
 20
-2.75
 11
0.699999999999932
 21
2.75
  0
LINE
  5
476
100
AcDbEntity
  8
2
  6
CONTINUOUS
 62
     0
100
AcDbLine
 10
3.5
 20
2.75
 11
0.0
 21
2.75
  0
LINE
  5
477
100
AcDbEntity
  8
2
  6
CONTINUOUS
 62
     0
100
AcDbLine
 10
3.5
 20
-2.75
 11
0.0
 21
-2.75
  0
LINE
  5
478
100
AcDbEntity
  8
2
  6
CONTINUOUS
 62
     0
100
AcDbLine
 10
3.69999999999993
 20
-2.40358983848603
 11
3.69999999999993
 21
2.40358983848603
  0
LINE
  5
479
100
AcDbEntity
  8
2
  6
CONTINUOUS
 62
     0
100
AcDbLine
 10
3.5
 20
-2.75
 11
3.5
 21
2.75
  0
LINE
  5
47A
100
AcDbEntity
  8
2
  6
CONTINUOUS
 62
     0
100
AcDbLine
 10
3.5
 20
2.75
 11
3.69999999999993
 21
2.40358983848603
  0
LINE
  5
47B
100
AcDbEntity
  8
2
  6
CONTINUOUS
 62
     0
100
AcDbLine
 10
3.5
 20
-2.75
 11
3.69999999999993
 21
-2.40358983848603
  0
LINE
  5
47C
100
AcDbEntity
  8
2
  6
CONTINUOUS
 62
     0
100
AcDbLine
 10
0.699999999999932
 20
0.0
 11
0.0
 21
-0.88557529449497
  0
LINE
  5
47D
100
AcDbEntity
  8
2
  6
CONTINUOUS
 62
     0
100
AcDbLine
 10
0.0
 20
0.0
 11
0.699999999999932
 21
0.883089601994016
  0
ENDBLK
  5
47E
100
AcDbEntity
  8
2
100
AcDbBlockEnd
  0
BLOCK
  5
52B
100
AcDbEntity
  8
2
100
AcDbBlockBegin
  2
SUB25
 70
    64
 10
0.0
 20
0.0
  0
LINE
  5
52C
100
AcDbEntity
  8
2
  6
CONTINUOUS
 62
     0
100
AcDbLine
 10
2.75
 20
0.0
 11
-2.75
 21
0.0
  0
LINE
  5
52D
100
AcDbEntity
  8
2
  6
CONTINUOUS
 62
     0
100
AcDbLine
 10
2.75
 20
-0.699999999999989
 11
-2.75
 21
-0.699999999999989
  0
LINE
  5
52E
100
AcDbEntity
  8
2
  6
CONTINUOUS
 62
     0
100
AcDbLine
 10
-2.75
 20
-3.5
 11
-2.75
 21
0.0
  0
LINE
  5
52F
100
AcDbEntity
  8
2
  6
CONTINUOUS
 62
     0
100
AcDbLine
 10
2.75
 20
-3.5
 11
2.75
 21
0.0
  0
LINE
  5
530
100
AcDbEntity
  8
2
  6
CONTINUOUS
 62
     0
100
AcDbLine
 10
2.40358983848591
 20
-3.69999999999999
 11
-2.40358983848614
 21
-3.69999999999999
  0
LINE
  5
531
100
AcDbEntity
  8
2
  6
CONTINUOUS
 62
     0
100
AcDbLine
 10
2.75
 20
-3.5
 11
-2.75
 21
-3.5
  0
LINE
  5
532
100
AcDbEntity
  8
2
  6
CONTINUOUS
 62
     0
100
AcDbLine
 10
-2.75
 20
-3.5
 11
-2.40358983848614
 21
-3.69999999999999
  0
LINE
  5
533
100
AcDbEntity
  8
2
  6
CONTINUOUS
 62
     0
100
AcDbLine
 10
2.75
 20
-3.5
 11
2.40358983848591
 21
-3.69999999999999
  0
LINE
  5
534
100
AcDbEntity
  8
2
  6
CONTINUOUS
 62
     0
100
AcDbLine
 10
0.0
 20
-0.699999999999989
 11
0.885575294494856
 21
0.0
  0
LINE
  5
535
100
AcDbEntity
  8
2
  6
CONTINUOUS
 62
     0
100
AcDbLine
 10
0.0
 20
0.0
 11
-0.883089601994016
 21
-0.699999999999989
  0
ENDBLK
  5
536
100
AcDbEntity
  8
2
100
AcDbBlockEnd
  0
BLOCK
  5
539
100
AcDbEntity
  8
2
100
AcDbBlockBegin
  2
SUB26
 70
    64
 10
0.0
 20
0.0
  0
LINE
  5
53A
100
AcDbEntity
  8
2
  6
CONTINUOUS
 62
     0
100
AcDbLine
 10
-1.375
 20
2.38156986040721
 11
1.375
 21
-2.38156986040718
  0
LINE
  5
53B
100
AcDbEntity
  8
2
  6
CONTINUOUS
 62
     0
100
AcDbLine
 10
-0.768782217350008
 20
2.73156986040721
 11
1.98121778264999
 21
-2.03156986040722
  0
LINE
  5
53C
100
AcDbEntity
  8
2
  6
CONTINUOUS
 62
     0
100
AcDbLine
 10
4.40608891324609
 20
-0.631569860407183
 11
1.375
 21
-2.38156986040718
  0
LINE
  5
53D
100
AcDbEntity
  8
2
  6
CONTINUOUS
 62
     0
100
AcDbLine
 10
1.65608891324609
 20
4.13156986040721
 11
-1.375
 21
2.38156986040721
  0
LINE
  5
53E
100
AcDbEntity
  8
2
  6
CONTINUOUS
 62
     0
100
AcDbLine
 10
2.00249907475995
 20
3.93156986040719
 11
4.40608891324609
 21
-0.231569860407205
  0
LINE
  5
53F
100
AcDbEntity
  8
2
  6
CONTINUOUS
 62
     0
100
AcDbLine
 10
1.65608891324609
 20
4.13156986040721
 11
4.40608891324609
 21
-0.631569860407183
  0
LINE
  5
540
100
AcDbEntity
  8
2
  6
CONTINUOUS
 62
     0
100
AcDbLine
 10
4.40608891324609
 20
-0.631569860407183
 11
4.40608891324609
 21
-0.231569860407205
  0
LINE
  5
541
100
AcDbEntity
  8
2
  6
CONTINUOUS
 62
     0
100
AcDbLine
 10
1.65608891324609
 20
4.13156986040721
 11
2.00249907475995
 21
3.93156986040719
  0
LINE
  5
542
100
AcDbEntity
  8
2
  6
CONTINUOUS
 62
     0
100
AcDbLine
 10
0.606217782649992
 20
0.349999999999994
 11
-0.44278764724686
 21
0.766930701996216
  0
LINE
  5
543
100
AcDbEntity
  8
2
  6
CONTINUOUS
 62
     0
100
AcDbLine
 10
0.0
 20
0.0
 11
1.04776258364609
 21
-0.414778029144316
  0
ENDBLK
  5
544
100
AcDbEntity
  8
2
100
AcDbBlockEnd
  0
BLOCK
  5
548
100
AcDbEntity
  8
2
100
AcDbBlockBegin
  2
SUB27
 70
    64
 10
0.0
 20
0.0
  0
LINE
  5
549
100
AcDbEntity
  8
2
  6
CONTINUOUS
 62
     0
100
AcDbLine
 10
-1.375
 20
-2.38156986040718
 11
1.375
 21
2.38156986040721
  0
LINE
  5
54A
100
AcDbEntity
  8
2
  6
CONTINUOUS
 62
     0
100
AcDbLine
 10
-1.98121778264886
 20
-2.03156986040722
 11
0.768782217351145
 21
2.73156986040721
  0
LINE
  5
54B
100
AcDbEntity
  8
2
  6
CONTINUOUS
 62
     0
100
AcDbLine
 10
-1.65608891324473
 20
4.13156986040721
 11
1.375
 21
2.38156986040721
  0
LINE
  5
54C
100
AcDbEntity
  8
2
  6
CONTINUOUS
 62
     0
100
AcDbLine
 10
-4.40608891324473
 20
-0.631569860407183
 11
-1.375
 21
-2.38156986040718
  0
LINE
  5
54D
100
AcDbEntity
  8
2
  6
CONTINUOUS
 62
     0
100
AcDbLine
 10
-4.40608891324473
 20
-0.231569860407205
 11
-2.00249907475882
 21
3.93156986040731
  0
LINE
  5
54E
100
AcDbEntity
  8
2
  6
CONTINUOUS
 62
     0
100
AcDbLine
 10
-4.40608891324473
 20
-0.631569860407183
 11
-1.65608891324473
 21
4.13156986040721
  0
LINE
  5
54F
100
AcDbEntity
  8
2
  6
CONTINUOUS
 62
     0
100
AcDbLine
 10
-1.65608891324473
 20
4.13156986040721
 11
-2.00249907475882
 21
3.93156986040731
  0
LINE
  5
550
100
AcDbEntity
  8
2
  6
CONTINUOUS
 62
     0
100
AcDbLine
 10
-4.40608891324473
 20
-0.631569860407183
 11
-4.40608891324473
 21
-0.231569860407205
  0
LINE
  5
551
100
AcDbEntity
  8
2
  6
CONTINUOUS
 62
     0
100
AcDbLine
 10
-0.606217782648855
 20
0.349999999999994
 11
-0.44278764724686
 21
-0.766930701996216
  0
LINE
  5
552
100
AcDbEntity
  8
2
  6
CONTINUOUS
 62
     0
100
AcDbLine
 10
0.0
 20
0.0
 11
-0.164672981651847
 21
1.1147780291443
  0
ENDBLK
  5
553
100
AcDbEntity
  8
2
100
AcDbBlockEnd
  0
BLOCK
  5
595
100
AcDbEntity
  8
2
100
AcDbBlockBegin
  2
SUB28
 70
    64
 10
0.0
 20
0.0
  0
CIRCLE
  5
596
100
AcDbEntity
  8
2
  6
CONTINUOUS
 62
     0
100
AcDbCircle
 10
0.0
 20
0.0
 40
2.75
  0
CIRCLE
  5
597
100
AcDbEntity
  8
2
  6
CONTINUOUS
 62
     0
100
AcDbCircle
 10
0.0
 20
0.0
 40
2.41
  0
LWPOLYLINE
  5
598
100
AcDbEntity
  8
2
  6
CONTINUOUS
 62
     0
100
AcDbPolyline
 90
        6
 70
     1
 43
0.0
 10
1.44337567297407
 20
0.0
 10
0.721687836487035
 20
1.25
 10
-0.721687836487035
 20
1.25
 10
-1.44337567297407
 20
0.0
 10
-0.721687836487035
 20
-1.25
 10
0.721687836487035
 20
-1.25
  0
ENDBLK
  5
599
100
AcDbEntity
  8
2
100
AcDbBlockEnd
  0
BLOCK
  5
59C
100
AcDbEntity
  8
2
100
AcDbBlockBegin
  2
SUB29
 70
    64
 10
0.0
 20
0.0
  0
CIRCLE
  5
59D
100
AcDbEntity
  8
2
  6
CONTINUOUS
 62
     0
100
AcDbCircle
 10
0.0
 20
0.0
 40
2.75
  0
CIRCLE
  5
59E
100
AcDbEntity
  8
2
  6
CONTINUOUS
 62
     0
100
AcDbCircle
 10
0.0
 20
0.0
 40
2.41
  0
LWPOLYLINE
  5
59F
100
AcDbEntity
  8
2
  6
CONTINUOUS
 62
     0
100
AcDbPolyline
 90
        6
 70
     1
 43
0.0
 10
1.44337567297407
 20
0.0
 10
0.721687836487035
 20
1.25
 10
-0.721687836487035
 20
1.25
 10
-1.44337567297407
 20
0.0
 10
-0.721687836487035
 20
-1.25
 10
0.721687836487035
 20
-1.25
  0
ENDBLK
  5
5A0
100
AcDbEntity
  8
2
100
AcDbBlockEnd
  0
BLOCK
  5
5AF
100
AcDbEntity
  8
2
100
AcDbBlockBegin
  2
SUB30
 70
    64
 10
0.0
 20
0.0
  0
CIRCLE
  5
5B0
100
AcDbEntity
  8
2
  6
CONTINUOUS
 62
     0
100
AcDbCircle
 10
0.0
 20
0.0
 40
2.75
  0
CIRCLE
  5
5B1
100
AcDbEntity
  8
2
  6
CONTINUOUS
 62
     0
100
AcDbCircle
 10
0.0
 20
0.0
 40
2.41
  0
LWPOLYLINE
  5
5B2
100
AcDbEntity
  8
2
  6
CONTINUOUS
 62
     0
100
AcDbPolyline
 90
        6
 70
     1
 43
0.0
 10
1.44337567297384
 20
0.0
 10
0.721687836487035
 20
1.25
 10
-0.721687836487035
 20
1.25
 10
-1.44337567297407
 20
0.0
 10
-0.721687836487035
 20
-1.25
 10
0.721687836487035
 20
-1.25
  0
ENDBLK
  5
5B3
100
AcDbEntity
  8
2
100
AcDbBlockEnd
  0
BLOCK
  5
5B6
100
AcDbEntity
  8
2
100
AcDbBlockBegin
  2
SUB31
 70
    64
 10
0.0
 20
0.0
  0
CIRCLE
  5
5B7
100
AcDbEntity
  8
2
  6
CONTINUOUS
 62
     0
100
AcDbCircle
 10
0.0
 20
0.0
 40
2.75
  0
CIRCLE
  5
5B8
100
AcDbEntity
  8
2
  6
CONTINUOUS
 62
     0
100
AcDbCircle
 10
0.0
 20
0.0
 40
2.41
  0
LWPOLYLINE
  5
5B9
100
AcDbEntity
  8
2
  6
CONTINUOUS
 62
     0
100
AcDbPolyline
 90
        6
 70
     1
 43
0.0
 10
1.44337567297384
 20
0.0
 10
0.721687836487035
 20
1.25
 10
-0.721687836487035
 20
1.25
 10
-1.44337567297407
 20
0.0
 10
-0.721687836487035
 20
-1.25
 10
0.721687836487035
 20
-1.25
  0
ENDBLK
  5
5BA
100
AcDbEntity
  8
2
100
AcDbBlockEnd
  0
BLOCK
  5
756
100
AcDbEntity
  8
7
100
AcDbBlockBegin
  2
COMP1
 70
    64
 10
0.0
 20
0.0
  0
LINE
  5
757
100
AcDbEntity
  8
7
  6
CENTER2
 62
    40
100
AcDbLine
 10
494.809930085059
 20
254.5
 11
673.100000000002
 21
254.5
  0
ARC
  5
758
100
AcDbEntity
  8
7
  6
CENTER2
 62
    40
100
AcDbCircle
 10
494.809930085059
 20
221.5
 40
33.0
100
AcDbArc
 50
90.0
 51
150.0
  0
ARC
  5
759
100
AcDbEntity
  8
7
  6
CENTER2
 62
    40
100
AcDbCircle
 10
425.527897782304
 20
261.5
 40
47.0
100
AcDbArc
 50
270.0
 51
330.0
  0
LINE
  5
75A
100
AcDbEntity
  8
7
  6
CENTER2
 62
    40
100
AcDbLine
 10
188.826048808839
 20
214.5
 11
425.527897782304
 21
214.5
  0
ENDBLK
  5
75B
100
AcDbEntity
  8
7
100
AcDbBlockEnd
  0
BLOCK
  5
75E
100
AcDbEntity
  8
2
100
AcDbBlockBegin
  2
COMP2
 70
    64
 10
0.0
 20
0.0
  0
LINE
  5
75F
100
AcDbEntity
  8
2
  6
CONTINUOUS
 62
     0
100
AcDbLine
 10
204.000000000001
 20
228.0
 11
204.000000000001
 21
201.0
  0
LINE
  5
760
100
AcDbEntity
  8
2
  6
CONTINUOUS
 62
     0
100
AcDbLine
 10
207.000000000001
 20
199.9
 11
217.000000000001
 21
199.9
  0
LINE
  5
761
100
AcDbEntity
  8
2
  6
CONTINUOUS
 62
     0
100
AcDbLine
 10
252.500000000001
 20
222.2
 11
250.500000000001
 21
224.2
  0
LINE
  5
762
100
AcDbEntity
  8
2
  6
CONTINUOUS
 62
     0
100
AcDbLine
 10
250.500000000001
 20
222.2
 11
252.500000000001
 21
224.2
  0
CIRCLE
  5
763
100
AcDbEntity
  8
2
  6
CONTINUOUS
 62
     0
100
AcDbCircle
 10
251.500000000001
 20
223.2
 40
2.75
  0
LINE
  5
764
100
AcDbEntity
  8
2
  6
CONTINUOUS
 62
     0
100
AcDbLine
 10
247.000000000001
 20
224.5
 11
247.000000000001
 21
204.5
  0
LINE
  5
765
100
AcDbEntity
  8
2
  6
CONTINUOUS
 62
     0
100
AcDbLine
 10
207.000000000001
 20
227.0
 11
217.000000000001
 21
227.0
  0
LINE
  5
766
100
AcDbEntity
  8
2
  6
CONTINUOUS
 62
     0
100
AcDbLine
 10
217.000000000001
 20
226.0
 11
207.000000000001
 21
226.0
  0
LINE
  5
767
100
AcDbEntity
  8
2
  6
CONTINUOUS
 62
     0
100
AcDbLine
 10
207.000000000001
 20
225.0
 11
217.000000000001
 21
225.0
  0
LINE
  5
768
100
AcDbEntity
  8
2
  6
CONTINUOUS
 62
     0
100
AcDbLine
 10
217.000000000001
 20
224.0
 11
207.000000000001
 21
224.0
  0
LINE
  5
769
100
AcDbEntity
  8
2
  6
CONTINUOUS
 62
     0
100
AcDbLine
 10
207.000000000001
 20
223.0
 11
217.000000000001
 21
223.0
  0
LINE
  5
76A
100
AcDbEntity
  8
2
  6
CONTINUOUS
 62
     0
100
AcDbLine
 10
217.000000000001
 20
222.0
 11
207.000000000001
 21
222.0
  0
LINE
  5
76B
100
AcDbEntity
  8
2
  6
CONTINUOUS
 62
     0
100
AcDbLine
 10
255.000000000001
 20
205.0
 11
255.000000000001
 21
224.0
  0
LINE
  5
76C
100
AcDbEntity
  8
2
  6
CONTINUOUS
 62
     0
100
AcDbLine
 10
220.000000000001
 20
227.3
 11
230.000000000001
 21
227.3
  0
ARC
  5
76D
100
AcDbEntity
  8
2
  6
CONTINUOUS
 62
     0
100
AcDbCircle
 10
246.916000000001
 20
226.547
 40
1.99999999999995
100
AcDbArc
 50
259.795999999989
 51
320.445000000004
  0
ARC
  5
76E
100
AcDbEntity
  8
2
  6
CONTINUOUS
 62
     0
100
AcDbCircle
 10
253.000000000001
 20
224.0
 40
1.99999999999994
100
AcDbArc
 50
0.0
 51
90.0
  0
LINE
  5
76F
100
AcDbEntity
  8
2
  6
CONTINUOUS
 62
     0
100
AcDbLine
 10
253.000000000001
 20
226.0
 11
250.000000000001
 21
226.0
  0
ARC
  5
770
100
AcDbEntity
  8
2
  6
CONTINUOUS
 62
     0
100
AcDbCircle
 10
250.000000000001
 20
224.0
 40
1.99999999999994
100
AcDbArc
 50
90.0
 51
180.0
  0
LINE
  5
771
100
AcDbEntity
  8
2
  6
CONTINUOUS
 62
     0
100
AcDbLine
 10
248.000000000001
 20
224.0
 11
248.000000000001
 21
205.0
  0
LINE
  5
772
100
AcDbEntity
  8
2
  6
CONTINUOUS
 62
     0
100
AcDbLine
 10
220.000000000001
 20
228.0
 11
217.000000000001
 21
228.0
  0
LINE
  5
773
100
AcDbEntity
  8
2
  6
CONTINUOUS
 62
     0
100
AcDbLine
 10
217.000000000001
 20
228.5
 11
207.000000000001
 21
228.5
  0
LINE
  5
774
100
AcDbEntity
  8
2
  6
CONTINUOUS
 62
     0
100
AcDbLine
 10
220.000000000001
 20
201.0
 11
220.000000000001
 21
228.0
  0
LINE
  5
775
100
AcDbEntity
  8
2
  6
CONTINUOUS
 62
     0
100
AcDbLine
 10
217.000000000001
 20
199.9
 11
217.000000000001
 21
229.1
  0
LINE
  5
776
100
AcDbEntity
  8
2
  6
CONTINUOUS
 62
     0
100
AcDbLine
 10
217.000000000001
 20
221.0
 11
207.000000000001
 21
221.0
  0
LINE
  5
777
100
AcDbEntity
  8
2
  6
CONTINUOUS
 62
     0
100
AcDbLine
 10
217.000000000001
 20
220.0
 11
207.000000000001
 21
220.0
  0
LINE
  5
778
100
AcDbEntity
  8
2
  6
CONTINUOUS
 62
     0
100
AcDbLine
 10
217.000000000001
 20
219.0
 11
207.000000000001
 21
219.0
  0
LINE
  5
779
100
AcDbEntity
  8
2
  6
CONTINUOUS
 62
     0
100
AcDbLine
 10
217.000000000001
 20
218.0
 11
207.000000000001
 21
218.0
  0
LINE
  5
77A
100
AcDbEntity
  8
2
  6
CONTINUOUS
 62
     0
100
AcDbLine
 10
217.000000000001
 20
217.0
 11
207.000000000001
 21
217.0
  0
LINE
  5
77B
100
AcDbEntity
  8
2
  6
CONTINUOUS
 62
     0
100
AcDbLine
 10
204.000000000001
 20
228.0
 11
217.000000000001
 21
228.0
  0
LINE
  5
77C
100
AcDbEntity
  8
2
  6
CONTINUOUS
 62
     0
100
AcDbLine
 10
247.000000000001
 20
224.5
 11
230.000000000001
 21
227.3
  0
LINE
  5
77D
100
AcDbEntity
  8
2
  6
CONTINUOUS
 62
     0
100
AcDbLine
 10
207.000000000001
 20
229.1
 11
217.000000000001
 21
229.1
  0
LINE
  5
77E
100
AcDbEntity
  8
2
  6
CONTINUOUS
 62
     0
100
AcDbLine
 10
217.000000000001
 20
215.0
 11
207.000000000001
 21
215.0
  0
LINE
  5
77F
100
AcDbEntity
  8
2
  6
CONTINUOUS
 62
     0
100
AcDbLine
 10
217.000000000001
 20
216.0
 11
207.000000000001
 21
216.0
  0
LINE
  5
780
100
AcDbEntity
  8
2
  6
CONTINUOUS
 62
     0
100
AcDbLine
 10
207.000000000001
 20
229.1
 11
207.000000000001
 21
199.9
  0
LINE
  5
781
100
AcDbEntity
  8
2
  6
CONTINUOUS
 62
     0
100
AcDbLine
 10
217.000000000001
 20
207.0
 11
207.000000000001
 21
207.0
  0
LINE
  5
782
100
AcDbEntity
  8
2
  6
CONTINUOUS
 62
     0
100
AcDbLine
 10
207.000000000001
 20
206.0
 11
217.000000000001
 21
206.0
  0
LINE
  5
783
100
AcDbEntity
  8
2
  6
CONTINUOUS
 62
     0
100
AcDbLine
 10
217.000000000001
 20
205.0
 11
207.000000000001
 21
205.0
  0
LINE
  5
784
100
AcDbEntity
  8
2
  6
CONTINUOUS
 62
     0
100
AcDbLine
 10
207.000000000001
 20
204.0
 11
217.000000000001
 21
204.0
  0
LINE
  5
785
100
AcDbEntity
  8
2
  6
CONTINUOUS
 62
     0
100
AcDbLine
 10
217.000000000001
 20
203.0
 11
207.000000000001
 21
203.0
  0
LINE
  5
786
100
AcDbEntity
  8
2
  6
CONTINUOUS
 62
     0
100
AcDbLine
 10
207.000000000001
 20
201.0
 11
217.000000000001
 21
201.0
  0
LINE
  5
787
100
AcDbEntity
  8
2
  6
CONTINUOUS
 62
     0
100
AcDbLine
 10
252.500000000001
 20
206.8
 11
250.500000000001
 21
204.8
  0
LINE
  5
788
100
AcDbEntity
  8
2
  6
CONTINUOUS
 62
     0
100
AcDbLine
 10
250.500000000001
 20
206.8
 11
252.500000000001
 21
204.8
  0
CIRCLE
  5
789
100
AcDbEntity
  8
2
  6
CONTINUOUS
 62
     0
100
AcDbCircle
 10
251.500000000001
 20
205.8
 40
2.75
  0
ARC
  5
78A
100
AcDbEntity
  8
2
  6
CONTINUOUS
 62
     0
100
AcDbCircle
 10
253.000000000001
 20
205.0
 40
1.99999999999994
100
AcDbArc
 50
270.0
 51
0.0
  0
ARC
  5
78B
100
AcDbEntity
  8
2
  6
CONTINUOUS
 62
     0
100
AcDbCircle
 10
250.000000000001
 20
205.0
 40
1.99999999999994
100
AcDbArc
 50
180.0
 51
270.0
  0
LINE
  5
78C
100
AcDbEntity
  8
2
  6
CONTINUOUS
 62
     0
100
AcDbLine
 10
250.000000000001
 20
203.0
 11
253.000000000001
 21
203.0
  0
ARC
  5
78D
100
AcDbEntity
  8
2
  6
CONTINUOUS
 62
     0
100
AcDbCircle
 10
246.916000000001
 20
202.453
 40
1.99999999999993
100
AcDbArc
 50
39.5549999999957
 51
100.204000000011
  0
LINE
  5
78E
100
AcDbEntity
  8
2
  6
CONTINUOUS
 62
     0
100
AcDbLine
 10
217.000000000001
 20
201.0
 11
220.000000000001
 21
201.0
  0
LINE
  5
78F
100
AcDbEntity
  8
2
  6
CONTINUOUS
 62
     0
100
AcDbLine
 10
220.000000000001
 20
201.7
 11
230.000000000001
 21
201.7
  0
LINE
  5
790
100
AcDbEntity
  8
2
  6
CONTINUOUS
 62
     0
100
AcDbLine
 10
207.000000000001
 20
200.5
 11
217.000000000001
 21
200.5
  0
LINE
  5
791
100
AcDbEntity
  8
2
  6
CONTINUOUS
 62
     0
100
AcDbLine
 10
207.000000000001
 20
210.0
 11
217.000000000001
 21
210.0
  0
LINE
  5
792
100
AcDbEntity
  8
2
  6
CONTINUOUS
 62
     0
100
AcDbLine
 10
217.000000000001
 20
209.0
 11
207.000000000001
 21
209.0
  0
LINE
  5
793
100
AcDbEntity
  8
2
  6
CONTINUOUS
 62
     0
100
AcDbLine
 10
207.000000000001
 20
208.0
 11
217.000000000001
 21
208.0
  0
LINE
  5
794
100
AcDbEntity
  8
2
  6
CONTINUOUS
 62
     0
100
AcDbLine
 10
204.000000000001
 20
201.0
 11
207.000000000001
 21
201.0
  0
LINE
  5
795
100
AcDbEntity
  8
2
  6
CONTINUOUS
 62
     0
100
AcDbLine
 10
217.000000000001
 20
202.0
 11
207.000000000001
 21
202.0
  0
LINE
  5
796
100
AcDbEntity
  8
2
  6
CONTINUOUS
 62
     0
100
AcDbLine
 10
246.561693100594
 20
204.421366485447
 11
230.000000000001
 21
201.7
  0
LINE
  5
797
100
AcDbEntity
  8
2
  6
CONTINUOUS
 62
     0
100
AcDbLine
 10
217.000000000001
 20
211.0
 11
207.000000000001
 21
211.0
  0
LINE
  5
798
100
AcDbEntity
  8
2
  6
CONTINUOUS
 62
     0
100
AcDbLine
 10
217.000000000001
 20
212.0
 11
207.000000000001
 21
212.0
  0
LINE
  5
799
100
AcDbEntity
  8
2
  6
CONTINUOUS
 62
     0
100
AcDbLine
 10
217.000000000001
 20
213.0
 11
207.000000000001
 21
213.0
  0
LINE
  5
79A
100
AcDbEntity
  8
2
  6
CONTINUOUS
 62
     0
100
AcDbLine
 10
217.000000000001
 20
214.0
 11
207.000000000001
 21
214.0
  0
LINE
  5
79B
100
AcDbEntity
  8
2
  6
CONTINUOUS
 62
     0
100
AcDbLine
 10
494.809930085059
 20
250.0
 11
673.100000000002
 21
250.0
  0
LINE
  5
79C
100
AcDbEntity
  8
2
  6
CONTINUOUS
 62
     0
100
AcDbLine
 10
673.100000000002
 20
259.0
 11
494.809930085059
 21
259.0
  0
ARC
  5
79D
100
AcDbEntity
  8
2
  6
CONTINUOUS
 62
     0
100
AcDbCircle
 10
494.809930085059
 20
221.5
 40
37.5
100
AcDbArc
 50
90.0
 51
150.0
  0
ARC
  5
79E
100
AcDbEntity
  8
2
  6
CONTINUOUS
 62
     0
100
AcDbCircle
 10
494.809930085059
 20
221.5
 40
28.5
100
AcDbArc
 50
90.0
 51
149.999999999999
  0
ARC
  5
79F
100
AcDbEntity
  8
2
  6
CONTINUOUS
 62
     0
100
AcDbCircle
 10
425.527897782304
 20
261.5
 40
51.5
100
AcDbArc
 50
270.0
 51
330.0
  0
ARC
  5
7A0
100
AcDbEntity
  8
2
  6
CONTINUOUS
 62
     0
100
AcDbCircle
 10
425.527897782304
 20
261.5
 40
42.5
100
AcDbArc
 50
270.0
 51
330.0
  0
LINE
  5
7A1
100
AcDbEntity
  8
2
  6
CONTINUOUS
 62
     0
100
AcDbLine
 10
255.000000000001
 20
210.0
 11
425.527897782304
 21
210.0
  0
LINE
  5
7A2
100
AcDbEntity
  8
2
  6
CONTINUOUS
 62
     0
100
AcDbLine
 10
425.527897782304
 20
219.0
 11
255.000000000001
 21
219.0
  0
ENDBLK
  5
7A3
100
AcDbEntity
  8
2
100
AcDbBlockEnd
  0
ENDSEC
  0
SECTION
  2
ENTITIES
  0
INSERT
  5
25
100
AcDbEntity
  8
0
  6
CONTINUOUS
100
AcDbBlockReference
  2
SUB1
 10
57.0000000000017
 20
0.0
 41
1.0
 42
1.0
 50
0.0
  0
CIRCLE
  5
273
100
AcDbEntity
  8
2
  6
CONTINUOUS
100
AcDbCircle
 10
57.0000000000016
 20
-179.999958757488
 40
12.4
  0
LINE
  5
274
100
AcDbEntity
  8
2
  6
CONTINUOUS
100
AcDbLine
 10
64.9693161563606
 20
-189.499958757488
 11
49.0306838436426
 21
-189.499958757488
  0
LINE
  5
275
100
AcDbEntity
  8
2
  6
CONTINUOUS
100
AcDbLine
 10
66.5000000000016
 20
-172.03064260113
 11
66.5000000000016
 21
-187.969274913847
  0
LINE
  5
276
100
AcDbEntity
  8
2
  6
CONTINUOUS
100
AcDbLine
 10
64.9693161563606
 20
-170.499958757488
 11
49.0306838436426
 21
-170.499958757488
  0
LINE
  5
277
100
AcDbEntity
  8
2
  6
CONTINUOUS
100
AcDbLine
 10
47.5000000000016
 20
-172.03064260113
 11
47.5000000000016
 21
-187.969274913847
  0
ARC
  5
278
100
AcDbEntity
  8
2
  6
CONTINUOUS
100
AcDbCircle
 10
57.0000000000016
 20
-179.999958757488
 40
11.4
100
AcDbArc
 50
303.557309761919
 51
326.442690238079
  0
ARC
  5
279
100
AcDbEntity
  8
2
  6
CONTINUOUS
100
AcDbCircle
 10
57.0000000000016
 20
-179.999958757488
 40
11.4
100
AcDbArc
 50
33.5573097619209
 51
56.4426902380806
  0
ARC
  5
27A
100
AcDbEntity
  8
2
  6
CONTINUOUS
100
AcDbCircle
 10
57.0000000000016
 20
-179.999958757488
 40
11.4
100
AcDbArc
 50
123.557309761919
 51
146.442690238079
  0
ARC
  5
27B
100
AcDbEntity
  8
2
  6
CONTINUOUS
100
AcDbCircle
 10
57.0000000000016
 20
-179.999958757488
 40
11.4
100
AcDbArc
 50
213.557309761921
 51
236.442690238081
  0
CIRCLE
  5
27C
100
AcDbEntity
  8
8
  6
CONTINUOUS
 62
     7
100
AcDbCircle
 10
24.0910263061523
 20
-160.999954223633
 40
5.0
  0
CIRCLE
  5
27D
100
AcDbEntity
  8
2
  6
CONTINUOUS
100
AcDbCircle
 10
24.0910263061523
 20
-160.999954223633
 40
4.25
  0
CIRCLE
  5
27E
100
AcDbEntity
  8
8
  6
CONTINUOUS
 62
     7
100
AcDbCircle
 10
57.0000228881836
 20
-217.999954223633
 40
5.0
  0
CIRCLE
  5
27F
100
AcDbEntity
  8
2
  6
CONTINUOUS
100
AcDbCircle
 10
57.0000228881836
 20
-217.999954223633
 40
4.25
  0
CIRCLE
  5
280
100
AcDbEntity
  8
8
  6
CONTINUOUS
 62
     7
100
AcDbCircle
 10
89.9089584350586
 20
-160.999954223633
 40
5.0
  0
CIRCLE
  5
281
100
AcDbEntity
  8
2
  6
CONTINUOUS
100
AcDbCircle
 10
89.9089584350586
 20
-160.999954223633
 40
4.25
  0
INSERT
  5
283
100
AcDbEntity
  8
7
  6
CENTER2
 62
    40
100
AcDbBlockReference
  2
SUB10
 10
67.086823812936
 20
-212.992472838213
 41
1.0
 42
1.0
 50
0.0
  0
INSERT
  5
28A
100
AcDbEntity
  8
7
  6
CENTER2
 62
    40
100
AcDbBlockReference
  2
SUB11
 10
80.5289434221577
 20
-154.768256051627
 41
1.0
 42
1.0
 50
0.0
  0
INSERT
  5
291
100
AcDbEntity
  8
7
  6
CENTER2
 62
    40
100
AcDbBlockReference
  2
SUB12
 10
23.3842327649116
 20
-172.239147382625
 41
1.0
 42
1.0
 50
0.0
  0
CIRCLE
  5
297
100
AcDbEntity
  8
2
  6
CONTINUOUS
100
AcDbCircle
 10
67.086823812936
 20
-212.992472838213
 40
4.5
  0
CIRCLE
  5
298
100
AcDbEntity
  8
2
  6
CONTINUOUS
100
AcDbCircle
 10
80.5289434221577
 20
-154.768256051627
 40
4.5
  0
CIRCLE
  5
299
100
AcDbEntity
  8
2
  6
CONTINUOUS
100
AcDbCircle
 10
23.3842327649116
 20
-172.239147382625
 40
4.5
  0
CIRCLE
  5
29A
100
AcDbEntity
  8
2
  6
CONTINUOUS
100
AcDbCircle
 10
57.0000000000016
 20
-217.999958757488
 40
5.5
  0
CIRCLE
  5
29B
100
AcDbEntity
  8
2
  6
CONTINUOUS
100
AcDbCircle
 10
89.9089653438103
 20
-160.999958757489
 40
5.5
  0
CIRCLE
  5
29C
100
AcDbEntity
  8
2
  6
CONTINUOUS
100
AcDbCircle
 10
24.0910423588332
 20
-160.99996320461
 40
5.5
  0
DIMENSION
  5
2AC
100
AcDbEntity
  8
4
  6
CONTINUOUS
 62
     2
100
AcDbDimension
  2
*D1
 10
24.5000000000016
 20
-94.9999587574885
 11
57.0000000000016
 21
-94.9999587574885
 70
    32
  3
ISO-25
100
AcDbAlignedDimension
 13
89.5000000000016
 23
-108.999958757487
 14
24.5000000000016
 24
-108.999958757487
 50
180.0
100
AcDbRotatedDimension
  0
DIMENSION
  5
2BC
100
AcDbEntity
  8
4
  6
CONTINUOUS
 62
     2
100
AcDbDimension
  2
*D2
 10
100.335948134741
 20
-79.9999587574885
 11
57.0000000144485
 21
-79.9999587574885
 70
    32
  3
ISO-25
100
AcDbAlignedDimension
 13
13.6640518941562
 23
-161.806673726401
 14
100.335948134741
 24
-161.806672402223
 50
0.0
100
AcDbRotatedDimension
  0
DIMENSION
  5
2CC
100
AcDbEntity
  8
4
  6
CONTINUOUS
 62
     2
100
AcDbDimension
  2
*D3
 10
-15.0
 20
-179.999958757488
 11
-15.0
 21
-203.499958757488
 70
    32
  3
ISO-25
100
AcDbAlignedDimension
 13
57.0000000000016
 23
-226.999958757488
 14
-2.99999999999841
 24
-179.999958757488
 50
90.0
100
AcDbRotatedDimension
  0
DIMENSION
  5
2DB
100
AcDbEntity
  8
4
  6
CONTINUOUS
 62
     2
100
AcDbDimension
  2
*D4
 10
-15.0
 20
-105.999958757488
 11
-15.0
 21
-142.999958757488
 70
    32
  3
ISO-25
100
AcDbAlignedDimension
 13
-2.99999999999841
 23
-179.999958757488
 14
26.5000000000016
 24
-105.999958757488
 50
90.0
100
AcDbRotatedDimension
1001
ACAD
1000
DSTYLE
1002
{
1070
    75
1070
     1
1002
}
  0
DIMENSION
  5
2EB
100
AcDbEntity
  8
4
  6
CONTINUOUS
 62
     2
100
AcDbDimension
  2
*D5
 10
66.5000000000016
 20
-247.825064223962
 11
57.0000000000016
 21
-247.825064223962
 70
    32
  3
ISO-25
100
AcDbAlignedDimension
 13
47.5000000000016
 23
-187.969274913847
 14
66.5000000000016
 24
-187.969274913847
 50
0.0
100
AcDbRotatedDimension
  0
DIMENSION
  5
2FB
100
AcDbEntity
  8
4
  6
CONTINUOUS
 62
     2
100
AcDbDimension
  2
*D6
 10
1.94222790152314
 20
-165.247273186644
 11
1.94222790152315
 21
-165.247273186644
 70
    37
  3
ISO-25
100
AcDb3PointAngularDimension
 13
13.6987298107796
 23
-154.999958757489
 14
-2.99999999999841
 24
-179.999958757488
 15
57.0000000000016
 25
-179.999958757488
  0
DIMENSION
  5
30B
100
AcDbEntity
  8
4
  6
CONTINUOUS
 62
     2
100
AcDbDimension
  2
*D7
 10
113.148169964392
 20
-164.955101959045
 11
113.148169964392
 21
-164.955101959045
 70
    37
  3
ISO-25
100
AcDb3PointAngularDimension
 13
112.425625842188
 23
-179.999958757488
 14
100.301270189224
 24
-154.999958757489
 15
57.0000000000016
 25
-179.999958757488
  0
DIMENSION
  5
31B
100
AcDbEntity
  8
4
  6
CONTINUOUS
 62
     2
100
AcDbDimension
  2
*D8
 10
128.588740321165
 20
-146.499958757487
 11
128.588740321165
 21
-163.249958757488
 70
    32
  3
ISO-25
100
AcDbAlignedDimension
 13
112.425625842188
 23
-179.999958757488
 14
89.5000000000016
 24
-146.499958757487
 50
90.0
100
AcDbRotatedDimension
  0
DIMENSION
  5
32A
100
AcDbEntity
  8
4
  6
CONTINUOUS
 62
     2
100
AcDbDimension
  2
*D9
 10
79.7987231185026
 20
-210.400916376714
 11
91.8706241739104
 21
-221.16439293707
 70
    35
  3
ISO-25
100
AcDbDiametricDimension
 15
34.2012768815006
 25
-149.599001138263
1001
ACAD
1000
DSTYLE
1002
{
1070
   280
1070
     1
1002
}
  0
DIMENSION
  5
339
100
AcDbEntity
  8
4
  6
CONTINUOUS
 62
     2
100
AcDbDimension
  2
*D10
 10
21.8201528581911
 20
-211.166902064121
 11
7.76652613678027
 21
-220.073729111697
 70
    35
  3
ISO-25
100
AcDbDiametricDimension
 15
92.179847141812
 25
-148.833015450856
1001
ACAD
1000
DSTYLE
1002
{
1070
   280
1070
     1
1002
}
  0
ARC
  5
33A
100
AcDbEntity
  8
8
  6
PHANTOM
 62
     7
100
AcDbCircle
 10
57.0000000000016
 20
-179.999958757488
 40
47.0
100
AcDbArc
 50
37.2263753860589
 51
47.9848489062221
  0
ARC
  5
33B
100
AcDbEntity
  8
8
  6
PHANTOM
 62
     7
100
AcDbCircle
 10
57.0000000000016
 20
-179.999958757488
 40
47.0
100
AcDbArc
 50
216.956175618778
 51
262.77362657159
  0
MTEXT
  5
33C
100
AcDbEntity
  8
4
  6
CONTINUOUS
 62
     2
100
AcDbMText
 10
78.9429400771987
 20
-236.915005139877
 40
3.5
 41
0.0
 11
1.0
 21
0.0
 71
     7
 72
     5
  7
STANDARD
  1
{\T1.60714;\W0.666667;3-M10}
  0
LINE
  5
33D
100
AcDbEntity
  8
4
  6
CONTINUOUS
 62
     2
100
AcDbLine
 10
60.9594532544318
 20
-221.49055535863
 11
78.4429400771987
 21
-237.415005139877
  0
LINE
  5
33E
100
AcDbEntity
  8
4
  6
CONTINUOUS
 62
     2
100
AcDbLine
 10
78.4429400771987
 20
-237.415005139877
 11
91.6929400771987
 21
-237.415005139877
  0
INSERT
  5
33F
100
AcDbEntity
  8
4
  6
CONTINUOUS
 62
     2
100
AcDbBlockReference
  2
MARK1_1
 10
60.9594532544318
 20
-221.49055535863
 41
2.0
 42
2.0
 50
317.671864593273
  0
ARC
  5
341
100
AcDbEntity
  8
2
  6
CONTINUOUS
100
AcDbCircle
 10
568.000000000002
 20
229.0
 40
2.0
100
AcDbArc
 50
0.0
 51
90.0
  0
ARC
  5
342
100
AcDbEntity
  8
2
  6
CONTINUOUS
100
AcDbCircle
 10
568.000000000002
 20
171.0
 40
2.0
100
AcDbArc
 50
270.0
 51
0.0
  0
LINE
  5
343
100
AcDbEntity
  8
2
  6
CONTINUOUS
100
AcDbLine
 10
520.000000000002
 20
217.5
 11
570.000000000002
 21
217.5
  0
LINE
  5
344
100
AcDbEntity
  8
2
  6
CONTINUOUS
100
AcDbLine
 10
282.500000000001
 20
190.0
 11
326.500000000001
 21
190.0
  0
LINE
  5
345
100
AcDbEntity
  8
2
  6
CONTINUOUS
100
AcDbLine
 10
495.500000000002
 20
210.0
 11
510.000000000002
 21
210.0
  0
LINE
  5
346
100
AcDbEntity
  8
2
  6
CONTINUOUS
100
AcDbLine
 10
495.500000000002
 20
190.0
 11
510.000000000002
 21
190.0
  0
INSERT
  5
348
100
AcDbEntity
  8
2
  6
CONTINUOUS
100
AcDbBlockReference
  2
SUB13
 10
495.500000000002
 20
200.0
 41
1.0
 42
1.0
 50
0.0
  0
INSERT
  5
356
100
AcDbEntity
  8
2
  6
CONTINUOUS
100
AcDbBlockReference
  2
SUB14
 10
282.500000000001
 20
200.0
 41
1.0
 42
1.0
 50
0.0
  0
INSERT
  5
364
100
AcDbEntity
  8
2
  6
CONTINUOUS
100
AcDbBlockReference
  2
SUB15
 10
326.500000000001
 20
200.0
 41
1.0
 42
1.0
 50
0.0
  0
LINE
  5
371
100
AcDbEntity
  8
2
  6
CONTINUOUS
100
AcDbLine
 10
207.500000000001
 20
169.0
 11
568.000000000002
 21
169.0
  0
LINE
  5
372
100
AcDbEntity
  8
7
  6
CENTER2
 62
    40
100
AcDbLine
 10
555.000000000002
 20
188.070748324484
 11
555.000000000002
 21
212.374930273759
  0
LINE
  5
373
100
AcDbEntity
  8
7
  6
CENTER2
 62
    40
100
AcDbLine
 10
532.000000000001
 20
188.070748324484
 11
532.000000000001
 21
212.374930273759
  0
ARC
  5
374
100
AcDbEntity
  8
2
  6
CONTINUOUS
100
AcDbCircle
 10
515.999999999999
 20
200.0
 40
20.299999999999
100
AcDbArc
 50
270.0
 51
0.0
  0
ARC
  5
375
100
AcDbEntity
  8
2
  6
CONTINUOUS
100
AcDbCircle
 10
515.999999999999
 20
200.0
 40
11.699999999999
100
AcDbArc
 50
270.0
 51
0.0
  0
LINE
  5
376
100
AcDbEntity
  8
2
  6
CONTINUOUS
100
AcDbLine
 10
520.000000000002
 20
189.005001136882
 11
520.000000000002
 21
217.5
  0
LINE
  5
377
100
AcDbEntity
  8
2
  6
CONTINUOUS
100
AcDbLine
 10
526.287856919687
 20
182.5
 11
570.000000000002
 21
182.5
  0
ARC
  5
378
100
AcDbEntity
  8
2
  6
CONTINUOUS
100
AcDbCircle
 10
532.000000000001
 20
200.0
 40
8.20000000000005
100
AcDbArc
 50
0.0
 51
224.750819595108
  0
ARC
  5
379
100
AcDbEntity
  8
2
  6
CONTINUOUS
100
AcDbCircle
 10
532.000000000001
 20
200.0
 40
8.19999999999999
100
AcDbArc
 50
289.791917046984
 51
0.0
  0
ARC
  5
37A
100
AcDbEntity
  8
2
  6
CONTINUOUS
100
AcDbCircle
 10
532.000000000001
 20
200.0
 40
4.29999999999995
100
AcDbArc
 50
0.0
 51
180.0
  0
LINE
  5
37B
100
AcDbEntity
  8
2
  6
CONTINUOUS
100
AcDbLine
 10
510.000000000002
 20
169.0
 11
510.000000000002
 21
179.700000000001
  0
LINE
  5
37C
100
AcDbEntity
  8
2
  6
CONTINUOUS
100
AcDbLine
 10
510.000000000002
 20
188.300000000001
 11
510.000000000002
 21
231.0
  0
LINE
  5
37D
100
AcDbEntity
  8
2
  6
CONTINUOUS
100
AcDbLine
 10
503.500000000002
 20
169.0
 11
503.500000000002
 21
179.700000000001
  0
LINE
  5
37E
100
AcDbEntity
  8
2
  6
CONTINUOUS
100
AcDbLine
 10
503.500000000002
 20
188.300000000001
 11
503.500000000002
 21
231.0
  0
LINE
  5
37F
100
AcDbEntity
  8
2
  6
CONTINUOUS
100
AcDbLine
 10
495.500000000002
 20
169.0
 11
495.500000000002
 21
179.700000000001
  0
LINE
  5
380
100
AcDbEntity
  8
2
  6
CONTINUOUS
100
AcDbLine
 10
495.500000000002
 20
188.300000000001
 11
495.500000000002
 21
231.0
  0
ARC
  5
381
100
AcDbEntity
  8
7
  6
CENTER2
 62
    40
100
AcDbCircle
 10
515.999999999999
 20
200.0
 40
15.999999999999
100
AcDbArc
 50
270.0
 51
0.0
  0
LINE
  5
382
100
AcDbEntity
  8
7
  6
CENTER2
 62
    40
100
AcDbLine
 10
515.999999999999
 20
184.0
 11
188.126048808839
 21
184.0
  0
ARC
  5
383
100
AcDbEntity
  8
2
  6
CONTINUOUS
100
AcDbCircle
 10
555.000000000002
 20
200.0
 40
6.20000000000005
100
AcDbArc
 50
90.0
 51
270.0
  0
ARC
  5
384
100
AcDbEntity
  8
2
  6
CONTINUOUS
100
AcDbCircle
 10
555.000000000002
 20
200.0
 40
11.3
100
AcDbArc
 50
33.2759930575041
 51
326.724006942496
  0
LINE
  5
385
100
AcDbEntity
  8
2
  6
CONTINUOUS
100
AcDbLine
 10
570.000000000002
 20
171.0
 11
570.000000000002
 21
193.8
  0
LINE
  5
386
100
AcDbEntity
  8
2
  6
CONTINUOUS
100
AcDbLine
 10
570.000000000002
 20
206.2
 11
570.000000000002
 21
229.0
  0
LINE
  5
387
100
AcDbEntity
  8
7
  6
CENTER2
 62
    40
100
AcDbLine
 10
85.000000000021
 20
194.0
 11
85.000000000021
 21
206.0
  0
LINE
  5
388
100
AcDbEntity
  8
7
  6
CENTER2
 62
    40
100
AcDbLine
 10
140.794952404801
 20
234.641016151378
 11
213.630254153038
 21
234.641016151378
  0
LINE
  5
389
100
AcDbEntity
  8
7
  6
CENTER2
 62
    40
100
AcDbLine
 10
140.794952404801
 20
165.358983848623
 11
213.630254153038
 21
165.358983848623
  0
LINE
  5
38A
100
AcDbEntity
  8
2
  6
CONTINUOUS
100
AcDbLine
 10
82.500000000021
 20
192.0
 11
145.000000000001
 21
192.0
  0
LINE
  5
38B
100
AcDbEntity
  8
2
  6
CONTINUOUS
100
AcDbLine
 10
82.500000000021
 20
208.0
 11
145.000000000001
 21
208.0
  0
LINE
  5
38C
100
AcDbEntity
  8
2
  6
CONTINUOUS
100
AcDbLine
 10
79.500000000021
 20
195.0
 11
79.500000000021
 21
205.0
  0
LINE
  5
38D
100
AcDbEntity
  8
2
  6
CONTINUOUS
100
AcDbLine
 10
82.500000000021
 20
192.0
 11
82.500000000021
 21
198.341687604822
  0
LINE
  5
38E
100
AcDbEntity
  8
2
  6
CONTINUOUS
100
AcDbLine
 10
82.500000000021
 20
201.658312395178
 11
82.500000000021
 21
208.0
  0
CIRCLE
  5
38F
100
AcDbEntity
  8
2
  6
CONTINUOUS
100
AcDbCircle
 10
85.000000000021
 20
200.0
 40
3.0
  0
LINE
  5
390
100
AcDbEntity
  8
2
  6
CONTINUOUS
100
AcDbLine
 10
79.500000000021
 20
205.0
 11
82.500000000021
 21
208.0
  0
LINE
  5
391
100
AcDbEntity
  8
2
  6
CONTINUOUS
100
AcDbLine
 10
82.500000000021
 20
192.0
 11
79.500000000021
 21
195.0
  0
LINE
  5
392
100
AcDbEntity
  8
7
  6
CENTER2
 62
    40
100
AcDbLine
 10
170.000000000001
 20
167.5
 11
170.000000000001
 21
232.5
  0
LINE
  5
393
100
AcDbEntity
  8
7
  6
CENTER2
 62
    40
100
AcDbLine
 10
154.000000000001
 20
228.5
 11
174.523419136611
 21
228.5
  0
LINE
  5
394
100
AcDbEntity
  8
2
  6
CONTINUOUS
100
AcDbLine
 10
161.000000000001
 20
232.5
 11
161.000000000001
 21
228.5
  0
LINE
  5
395
100
AcDbEntity
  8
2
  6
CONTINUOUS
100
AcDbLine
 10
161.000000000001
 20
171.5
 11
161.000000000001
 21
167.5
  0
LINE
  5
396
100
AcDbEntity
  8
7
  6
CENTER2
 62
    40
100
AcDbLine
 10
158.000000000001
 20
167.5
 11
158.000000000001
 21
232.5
  0
LINE
  5
397
100
AcDbEntity
  8
7
  6
CENTER2
 62
    40
100
AcDbLine
 10
154.000000000001
 20
171.5
 11
174.523419136611
 21
171.5
  0
ARC
  5
398
100
AcDbEntity
  8
2
  6
CONTINUOUS
100
AcDbCircle
 10
158.000000000001
 20
171.5
 40
3.0
100
AcDbArc
 50
0.0
 51
180.0
  0
ARC
  5
399
100
AcDbEntity
  8
2
  6
CONTINUOUS
100
AcDbCircle
 10
158.000000000001
 20
228.5
 40
3.0
100
AcDbArc
 50
180.0
 51
0.0
  0
LINE
  5
39A
100
AcDbEntity
  8
2
  6
CONTINUOUS
100
AcDbLine
 10
198.500000000001
 20
169.5
 11
173.000000000001
 21
169.5
  0
LINE
  5
39B
100
AcDbEntity
  8
2
  6
CONTINUOUS
100
AcDbLine
 10
167.000000000001
 20
169.5
 11
161.000000000001
 21
169.5
  0
LINE
  5
39C
100
AcDbEntity
  8
2
  6
CONTINUOUS
100
AcDbLine
 10
155.000000000001
 20
169.5
 11
145.000000000001
 21
169.5
  0
LINE
  5
39D
100
AcDbEntity
  8
6
  6
CENTER
100
AcDbLine
 10
683.100000000002
 20
200.0
 11
-10.0
 21
200.0
  0
LINE
  5
39E
100
AcDbEntity
  8
2
  6
CONTINUOUS
100
AcDbLine
 10
145.000000000001
 20
230.5
 11
145.000000000001
 21
169.5
  0
LINE
  5
39F
100
AcDbEntity
  8
2
  6
CONTINUOUS
100
AcDbLine
 10
173.000000000001
 20
232.5
 11
173.000000000001
 21
228.5
  0
LINE
  5
3A0
100
AcDbEntity
  8
2
  6
CONTINUOUS
100
AcDbLine
 10
195.000000000001
 20
232.5
 11
195.000000000001
 21
167.5
  0
LINE
  5
3A1
100
AcDbEntity
  8
2
  6
CONTINUOUS
100
AcDbLine
 10
173.000000000001
 20
167.5
 11
173.000000000001
 21
171.5
  0
LINE
  5
3A2
100
AcDbEntity
  8
2
  6
CONTINUOUS
100
AcDbLine
 10
167.000000000001
 20
167.5
 11
167.000000000001
 21
171.5
  0
ARC
  5
3A3
100
AcDbEntity
  8
2
  6
CONTINUOUS
100
AcDbCircle
 10
170.000000000001
 20
171.5
 40
3.0
100
AcDbArc
 50
0.0
 51
180.0
  0
ARC
  5
3A4
100
AcDbEntity
  8
2
  6
CONTINUOUS
100
AcDbCircle
 10
170.000000000001
 20
228.5
 40
3.0
100
AcDbArc
 50
180.0
 51
0.0
  0
LINE
  5
3A5
100
AcDbEntity
  8
2
  6
CONTINUOUS
100
AcDbLine
 10
167.000000000001
 20
232.5
 11
167.000000000001
 21
228.5
  0
LINE
  5
3A6
100
AcDbEntity
  8
2
  6
CONTINUOUS
100
AcDbLine
 10
147.000000000001
 20
232.5
 11
145.000000000001
 21
230.5
  0
LINE
  5
3A7
100
AcDbEntity
  8
2
  6
CONTINUOUS
100
AcDbLine
 10
147.000000000001
 20
167.5
 11
145.000000000001
 21
169.5
  0
INSERT
  5
3A9
100
AcDbEntity
  8
2
  6
CONTINUOUS
100
AcDbBlockReference
  2
SUB16
 10
170.000000000001
 20
228.5
 41
1.0
 42
1.0
 50
0.0
  0
INSERT
  5
3B0
100
AcDbEntity
  8
2
  6
CONTINUOUS
100
AcDbBlockReference
  2
SUB17
 10
158.000000000001
 20
228.5
 41
1.0
 42
1.0
 50
0.0
  0
INSERT
  5
3B7
100
AcDbEntity
  8
2
  6
CONTINUOUS
100
AcDbBlockReference
  2
SUB18
 10
158.000000000001
 20
171.5
 41
1.0
 42
1.0
 50
0.0
  0
INSERT
  5
3BE
100
AcDbEntity
  8
2
  6
CONTINUOUS
100
AcDbBlockReference
  2
SUB19
 10
170.000000000001
 20
171.5
 41
1.0
 42
1.0
 50
0.0
  0
INSERT
  5
3C5
100
AcDbEntity
  8
2
  6
CONTINUOUS
100
AcDbBlockReference
  2
SUB20
 10
85.000000000021
 20
200.0
 41
1.0
 42
1.0
 50
0.0
  0
LINE
  5
3CB
100
AcDbEntity
  8
2
  6
CONTINUOUS
100
AcDbLine
 10
190.500000000001
 20
157.164
 11
190.500000000001
 21
167.5
  0
LINE
  5
3CC
100
AcDbEntity
  8
2
  6
CONTINUOUS
100
AcDbLine
 10
190.500000000001
 20
232.5
 11
190.500000000001
 21
242.836
  0
LINE
  5
3CD
100
AcDbEntity
  8
2
  6
CONTINUOUS
100
AcDbLine
 10
207.000000000001
 20
241.141016151378
 11
197.500000000001
 21
241.141016151378
  0
LINE
  5
3CE
100
AcDbEntity
  8
2
  6
CONTINUOUS
100
AcDbLine
 10
207.000000000001
 20
228.141016151378
 11
207.000000000001
 21
241.141016151378
  0
LINE
  5
3CF
100
AcDbEntity
  8
2
  6
CONTINUOUS
100
AcDbLine
 10
207.000000000001
 20
241.141016151378
 11
207.500000000001
 21
240.274990747593
  0
LINE
  5
3D0
100
AcDbEntity
  8
2
  6
CONTINUOUS
100
AcDbLine
 10
197.500000000001
 20
234.641016151378
 11
199.500000000001
 21
237.244128133723
  0
LINE
  5
3D1
100
AcDbEntity
  8
2
  6
CONTINUOUS
100
AcDbLine
 10
207.000000000001
 20
158.858983848623
 11
197.500000000001
 21
158.858983848623
  0
LINE
  5
3D2
100
AcDbEntity
  8
2
  6
CONTINUOUS
100
AcDbLine
 10
207.500000000001
 20
159.725009252407
 11
207.500000000001
 21
170.992958444838
  0
LINE
  5
3D3
100
AcDbEntity
  8
2
  6
CONTINUOUS
100
AcDbLine
 10
207.000000000001
 20
158.858983848623
 11
207.500000000001
 21
159.725009252407
  0
LINE
  5
3D4
100
AcDbEntity
  8
2
  6
CONTINUOUS
100
AcDbLine
 10
199.500000000001
 20
165.358983848623
 11
197.500000000001
 21
162.672743413976
  0
LINE
  5
3D5
100
AcDbEntity
  8
2
  6
CONTINUOUS
100
AcDbLine
 10
197.500000000001
 20
165.358983848623
 11
199.500000000001
 21
167.962095830968
  0
LINE
  5
3D6
100
AcDbEntity
  8
2
  6
CONTINUOUS
100
AcDbLine
 10
197.500000000001
 20
157.164
 11
197.500000000001
 21
167.5
  0
LINE
  5
3D7
100
AcDbEntity
  8
2
  6
CONTINUOUS
100
AcDbLine
 10
197.500000000001
 20
232.5
 11
197.500000000001
 21
242.836
  0
LINE
  5
3D8
100
AcDbEntity
  8
2
  6
CONTINUOUS
100
AcDbLine
 10
199.500000000001
 20
230.5
 11
199.500000000001
 21
241.141016151378
  0
LINE
  5
3D9
100
AcDbEntity
  8
2
  6
CONTINUOUS
100
AcDbLine
 10
199.500000000001
 20
234.641016151378
 11
197.905938557277
 21
232.5
  0
LINE
  5
3DA
100
AcDbEntity
  8
2
  6
CONTINUOUS
100
AcDbLine
 10
199.500000000001
 20
158.858983848623
 11
199.500000000001
 21
169.5
  0
LINE
  5
3DB
100
AcDbEntity
  8
2
  6
CONTINUOUS
100
AcDbLine
 10
207.000000000001
 20
158.858983848623
 11
207.000000000001
 21
171.0
  0
LINE
  5
3DC
100
AcDbEntity
  8
2
  6
CONTINUOUS
100
AcDbLine
 10
155.000000000001
 20
232.5
 11
155.000000000001
 21
167.5
  0
LINE
  5
3DD
100
AcDbEntity
  8
2
  6
CONTINUOUS
100
AcDbLine
 10
164.000000000002
 20
157.164
 11
164.000000000002
 21
167.5
  0
LINE
  5
3DE
100
AcDbEntity
  8
2
  6
CONTINUOUS
100
AcDbLine
 10
164.000000000002
 20
232.5
 11
164.000000000002
 21
242.836
  0
LINE
  5
3DF
100
AcDbEntity
  8
2
  6
CONTINUOUS
100
AcDbLine
 10
65.0000000000016
 20
157.164
 11
65.0000000000016
 21
242.836
  0
LINE
  5
3E0
100
AcDbEntity
  8
2
  6
CONTINUOUS
100
AcDbLine
 10
57.0000000000016
 20
157.164
 11
57.0000000000016
 21
242.836
  0
LINE
  5
3E1
100
AcDbEntity
  8
2
  6
CONTINUOUS
100
AcDbLine
 10
48.0000000000016
 20
172.000000476837
 11
48.0000000000016
 21
228.000000476837
  0
LINE
  5
3E2
100
AcDbEntity
  8
2
  6
CONTINUOUS
100
AcDbLine
 10
49.0000000000016
 20
229.000000476837
 11
57.0000000000016
 21
229.000000476837
  0
LINE
  5
3E3
100
AcDbEntity
  8
2
  6
CONTINUOUS
100
AcDbLine
 10
49.0000000000016
 20
229.000000476837
 11
48.0000000000016
 21
228.000000476837
  0
LINE
  5
3E4
100
AcDbEntity
  8
2
  6
CONTINUOUS
100
AcDbLine
 10
48.0000000000016
 20
172.000000476837
 11
48.0000000000016
 21
176.000000476837
  0
LINE
  5
3E5
100
AcDbEntity
  8
2
  6
CONTINUOUS
100
AcDbLine
 10
48.0000000000016
 20
176.000000476837
 11
48.0000000000016
 21
187.000000476837
  0
LINE
  5
3E6
100
AcDbEntity
  8
2
  6
CONTINUOUS
100
AcDbLine
 10
48.0000000000016
 20
213.000000476837
 11
48.0000000000016
 21
224.000000476837
  0
LINE
  5
3E7
100
AcDbEntity
  8
2
  6
CONTINUOUS
100
AcDbLine
 10
48.0000000000016
 20
224.000000476837
 11
48.0000000000016
 21
228.000000476837
  0
LINE
  5
3E8
100
AcDbEntity
  8
2
  6
CONTINUOUS
100
AcDbLine
 10
49.0000000000016
 20
171.000000476837
 11
57.0000000000016
 21
171.000000476837
  0
LINE
  5
3E9
100
AcDbEntity
  8
2
  6
CONTINUOUS
100
AcDbLine
 10
48.0000000000016
 20
172.000000476837
 11
49.0000000000016
 21
171.000000476837
  0
LINE
  5
3EA
100
AcDbEntity
  8
2
  6
CONTINUOUS
100
AcDbLine
 10
30.0000000000015
 20
187.5
 11
48.0000000000016
 21
187.5
  0
LINE
  5
3EB
100
AcDbEntity
  8
2
  6
CONTINUOUS
100
AcDbLine
 10
30.0000000000015
 20
187.5
 11
30.0000000000015
 21
212.5
  0
ARC
  5
3EC
100
AcDbEntity
  8
2
  6
CONTINUOUS
100
AcDbCircle
 10
7.91666666666856
 20
200.0
 40
22.0833333333333
100
AcDbArc
 50
338.760689447689
 51
21.2393105523107
  0
LINE
  5
3ED
100
AcDbEntity
  8
2
  6
CONTINUOUS
100
AcDbLine
 10
1.47792889038101E-012
 20
190.5
 11
1.47792889038101E-012
 21
209.5
  0
LINE
  5
3EE
100
AcDbEntity
  8
2
  6
CONTINUOUS
100
AcDbLine
 10
1.00000000000148
 20
190.5
 11
1.00000000000148
 21
192.0
  0
LINE
  5
3EF
100
AcDbEntity
  8
2
  6
CONTINUOUS
100
AcDbLine
 10
1.00000000000148
 20
208.0
 11
1.00000000000148
 21
209.5
  0
LINE
  5
3F0
100
AcDbEntity
  8
2
  6
CONTINUOUS
100
AcDbLine
 10
1.47792889038101E-012
 20
190.5
 11
28.5000000000015
 21
190.5
  0
LINE
  5
3F1
100
AcDbEntity
  8
2
  6
CONTINUOUS
100
AcDbLine
 10
1.00000000000148
 20
192.0
 11
28.5000000000015
 21
192.0
  0
ARC
  5
3F2
100
AcDbEntity
  8
2
  6
CONTINUOUS
100
AcDbCircle
 10
1.94500000000141
 20
193.7
 40
1.945
100
AcDbArc
 50
180.0
 51
240.93108983892
  0
ARC
  5
3F3
100
AcDbEntity
  8
2
  6
CONTINUOUS
100
AcDbCircle
 10
28.5000000000015
 20
189.0
 40
1.5
100
AcDbArc
 50
0.0
 51
90.0
  0
LINE
  5
3F4
100
AcDbEntity
  8
2
  6
CONTINUOUS
100
AcDbLine
 10
30.0000000000015
 20
212.5
 11
48.0000000000016
 21
212.5
  0
ARC
  5
3F5
100
AcDbEntity
  8
2
  6
CONTINUOUS
100
AcDbCircle
 10
28.5000000000015
 20
211.0
 40
1.5
100
AcDbArc
 50
270.0
 51
0.0
  0
LINE
  5
3F6
100
AcDbEntity
  8
2
  6
CONTINUOUS
100
AcDbLine
 10
1.47792889038101E-012
 20
209.5
 11
28.5000000000015
 21
209.5
  0
LINE
  5
3F7
100
AcDbEntity
  8
2
  6
CONTINUOUS
100
AcDbLine
 10
1.00000000000148
 20
208.0
 11
28.5000000000015
 21
208.0
  0
ARC
  5
3F8
100
AcDbEntity
  8
2
  6
CONTINUOUS
100
AcDbCircle
 10
1.94500000000141
 20
206.3
 40
1.945
100
AcDbArc
 50
119.06891016108
 51
180.0
  0
LINE
  5
3F9
100
AcDbEntity
  8
2
  6
CONTINUOUS
100
AcDbLine
 10
49.0000000000016
 20
229.000000476837
 11
49.0000000000016
 21
171.000000476837
  0
LINE
  5
3FA
100
AcDbEntity
  8
7
  6
CENTER2
 62
    40
100
AcDbLine
 10
43.5527307748584
 20
234.641016151378
 11
86.1971116194031
 21
234.641016151378
  0
LINE
  5
3FB
100
AcDbEntity
  8
7
  6
CENTER2
 62
    40
100
AcDbLine
 10
43.5527307748584
 20
165.358983848622
 11
86.1971116194031
 21
165.358983848622
  0
LINE
  5
3FC
100
AcDbEntity
  8
2
  6
CONTINUOUS
100
AcDbLine
 10
207.300000000001
 20
199.9
 11
217.300000000001
 21
199.9
  0
LINE
  5
3FD
100
AcDbEntity
  8
2
  6
CONTINUOUS
100
AcDbLine
 10
207.500000000001
 20
229.1
 11
207.500000000001
 21
240.274990747593
  0
LINE
  5
3FE
100
AcDbEntity
  8
2
  6
CONTINUOUS
100
AcDbLine
 10
267.000000000001
 20
189.8
 11
249.000000000001
 21
189.8
  0
LINE
  5
3FF
100
AcDbEntity
  8
2
  6
CONTINUOUS
100
AcDbLine
 10
267.000000000001
 20
189.8
 11
267.000000000001
 21
178.2
  0
LINE
  5
400
100
AcDbEntity
  8
2
  6
CONTINUOUS
100
AcDbLine
 10
246.500000000001
 20
191.7
 11
244.500000000001
 21
193.7
  0
LINE
  5
401
100
AcDbEntity
  8
2
  6
CONTINUOUS
100
AcDbLine
 10
244.500000000001
 20
191.7
 11
246.500000000001
 21
193.7
  0
CIRCLE
  5
402
100
AcDbEntity
  8
2
  6
CONTINUOUS
100
AcDbCircle
 10
245.500000000001
 20
192.7
 40
2.75
  0
LINE
  5
403
100
AcDbEntity
  8
2
  6
CONTINUOUS
100
AcDbLine
 10
241.000000000001
 20
174.0
 11
241.000000000001
 21
194.0
  0
LINE
  5
404
100
AcDbEntity
  8
2
  6
CONTINUOUS
100
AcDbLine
 10
249.000000000001
 20
193.5
 11
249.000000000001
 21
174.5
  0
ARC
  5
405
100
AcDbEntity
  8
2
  6
CONTINUOUS
100
AcDbCircle
 10
247.000000000001
 20
193.5
 40
1.99999999999994
100
AcDbArc
 50
0.0
 51
90.0
  0
ARC
  5
406
100
AcDbEntity
  8
2
  6
CONTINUOUS
100
AcDbCircle
 10
244.000000000001
 20
193.5
 40
1.99999999999994
100
AcDbArc
 50
90.0
 51
180.0
  0
LINE
  5
407
100
AcDbEntity
  8
2
  6
CONTINUOUS
100
AcDbLine
 10
244.000000000001
 20
195.5
 11
247.000000000001
 21
195.5
  0
ARC
  5
408
100
AcDbEntity
  8
2
  6
CONTINUOUS
100
AcDbCircle
 10
240.916000000002
 20
196.047
 40
1.99999999999993
100
AcDbArc
 50
259.79599999999
 51
320.445000000003
  0
LINE
  5
409
100
AcDbEntity
  8
2
  6
CONTINUOUS
100
AcDbLine
 10
229.000000000001
 20
195.8
 11
241.000000000001
 21
194.0
  0
LINE
  5
40A
100
AcDbEntity
  8
2
  6
CONTINUOUS
100
AcDbLine
 10
242.000000000001
 20
174.5
 11
242.000000000001
 21
193.5
  0
LINE
  5
40B
100
AcDbEntity
  8
2
  6
CONTINUOUS
100
AcDbLine
 10
267.000000000001
 20
178.2
 11
249.000000000001
 21
178.2
  0
LINE
  5
40C
100
AcDbEntity
  8
2
  6
CONTINUOUS
100
AcDbLine
 10
246.500000000001
 20
176.3
 11
244.500000000001
 21
174.3
  0
LINE
  5
40D
100
AcDbEntity
  8
2
  6
CONTINUOUS
100
AcDbLine
 10
244.500000000001
 20
176.3
 11
246.500000000001
 21
174.3
  0
CIRCLE
  5
40E
100
AcDbEntity
  8
2
  6
CONTINUOUS
100
AcDbCircle
 10
245.500000000001
 20
175.3
 40
2.75
  0
LINE
  5
40F
100
AcDbEntity
  8
2
  6
CONTINUOUS
100
AcDbLine
 10
229.000000000001
 20
172.2
 11
241.000000000001
 21
174.0
  0
ARC
  5
410
100
AcDbEntity
  8
2
  6
CONTINUOUS
100
AcDbCircle
 10
240.916000000002
 20
171.953
 40
1.99999999999995
100
AcDbArc
 50
39.5549999999972
 51
100.20400000001
  0
ARC
  5
411
100
AcDbEntity
  8
2
  6
CONTINUOUS
100
AcDbCircle
 10
247.000000000001
 20
174.5
 40
1.99999999999994
100
AcDbArc
 50
270.0
 51
0.0
  0
LINE
  5
412
100
AcDbEntity
  8
2
  6
CONTINUOUS
100
AcDbLine
 10
247.000000000001
 20
172.5
 11
244.000000000001
 21
172.5
  0
ARC
  5
413
100
AcDbEntity
  8
2
  6
CONTINUOUS
100
AcDbCircle
 10
244.000000000001
 20
174.5
 40
1.99999999999994
100
AcDbArc
 50
180.0
 51
270.0
  0
LINE
  5
414
100
AcDbEntity
  8
2
  6
CONTINUOUS
100
AcDbLine
 10
216.000000000001
 20
197.0
 11
216.000000000001
 21
171.0
  0
LINE
  5
415
100
AcDbEntity
  8
2
  6
CONTINUOUS
100
AcDbLine
 10
218.000000000001
 20
196.5
 11
218.000000000001
 21
171.5
  0
LINE
  5
416
100
AcDbEntity
  8
2
  6
CONTINUOUS
100
AcDbLine
 10
206.000000000001
 20
171.5
 11
216.000000000001
 21
171.5
  0
LINE
  5
417
100
AcDbEntity
  8
2
  6
CONTINUOUS
100
AcDbLine
 10
216.000000000001
 20
172.5
 11
206.000000000001
 21
172.5
  0
LINE
  5
418
100
AcDbEntity
  8
2
  6
CONTINUOUS
100
AcDbLine
 10
206.000000000001
 20
173.5
 11
216.000000000001
 21
173.5
  0
LINE
  5
419
100
AcDbEntity
  8
2
  6
CONTINUOUS
100
AcDbLine
 10
216.000000000001
 20
174.5
 11
206.000000000001
 21
174.5
  0
LINE
  5
41A
100
AcDbEntity
  8
2
  6
CONTINUOUS
100
AcDbLine
 10
206.000000000001
 20
175.5
 11
216.000000000001
 21
175.5
  0
LINE
  5
41B
100
AcDbEntity
  8
2
  6
CONTINUOUS
100
AcDbLine
 10
216.000000000001
 20
178.5
 11
206.000000000001
 21
178.5
  0
LINE
  5
41C
100
AcDbEntity
  8
2
  6
CONTINUOUS
100
AcDbLine
 10
216.000000000001
 20
177.5
 11
206.000000000001
 21
177.5
  0
LINE
  5
41D
100
AcDbEntity
  8
2
  6
CONTINUOUS
100
AcDbLine
 10
216.000000000001
 20
176.5
 11
206.000000000001
 21
176.5
  0
LINE
  5
41E
100
AcDbEntity
  8
2
  6
CONTINUOUS
100
AcDbLine
 10
218.000000000001
 20
172.2
 11
229.000000000001
 21
172.2
  0
LINE
  5
41F
100
AcDbEntity
  8
2
  6
CONTINUOUS
100
AcDbLine
 10
218.000000000001
 20
171.5
 11
216.000000000001
 21
171.5
  0
LINE
  5
420
100
AcDbEntity
  8
2
  6
CONTINUOUS
100
AcDbLine
 10
216.000000000001
 20
171.0
 11
206.000000000001
 21
171.0
  0
LINE
  5
421
100
AcDbEntity
  8
2
  6
CONTINUOUS
100
AcDbLine
 10
216.000000000001
 20
181.5
 11
206.000000000001
 21
181.5
  0
LINE
  5
422
100
AcDbEntity
  8
2
  6
CONTINUOUS
100
AcDbLine
 10
216.000000000001
 20
180.5
 11
206.000000000001
 21
180.5
  0
LINE
  5
423
100
AcDbEntity
  8
2
  6
CONTINUOUS
100
AcDbLine
 10
216.000000000001
 20
179.5
 11
206.000000000001
 21
179.5
  0
LINE
  5
424
100
AcDbEntity
  8
2
  6
CONTINUOUS
100
AcDbLine
 10
206.000000000001
 20
182.5
 11
216.000000000001
 21
182.5
  0
LINE
  5
425
100
AcDbEntity
  8
2
  6
CONTINUOUS
100
AcDbLine
 10
216.000000000001
 20
183.5
 11
206.000000000001
 21
183.5
  0
LINE
  5
426
100
AcDbEntity
  8
2
  6
CONTINUOUS
100
AcDbLine
 10
206.000000000001
 20
186.5
 11
216.000000000001
 21
186.5
  0
LINE
  5
427
100
AcDbEntity
  8
2
  6
CONTINUOUS
100
AcDbLine
 10
216.000000000001
 20
187.5
 11
206.000000000001
 21
187.5
  0
LINE
  5
428
100
AcDbEntity
  8
2
  6
CONTINUOUS
100
AcDbLine
 10
206.000000000001
 20
188.5
 11
216.000000000001
 21
188.5
  0
LINE
  5
429
100
AcDbEntity
  8
2
  6
CONTINUOUS
100
AcDbLine
 10
216.000000000001
 20
189.5
 11
206.000000000001
 21
189.5
  0
LINE
  5
42A
100
AcDbEntity
  8
2
  6
CONTINUOUS
100
AcDbLine
 10
206.000000000001
 20
190.5
 11
216.000000000001
 21
190.5
  0
LINE
  5
42B
100
AcDbEntity
  8
2
  6
CONTINUOUS
100
AcDbLine
 10
216.000000000001
 20
191.5
 11
206.000000000001
 21
191.5
  0
LINE
  5
42C
100
AcDbEntity
  8
2
  6
CONTINUOUS
100
AcDbLine
 10
206.000000000001
 20
192.5
 11
216.000000000001
 21
192.5
  0
LINE
  5
42D
100
AcDbEntity
  8
2
  6
CONTINUOUS
100
AcDbLine
 10
206.000000000001
 20
184.5
 11
216.000000000001
 21
184.5
  0
LINE
  5
42E
100
AcDbEntity
  8
2
  6
CONTINUOUS
100
AcDbLine
 10
216.000000000001
 20
185.5
 11
206.000000000001
 21
185.5
  0
LINE
  5
42F
100
AcDbEntity
  8
2
  6
CONTINUOUS
100
AcDbLine
 10
216.000000000001
 20
193.5
 11
206.000000000001
 21
193.5
  0
LINE
  5
430
100
AcDbEntity
  8
2
  6
CONTINUOUS
100
AcDbLine
 10
206.000000000001
 20
194.5
 11
216.000000000001
 21
194.5
  0
LINE
  5
431
100
AcDbEntity
  8
2
  6
CONTINUOUS
100
AcDbLine
 10
216.000000000001
 20
195.5
 11
206.000000000001
 21
195.5
  0
LINE
  5
432
100
AcDbEntity
  8
2
  6
CONTINUOUS
100
AcDbLine
 10
206.000000000001
 20
196.5
 11
216.000000000001
 21
196.5
  0
LINE
  5
433
100
AcDbEntity
  8
2
  6
CONTINUOUS
100
AcDbLine
 10
216.000000000001
 20
196.5
 11
218.000000000001
 21
196.5
  0
LINE
  5
434
100
AcDbEntity
  8
2
  6
CONTINUOUS
100
AcDbLine
 10
218.000000000001
 20
195.8
 11
229.000000000001
 21
195.8
  0
LINE
  5
435
100
AcDbEntity
  8
2
  6
CONTINUOUS
100
AcDbLine
 10
206.000000000001
 20
197.0
 11
216.000000000001
 21
197.0
  0
LINE
  5
436
100
AcDbEntity
  8
2
  6
CONTINUOUS
100
AcDbLine
 10
198.200000000001
 20
232.5
 11
198.200000000001
 21
167.5
  0
LINE
  5
437
100
AcDbEntity
  8
2
  6
CONTINUOUS
100
AcDbLine
 10
205.000000000001
 20
173.0
 11
205.000000000001
 21
195.0
  0
LINE
  5
438
100
AcDbEntity
  8
2
  6
CONTINUOUS
100
AcDbLine
 10
205.000000000001
 20
195.0
 11
203.900000000001
 21
195.0
  0
LINE
  5
439
100
AcDbEntity
  8
8
  6
CONTINUOUS
 62
     7
100
AcDbLine
 10
205.000000000001
 20
194.4585
 11
204.062094487701
 21
195.0
  0
LINE
  5
43A
100
AcDbEntity
  8
2
  6
CONTINUOUS
100
AcDbLine
 10
206.000000000001
 20
171.0
 11
206.000000000001
 21
197.0
  0
LINE
  5
43B
100
AcDbEntity
  8
2
  6
CONTINUOUS
100
AcDbLine
 10
205.000000000001
 20
196.5
 11
206.000000000001
 21
196.5
  0
LINE
  5
43C
100
AcDbEntity
  8
2
  6
CONTINUOUS
100
AcDbLine
 10
205.000000000001
 20
171.5
 11
205.000000000001
 21
196.5
  0
LINE
  5
43D
100
AcDbEntity
  8
2
  6
CONTINUOUS
100
AcDbLine
 10
200.200000000001
 20
169.5
 11
200.200000000001
 21
198.5
  0
LINE
  5
43E
100
AcDbEntity
  8
2
  6
CONTINUOUS
100
AcDbLine
 10
198.200000000001
 20
198.5
 11
200.200000000001
 21
198.5
  0
LINE
  5
43F
100
AcDbEntity
  8
7
  6
CENTER2
 62
    40
100
AcDbLine
 10
204.405499512287
 20
195.5
 11
187.826048808839
 21
195.5
  0
INSERT
  5
441
100
AcDbEntity
  8
7
  6
CENTER2
 62
    40
100
AcDbBlockReference
  2
SUB21
 10
200.200000000001
 20
195.5
 41
1.0
 42
1.0
 50
0.0
  0
LINE
  5
44E
100
AcDbEntity
  8
2
  6
CONTINUOUS
100
AcDbLine
 10
200.200000000001
 20
198.5
 11
200.200000000001
 21
230.5
  0
INSERT
  5
450
100
AcDbEntity
  8
7
  6
CENTER2
 62
    40
100
AcDbBlockReference
  2
SUB22
 10
200.200000000001
 20
201.5
 41
1.0
 42
1.0
 50
0.0
  0
LINE
  5
45D
100
AcDbEntity
  8
7
  6
CENTER2
 62
    40
100
AcDbLine
 10
204.405499512287
 20
201.5
 11
187.826048808839
 21
201.5
  0
INSERT
  5
45F
100
AcDbEntity
  8
7
  6
CENTER2
 62
    40
100
AcDbBlockReference
  2
SUB23
 10
200.200000000001
 20
227.5
 41
1.0
 42
1.0
 50
0.0
  0
LINE
  5
46C
100
AcDbEntity
  8
7
  6
CENTER2
 62
    40
100
AcDbLine
 10
204.405499512287
 20
227.5
 11
187.826048808839
 21
227.5
  0
LINE
  5
46D
100
AcDbEntity
  8
2
  6
CONTINUOUS
100
AcDbLine
 10
205.000000000001
 20
173.0
 11
203.900000000001
 21
173.0
  0
LINE
  5
46E
100
AcDbEntity
  8
8
  6
CONTINUOUS
 62
     7
100
AcDbLine
 10
205.000000000001
 20
173.5415
 11
204.062094487701
 21
173.0
  0
LINE
  5
46F
100
AcDbEntity
  8
2
  6
CONTINUOUS
100
AcDbLine
 10
206.000000000001
 20
171.5
 11
205.000000000001
 21
171.5
  0
LINE
  5
470
100
AcDbEntity
  8
7
  6
CENTER2
 62
    40
100
AcDbLine
 10
204.405499512287
 20
172.5
 11
187.826048808839
 21
172.5
  0
INSERT
  5
472
100
AcDbEntity
  8
7
  6
CENTER2
 62
    40
100
AcDbBlockReference
  2
SUB24
 10
200.200000000001
 20
172.5
 41
1.0
 42
1.0
 50
0.0
  0
LINE
  5
47F
100
AcDbEntity
  8
2
  6
CONTINUOUS
100
AcDbLine
 10
205.000000000001
 20
171.858983848623
 11
203.900000000001
 21
171.858983848623
  0
LINE
  5
480
100
AcDbEntity
  8
2
  6
CONTINUOUS
100
AcDbLine
 10
200.200000000001
 20
169.5
 11
198.200000000001
 21
169.5
  0
LINE
  5
481
100
AcDbEntity
  8
2
  6
CONTINUOUS
100
AcDbLine
 10
198.200000000001
 20
232.5
 11
147.000000000001
 21
232.5
  0
LINE
  5
482
100
AcDbEntity
  8
2
  6
CONTINUOUS
100
AcDbLine
 10
198.200000000001
 20
167.5
 11
147.000000000001
 21
167.5
  0
LINE
  5
483
100
AcDbEntity
  8
2
  6
CONTINUOUS
100
AcDbLine
 10
267.000000000001
 20
188.300000000001
 11
515.999999999999
 21
188.300000000001
  0
LINE
  5
484
100
AcDbEntity
  8
2
  6
CONTINUOUS
100
AcDbLine
 10
515.999999999999
 20
179.700000000001
 11
267.000000000001
 21
179.700000000001
  0
LINE
  5
485
100
AcDbEntity
  8
2
  6
CONTINUOUS
100
AcDbLine
 10
200.200000000001
 20
230.5
 11
173.000000000001
 21
230.5
  0
LINE
  5
486
100
AcDbEntity
  8
2
  6
CONTINUOUS
100
AcDbLine
 10
167.000000000001
 20
230.5
 11
161.000000000001
 21
230.5
  0
LINE
  5
487
100
AcDbEntity
  8
2
  6
CONTINUOUS
100
AcDbLine
 10
155.000000000001
 20
230.5
 11
145.000000000001
 21
230.5
  0
LINE
  5
488
100
AcDbEntity
  8
2
  6
CONTINUOUS
100
AcDbLine
 10
203.900000000001
 20
227.5
 11
204.000000000001
 21
227.5
  0
LINE
  5
489
100
AcDbEntity
  8
2
  6
CONTINUOUS
100
AcDbLine
 10
203.900000000001
 20
201.5
 11
204.000000000001
 21
201.5
  0
LINE
  5
48A
100
AcDbEntity
  8
2
  6
CONTINUOUS
100
AcDbLine
 10
207.000000000001
 20
228.141016151378
 11
203.900000000001
 21
228.141016151378
  0
LINE
  5
48B
100
AcDbEntity
  8
2
  6
CONTINUOUS
100
AcDbLine
 10
326.500000000001
 20
169.0
 11
326.500000000001
 21
179.700000000001
  0
LINE
  5
48C
100
AcDbEntity
  8
2
  6
CONTINUOUS
100
AcDbLine
 10
326.500000000001
 20
188.300000000001
 11
326.500000000001
 21
210.0
  0
LINE
  5
48D
100
AcDbEntity
  8
2
  6
CONTINUOUS
100
AcDbLine
 10
326.500000000001
 20
219.0
 11
326.500000000001
 21
231.0
  0
LINE
  5
48E
100
AcDbEntity
  8
2
  6
CONTINUOUS
100
AcDbLine
 10
314.500000000001
 20
169.0
 11
314.500000000001
 21
179.700000000001
  0
LINE
  5
48F
100
AcDbEntity
  8
2
  6
CONTINUOUS
100
AcDbLine
 10
314.500000000001
 20
188.300000000001
 11
314.500000000001
 21
210.0
  0
LINE
  5
490
100
AcDbEntity
  8
2
  6
CONTINUOUS
100
AcDbLine
 10
314.500000000001
 20
219.0
 11
314.500000000001
 21
231.0
  0
LINE
  5
491
100
AcDbEntity
  8
2
  6
CONTINUOUS
100
AcDbLine
 10
289.500000000001
 20
169.0
 11
289.500000000001
 21
179.700000000001
  0
LINE
  5
492
100
AcDbEntity
  8
2
  6
CONTINUOUS
100
AcDbLine
 10
289.500000000001
 20
188.300000000001
 11
289.500000000001
 21
210.0
  0
LINE
  5
493
100
AcDbEntity
  8
2
  6
CONTINUOUS
100
AcDbLine
 10
289.500000000001
 20
219.0
 11
289.500000000001
 21
231.0
  0
LINE
  5
494
100
AcDbEntity
  8
2
  6
CONTINUOUS
100
AcDbLine
 10
282.500000000001
 20
169.0
 11
282.500000000001
 21
179.700000000001
  0
LINE
  5
495
100
AcDbEntity
  8
2
  6
CONTINUOUS
100
AcDbLine
 10
282.500000000001
 20
188.300000000001
 11
282.500000000001
 21
210.0
  0
LINE
  5
496
100
AcDbEntity
  8
2
  6
CONTINUOUS
100
AcDbLine
 10
282.500000000001
 20
219.0
 11
282.500000000001
 21
231.0
  0
LINE
  5
497
100
AcDbEntity
  8
2
  6
CONTINUOUS
100
AcDbLine
 10
207.500000000001
 20
231.0
 11
455.125194956201
 21
231.0
  0
LINE
  5
498
100
AcDbEntity
  8
2
  6
CONTINUOUS
100
AcDbLine
 10
467.93987239997
 20
231.0
 11
568.000000000002
 21
231.0
  0
LINE
  5
499
100
AcDbEntity
  8
2
  6
CONTINUOUS
100
AcDbLine
 10
282.500000000001
 20
210.0
 11
326.500000000001
 21
210.0
  0
LINE
  5
49A
100
AcDbEntity
  8
2
  6
CONTINUOUS
100
AcDbLine
 10
656.100000000002
 20
217.0
 11
656.100000000002
 21
183.0
  0
LINE
  5
49B
100
AcDbEntity
  8
2
  6
CONTINUOUS
100
AcDbLine
 10
652.100000000002
 20
187.5
 11
651.100000000002
 21
187.5
  0
LINE
  5
49C
100
AcDbEntity
  8
2
  6
CONTINUOUS
100
AcDbLine
 10
652.100000000002
 20
212.5
 11
651.100000000002
 21
212.5
  0
LINE
  5
49D
100
AcDbEntity
  8
2
  6
CONTINUOUS
100
AcDbLine
 10
651.100000000002
 20
183.5
 11
651.100000000002
 21
216.5
  0
LINE
  5
49E
100
AcDbEntity
  8
2
  6
CONTINUOUS
100
AcDbLine
 10
666.100000000002
 20
183.5
 11
666.100000000002
 21
216.5
  0
LINE
  5
49F
100
AcDbEntity
  8
2
  6
CONTINUOUS
100
AcDbLine
 10
656.100000000002
 20
183.5
 11
666.100000000002
 21
183.5
  0
LINE
  5
4A0
100
AcDbEntity
  8
2
  6
CONTINUOUS
100
AcDbLine
 10
666.100000000002
 20
185.0
 11
656.100000000002
 21
185.0
  0
LINE
  5
4A1
100
AcDbEntity
  8
2
  6
CONTINUOUS
100
AcDbLine
 10
656.100000000002
 20
186.5
 11
666.100000000002
 21
186.5
  0
LINE
  5
4A2
100
AcDbEntity
  8
2
  6
CONTINUOUS
100
AcDbLine
 10
666.100000000002
 20
188.0
 11
656.100000000002
 21
188.0
  0
LINE
  5
4A3
100
AcDbEntity
  8
2
  6
CONTINUOUS
100
AcDbLine
 10
656.100000000002
 20
189.5
 11
666.100000000002
 21
189.5
  0
LINE
  5
4A4
100
AcDbEntity
  8
2
  6
CONTINUOUS
100
AcDbLine
 10
666.100000000002
 20
191.0
 11
656.100000000002
 21
191.0
  0
LINE
  5
4A5
100
AcDbEntity
  8
2
  6
CONTINUOUS
100
AcDbLine
 10
656.100000000002
 20
192.5
 11
666.100000000002
 21
192.5
  0
LINE
  5
4A6
100
AcDbEntity
  8
2
  6
CONTINUOUS
100
AcDbLine
 10
666.100000000002
 20
194.0
 11
656.100000000002
 21
194.0
  0
LINE
  5
4A7
100
AcDbEntity
  8
2
  6
CONTINUOUS
100
AcDbLine
 10
656.100000000002
 20
195.5
 11
666.100000000002
 21
195.5
  0
LINE
  5
4A8
100
AcDbEntity
  8
2
  6
CONTINUOUS
100
AcDbLine
 10
666.100000000002
 20
197.0
 11
656.100000000002
 21
197.0
  0
LINE
  5
4A9
100
AcDbEntity
  8
2
  6
CONTINUOUS
100
AcDbLine
 10
656.100000000002
 20
198.5
 11
666.100000000002
 21
198.5
  0
LINE
  5
4AA
100
AcDbEntity
  8
2
  6
CONTINUOUS
100
AcDbLine
 10
666.100000000002
 20
200.0
 11
656.100000000002
 21
200.0
  0
LINE
  5
4AB
100
AcDbEntity
  8
2
  6
CONTINUOUS
100
AcDbLine
 10
656.100000000002
 20
201.5
 11
666.100000000002
 21
201.5
  0
LINE
  5
4AC
100
AcDbEntity
  8
2
  6
CONTINUOUS
100
AcDbLine
 10
666.100000000002
 20
203.0
 11
656.100000000002
 21
203.0
  0
LINE
  5
4AD
100
AcDbEntity
  8
2
  6
CONTINUOUS
100
AcDbLine
 10
656.100000000002
 20
204.5
 11
666.100000000002
 21
204.5
  0
LINE
  5
4AE
100
AcDbEntity
  8
2
  6
CONTINUOUS
100
AcDbLine
 10
666.100000000002
 20
206.0
 11
656.100000000002
 21
206.0
  0
LINE
  5
4AF
100
AcDbEntity
  8
2
  6
CONTINUOUS
100
AcDbLine
 10
656.100000000002
 20
207.5
 11
666.100000000002
 21
207.5
  0
LINE
  5
4B0
100
AcDbEntity
  8
2
  6
CONTINUOUS
100
AcDbLine
 10
666.100000000002
 20
209.0
 11
656.100000000002
 21
209.0
  0
LINE
  5
4B1
100
AcDbEntity
  8
2
  6
CONTINUOUS
100
AcDbLine
 10
656.100000000002
 20
210.5
 11
666.100000000002
 21
210.5
  0
LINE
  5
4B2
100
AcDbEntity
  8
2
  6
CONTINUOUS
100
AcDbLine
 10
666.100000000002
 20
212.0
 11
656.100000000002
 21
212.0
  0
LINE
  5
4B3
100
AcDbEntity
  8
2
  6
CONTINUOUS
100
AcDbLine
 10
656.100000000002
 20
213.5
 11
666.100000000002
 21
213.5
  0
LINE
  5
4B4
100
AcDbEntity
  8
2
  6
CONTINUOUS
100
AcDbLine
 10
666.100000000002
 20
215.0
 11
656.100000000002
 21
215.0
  0
LINE
  5
4B5
100
AcDbEntity
  8
2
  6
CONTINUOUS
100
AcDbLine
 10
656.100000000002
 20
216.5
 11
666.100000000002
 21
216.5
  0
LINE
  5
4B6
100
AcDbEntity
  8
2
  6
CONTINUOUS
100
AcDbLine
 10
644.100000000002
 20
185.0
 11
651.100000000002
 21
185.0
  0
LINE
  5
4B7
100
AcDbEntity
  8
2
  6
CONTINUOUS
100
AcDbLine
 10
651.100000000002
 20
186.5
 11
644.100000000002
 21
186.5
  0
LINE
  5
4B8
100
AcDbEntity
  8
2
  6
CONTINUOUS
100
AcDbLine
 10
644.100000000002
 20
188.0
 11
651.100000000002
 21
188.0
  0
LINE
  5
4B9
100
AcDbEntity
  8
2
  6
CONTINUOUS
100
AcDbLine
 10
651.100000000002
 20
189.5
 11
644.100000000002
 21
189.5
  0
LINE
  5
4BA
100
AcDbEntity
  8
2
  6
CONTINUOUS
100
AcDbLine
 10
644.100000000002
 20
191.0
 11
651.100000000002
 21
191.0
  0
LINE
  5
4BB
100
AcDbEntity
  8
2
  6
CONTINUOUS
100
AcDbLine
 10
651.100000000002
 20
192.5
 11
644.100000000002
 21
192.5
  0
LINE
  5
4BC
100
AcDbEntity
  8
2
  6
CONTINUOUS
100
AcDbLine
 10
644.100000000002
 20
194.0
 11
651.100000000002
 21
194.0
  0
LINE
  5
4BD
100
AcDbEntity
  8
2
  6
CONTINUOUS
100
AcDbLine
 10
651.100000000002
 20
195.5
 11
644.100000000002
 21
195.5
  0
LINE
  5
4BE
100
AcDbEntity
  8
2
  6
CONTINUOUS
100
AcDbLine
 10
644.100000000002
 20
197.0
 11
651.100000000002
 21
197.0
  0
LINE
  5
4BF
100
AcDbEntity
  8
2
  6
CONTINUOUS
100
AcDbLine
 10
651.100000000002
 20
198.5
 11
644.100000000002
 21
198.5
  0
LINE
  5
4C0
100
AcDbEntity
  8
2
  6
CONTINUOUS
100
AcDbLine
 10
644.100000000002
 20
200.0
 11
651.100000000002
 21
200.0
  0
LINE
  5
4C1
100
AcDbEntity
  8
2
  6
CONTINUOUS
100
AcDbLine
 10
651.100000000002
 20
201.5
 11
644.100000000002
 21
201.5
  0
LINE
  5
4C2
100
AcDbEntity
  8
2
  6
CONTINUOUS
100
AcDbLine
 10
644.100000000002
 20
203.0
 11
651.100000000002
 21
203.0
  0
LINE
  5
4C3
100
AcDbEntity
  8
2
  6
CONTINUOUS
100
AcDbLine
 10
651.100000000002
 20
204.5
 11
644.100000000002
 21
204.5
  0
LINE
  5
4C4
100
AcDbEntity
  8
2
  6
CONTINUOUS
100
AcDbLine
 10
644.100000000002
 20
206.0
 11
651.100000000002
 21
206.0
  0
LINE
  5
4C5
100
AcDbEntity
  8
2
  6
CONTINUOUS
100
AcDbLine
 10
651.100000000002
 20
207.5
 11
644.100000000002
 21
207.5
  0
LINE
  5
4C6
100
AcDbEntity
  8
2
  6
CONTINUOUS
100
AcDbLine
 10
644.100000000002
 20
209.0
 11
651.100000000002
 21
209.0
  0
LINE
  5
4C7
100
AcDbEntity
  8
2
  6
CONTINUOUS
100
AcDbLine
 10
651.100000000002
 20
210.5
 11
644.100000000002
 21
210.5
  0
LINE
  5
4C8
100
AcDbEntity
  8
2
  6
CONTINUOUS
100
AcDbLine
 10
644.100000000002
 20
212.0
 11
651.100000000002
 21
212.0
  0
LINE
  5
4C9
100
AcDbEntity
  8
2
  6
CONTINUOUS
100
AcDbLine
 10
651.100000000002
 20
213.5
 11
644.100000000002
 21
213.5
  0
LINE
  5
4CA
100
AcDbEntity
  8
2
  6
CONTINUOUS
100
AcDbLine
 10
644.100000000002
 20
215.0
 11
651.100000000002
 21
215.0
  0
LINE
  5
4CB
100
AcDbEntity
  8
2
  6
CONTINUOUS
100
AcDbLine
 10
620.100000000002
 20
185.0
 11
620.100000000002
 21
184.0
  0
LINE
  5
4CC
100
AcDbEntity
  8
2
  6
CONTINUOUS
100
AcDbLine
 10
620.100000000002
 20
215.0
 11
620.100000000002
 21
216.0
  0
ARC
  5
4CD
100
AcDbEntity
  8
2
  6
CONTINUOUS
100
AcDbCircle
 10
613.600000000002
 20
189.5
 40
5.50000000000011
100
AcDbArc
 50
270.0
 51
0.0
  0
LINE
  5
4CE
100
AcDbEntity
  8
2
  6
CONTINUOUS
100
AcDbLine
 10
619.100000000002
 20
189.5
 11
619.100000000002
 21
210.5
  0
ARC
  5
4CF
100
AcDbEntity
  8
2
  6
CONTINUOUS
100
AcDbCircle
 10
613.600000000002
 20
210.5
 40
5.50000000000011
100
AcDbArc
 50
0.0
 51
90.0
  0
LINE
  5
4D0
100
AcDbEntity
  8
2
  6
CONTINUOUS
100
AcDbLine
 10
619.100000000002
 20
192.5
 11
608.100000000002
 21
192.5
  0
LINE
  5
4D1
100
AcDbEntity
  8
2
  6
CONTINUOUS
100
AcDbLine
 10
619.100000000002
 20
207.5
 11
608.100000000002
 21
207.5
  0
CIRCLE
  5
4D2
100
AcDbEntity
  8
2
  6
CONTINUOUS
100
AcDbCircle
 10
613.600000000002
 20
188.0
 40
1.5
  0
CIRCLE
  5
4D3
100
AcDbEntity
  8
2
  6
CONTINUOUS
100
AcDbCircle
 10
613.600000000002
 20
212.0
 40
3.0
  0
LINE
  5
4D4
100
AcDbEntity
  8
2
  6
CONTINUOUS
100
AcDbLine
 10
615.283000000002
 20
210.085
 11
612.783000000002
 21
214.415
  0
LINE
  5
4D5
100
AcDbEntity
  8
2
  6
CONTINUOUS
100
AcDbLine
 10
612.783000000002
 20
214.415
 11
611.917000000002
 21
213.915
  0
LINE
  5
4D6
100
AcDbEntity
  8
2
  6
CONTINUOUS
100
AcDbLine
 10
611.917000000002
 20
213.915
 11
614.417000000002
 21
209.585
  0
LINE
  5
4D7
100
AcDbEntity
  8
2
  6
CONTINUOUS
100
AcDbLine
 10
614.417000000002
 20
209.585
 11
615.283000000002
 21
210.085
  0
LINE
  5
4D8
100
AcDbEntity
  8
2
  6
CONTINUOUS
100
AcDbLine
 10
634.600000000002
 20
188.5
 11
634.600000000002
 21
211.5
  0
LINE
  5
4D9
100
AcDbEntity
  8
2
  6
CONTINUOUS
100
AcDbLine
 10
620.600000000002
 20
191.0
 11
631.600000000002
 21
191.0
  0
LINE
  5
4DA
100
AcDbEntity
  8
2
  6
CONTINUOUS
100
AcDbLine
 10
631.600000000002
 20
194.0
 11
620.600000000002
 21
194.0
  0
LINE
  5
4DB
100
AcDbEntity
  8
2
  6
CONTINUOUS
100
AcDbLine
 10
631.600000000002
 20
191.0
 11
631.600000000002
 21
194.0
  0
LINE
  5
4DC
100
AcDbEntity
  8
2
  6
CONTINUOUS
100
AcDbLine
 10
620.600000000002
 20
194.0
 11
620.600000000002
 21
191.0
  0
LINE
  5
4DD
100
AcDbEntity
  8
2
  6
CONTINUOUS
100
AcDbLine
 10
620.100000000002
 20
215.0
 11
620.100000000002
 21
185.0
  0
LINE
  5
4DE
100
AcDbEntity
  8
2
  6
CONTINUOUS
100
AcDbLine
 10
620.600000000002
 20
209.0
 11
631.600000000002
 21
209.0
  0
LINE
  5
4DF
100
AcDbEntity
  8
2
  6
CONTINUOUS
100
AcDbLine
 10
631.600000000002
 20
206.0
 11
620.600000000002
 21
206.0
  0
LINE
  5
4E0
100
AcDbEntity
  8
2
  6
CONTINUOUS
100
AcDbLine
 10
631.600000000002
 20
209.0
 11
631.600000000002
 21
206.0
  0
LINE
  5
4E1
100
AcDbEntity
  8
2
  6
CONTINUOUS
100
AcDbLine
 10
620.600000000002
 20
206.0
 11
620.600000000002
 21
209.0
  0
LINE
  5
4E2
100
AcDbEntity
  8
2
  6
CONTINUOUS
100
AcDbLine
 10
643.600000000002
 20
191.5
 11
643.600000000002
 21
193.5
  0
LINE
  5
4E3
100
AcDbEntity
  8
2
  6
CONTINUOUS
100
AcDbLine
 10
643.600000000002
 20
193.5
 11
635.600000000002
 21
193.5
  0
ARC
  5
4E4
100
AcDbEntity
  8
2
  6
CONTINUOUS
100
AcDbCircle
 10
635.600000000002
 20
192.5
 40
1.0
100
AcDbArc
 50
90.0
 51
180.0
  0
LINE
  5
4E5
100
AcDbEntity
  8
2
  6
CONTINUOUS
100
AcDbLine
 10
635.600000000002
 20
191.5
 11
643.600000000002
 21
191.5
  0
POINT
  5
4E6
100
AcDbEntity
  8
2
  6
CONTINUOUS
100
AcDbPoint
 10
634.600000000002
 20
192.5
  0
ARC
  5
4E7
100
AcDbEntity
  8
2
  6
CONTINUOUS
100
AcDbCircle
 10
635.600000000002
 20
192.5
 40
1.0
100
AcDbArc
 50
180.0
 51
270.0
  0
LINE
  5
4E8
100
AcDbEntity
  8
2
  6
CONTINUOUS
100
AcDbLine
 10
643.600000000002
 20
208.5
 11
643.600000000002
 21
206.5
  0
LINE
  5
4E9
100
AcDbEntity
  8
2
  6
CONTINUOUS
100
AcDbLine
 10
643.600000000002
 20
206.5
 11
635.600000000002
 21
206.5
  0
ARC
  5
4EA
100
AcDbEntity
  8
2
  6
CONTINUOUS
100
AcDbCircle
 10
635.600000000002
 20
207.5
 40
1.0
100
AcDbArc
 50
180.0
 51
270.0
  0
LINE
  5
4EB
100
AcDbEntity
  8
2
  6
CONTINUOUS
100
AcDbLine
 10
635.600000000002
 20
208.5
 11
643.600000000002
 21
208.5
  0
ARC
  5
4EC
100
AcDbEntity
  8
2
  6
CONTINUOUS
100
AcDbCircle
 10
635.600000000002
 20
207.5
 40
1.0
100
AcDbArc
 50
90.0
 51
180.0
  0
ARC
  5
4ED
100
AcDbEntity
  8
2
  6
CONTINUOUS
100
AcDbCircle
 10
613.600000000002
 20
189.5
 40
5.50000000000011
100
AcDbArc
 50
180.0
 51
270.0
  0
LINE
  5
4EE
100
AcDbEntity
  8
2
  6
CONTINUOUS
100
AcDbLine
 10
608.100000000002
 20
189.5
 11
608.100000000002
 21
210.5
  0
LINE
  5
4EF
100
AcDbEntity
  8
2
  6
CONTINUOUS
100
AcDbLine
 10
620.100000000002
 20
184.0
 11
613.600000000002
 21
184.0
  0
ARC
  5
4F0
100
AcDbEntity
  8
2
  6
CONTINUOUS
100
AcDbCircle
 10
613.600000000002
 20
210.5
 40
5.50000000000011
100
AcDbArc
 50
90.0
 51
180.0
  0
LINE
  5
4F1
100
AcDbEntity
  8
2
  6
CONTINUOUS
100
AcDbLine
 10
620.100000000002
 20
216.0
 11
613.600000000002
 21
216.0
  0
LINE
  5
4F2
100
AcDbEntity
  8
2
  6
CONTINUOUS
100
AcDbLine
 10
631.100000000002
 20
215.0
 11
620.100000000002
 21
215.0
  0
ARC
  5
4F3
100
AcDbEntity
  8
2
  6
CONTINUOUS
100
AcDbCircle
 10
631.100000000002
 20
214.0
 40
1.0
100
AcDbArc
 50
0.0
 51
90.0
  0
ARC
  5
4F4
100
AcDbEntity
  8
2
  6
CONTINUOUS
100
AcDbCircle
 10
636.600000000002
 20
211.5
 40
1.99999999999994
100
AcDbArc
 50
90.0
 51
180.0
  0
LINE
  5
4F5
100
AcDbEntity
  8
2
  6
CONTINUOUS
100
AcDbLine
 10
644.100000000002
 20
213.5
 11
636.600000000002
 21
213.5
  0
LINE
  5
4F6
100
AcDbEntity
  8
2
  6
CONTINUOUS
100
AcDbLine
 10
651.100000000002
 20
216.5
 11
644.600000000002
 21
216.5
  0
LINE
  5
4F7
100
AcDbEntity
  8
2
  6
CONTINUOUS
100
AcDbLine
 10
644.100000000002
 20
184.0
 11
644.100000000002
 21
216.0
  0
ARC
  5
4F8
100
AcDbEntity
  8
2
  6
CONTINUOUS
100
AcDbCircle
 10
644.600000000002
 20
216.0
 40
0.499999999999943
100
AcDbArc
 50
90.0
 51
180.0
  0
LINE
  5
4F9
100
AcDbEntity
  8
2
  6
CONTINUOUS
100
AcDbLine
 10
656.100000000002
 20
217.0
 11
652.600000000002
 21
217.0
  0
ARC
  5
4FA
100
AcDbEntity
  8
2
  6
CONTINUOUS
100
AcDbCircle
 10
652.600000000002
 20
216.5
 40
0.499999999999943
100
AcDbArc
 50
90.0
 51
180.0
  0
LINE
  5
4FB
100
AcDbEntity
  8
2
  6
CONTINUOUS
100
AcDbLine
 10
669.600000000002
 20
216.0
 11
666.100000000002
 21
216.0
  0
ARC
  5
4FC
100
AcDbEntity
  8
2
  6
CONTINUOUS
100
AcDbCircle
 10
669.600000000002
 20
215.5
 40
0.499999999999943
100
AcDbArc
 50
0.0
 51
90.0
  0
LINE
  5
4FD
100
AcDbEntity
  8
2
  6
CONTINUOUS
100
AcDbLine
 10
673.100000000002
 20
212.0
 11
670.100000000002
 21
212.0
  0
LINE
  5
4FE
100
AcDbEntity
  8
2
  6
CONTINUOUS
100
AcDbLine
 10
632.100000000002
 20
211.5
 11
634.600000000002
 21
211.5
  0
LINE
  5
4FF
100
AcDbEntity
  8
2
  6
CONTINUOUS
100
AcDbLine
 10
632.100000000002
 20
186.0
 11
632.100000000002
 21
214.0
  0
ARC
  5
500
100
AcDbEntity
  8
2
  6
CONTINUOUS
100
AcDbCircle
 10
631.100000000002
 20
186.0
 40
1.0
100
AcDbArc
 50
270.0
 51
0.0
  0
LINE
  5
501
100
AcDbEntity
  8
2
  6
CONTINUOUS
100
AcDbLine
 10
620.100000000002
 20
185.0
 11
631.100000000002
 21
185.0
  0
LINE
  5
502
100
AcDbEntity
  8
2
  6
CONTINUOUS
100
AcDbLine
 10
632.100000000002
 20
188.5
 11
634.600000000002
 21
188.5
  0
ARC
  5
503
100
AcDbEntity
  8
2
  6
CONTINUOUS
100
AcDbCircle
 10
636.600000000002
 20
188.5
 40
1.99999999999994
100
AcDbArc
 50
180.0
 51
270.0
  0
LINE
  5
504
100
AcDbEntity
  8
2
  6
CONTINUOUS
100
AcDbLine
 10
644.100000000002
 20
186.5
 11
636.600000000002
 21
186.5
  0
LINE
  5
505
100
AcDbEntity
  8
2
  6
CONTINUOUS
100
AcDbLine
 10
651.100000000002
 20
183.5
 11
644.600000000002
 21
183.5
  0
ARC
  5
506
100
AcDbEntity
  8
2
  6
CONTINUOUS
100
AcDbCircle
 10
644.600000000002
 20
184.0
 40
0.499999999999943
100
AcDbArc
 50
180.0
 51
270.0
  0
LINE
  5
507
100
AcDbEntity
  8
2
  6
CONTINUOUS
100
AcDbLine
 10
652.600000000002
 20
183.0
 11
656.100000000002
 21
183.0
  0
ARC
  5
508
100
AcDbEntity
  8
2
  6
CONTINUOUS
100
AcDbCircle
 10
652.600000000002
 20
183.5
 40
0.499999999999943
100
AcDbArc
 50
180.0
 51
270.0
  0
LINE
  5
509
100
AcDbEntity
  8
2
  6
CONTINUOUS
100
AcDbLine
 10
652.100000000002
 20
216.5
 11
652.100000000002
 21
183.5
  0
LINE
  5
50A
100
AcDbEntity
  8
2
  6
CONTINUOUS
100
AcDbLine
 10
656.100000000002
 20
183.0
 11
665.600000000002
 21
183.0
  0
ARC
  5
50B
100
AcDbEntity
  8
2
  6
CONTINUOUS
100
AcDbCircle
 10
665.600000000002
 20
183.5
 40
0.499999999999943
100
AcDbArc
 50
270.0
 51
0.0
  0
ARC
  5
50C
100
AcDbEntity
  8
2
  6
CONTINUOUS
100
AcDbCircle
 10
669.600000000002
 20
184.5
 40
0.499999999999943
100
AcDbArc
 50
270.0
 51
0.0
  0
LINE
  5
50D
100
AcDbEntity
  8
2
  6
CONTINUOUS
100
AcDbLine
 10
666.100000000002
 20
184.0
 11
669.600000000002
 21
184.0
  0
LINE
  5
50E
100
AcDbEntity
  8
2
  6
CONTINUOUS
100
AcDbLine
 10
670.100000000002
 20
188.0
 11
673.100000000002
 21
188.0
  0
LINE
  5
50F
100
AcDbEntity
  8
2
  6
CONTINUOUS
100
AcDbLine
 10
670.100000000002
 20
184.5
 11
670.100000000002
 21
215.5
  0
ARC
  5
510
100
AcDbEntity
  8
2
  6
CONTINUOUS
100
AcDbCircle
 10
665.600000000002
 20
216.5
 40
0.499999999999943
100
AcDbArc
 50
0.0
 51
90.0
  0
LINE
  5
511
100
AcDbEntity
  8
2
  6
CONTINUOUS
100
AcDbLine
 10
665.600000000002
 20
217.0
 11
656.100000000002
 21
217.0
  0
LINE
  5
512
100
AcDbEntity
  8
2
  6
CONTINUOUS
100
AcDbLine
 10
608.100000000002
 20
206.2
 11
555.000000000002
 21
206.2
  0
LINE
  5
513
100
AcDbEntity
  8
2
  6
CONTINUOUS
100
AcDbLine
 10
555.000000000002
 20
193.8
 11
608.100000000002
 21
193.8
  0
LINE
  5
514
100
AcDbEntity
  8
2
  6
CONTINUOUS
100
AcDbLine
 10
673.100000000002
 20
188.0
 11
673.100000000002
 21
212.0
  0
LINE
  5
515
100
AcDbEntity
  8
8
  6
CONTINUOUS
 62
     7
100
AcDbLine
 10
1.00000000000148
 20
192.0
 11
28.5000000000015
 21
208.0
  0
LINE
  5
516
100
AcDbEntity
  8
8
  6
CONTINUOUS
 62
     7
100
AcDbLine
 10
1.00000000000148
 20
208.0
 11
28.5000000000015
 21
192.0
  0
LINE
  5
517
100
AcDbEntity
  8
2
  6
CONTINUOUS
100
AcDbLine
 10
560.000000000002
 20
-77.000000000001
 11
564.255437353464
 21
-77.000000000001
  0
LINE
  5
518
100
AcDbEntity
  8
2
  6
CONTINUOUS
100
AcDbLine
 10
575.74456264654
 20
-77.000000000001
 11
580.000000000002
 21
-77.000000000001
  0
ARC
  5
519
100
AcDbEntity
  8
2
  6
CONTINUOUS
100
AcDbCircle
 10
580.000000000002
 20
-79.000000000001
 40
2.0
100
AcDbArc
 50
0.0
 51
90.0
  0
ARC
  5
51A
100
AcDbEntity
  8
2
  6
CONTINUOUS
100
AcDbCircle
 10
560.000000000002
 20
-79.000000000001
 40
2.0
100
AcDbArc
 50
90.0
 51
180.0
  0
ARC
  5
51B
100
AcDbEntity
  8
2
  6
CONTINUOUS
100
AcDbCircle
 10
570.000000000002
 20
-180.000000000001
 40
31.0
100
AcDbArc
 50
0.0
 51
51.3178125465106
  0
ARC
  5
51C
100
AcDbEntity
  8
2
  6
CONTINUOUS
100
AcDbCircle
 10
570.000000000002
 20
-180.000000000001
 40
31.0
100
AcDbArc
 50
128.682187453489
 51
0.0
  0
LINE
  5
51D
100
AcDbEntity
  8
7
  6
CENTER2
 62
    40
100
AcDbLine
 10
512.25557423489
 20
-180.000000000001
 11
625.82618758891
 21
-180.000000000001
  0
LINE
  5
51E
100
AcDbEntity
  8
2
  6
CONTINUOUS
100
AcDbLine
 10
552.500000000002
 20
-146.000000000001
 11
587.500000000002
 21
-146.000000000001
  0
LINE
  5
51F
100
AcDbEntity
  8
2
  6
CONTINUOUS
100
AcDbLine
 10
552.500000000002
 20
-151.897509007208
 11
552.500000000002
 21
-146.000000000001
  0
LINE
  5
520
100
AcDbEntity
  8
2
  6
CONTINUOUS
100
AcDbLine
 10
587.500000000002
 20
-151.897509007208
 11
587.500000000002
 21
-146.000000000001
  0
LINE
  5
521
100
AcDbEntity
  8
2
  6
CONTINUOUS
100
AcDbLine
 10
578.300000000002
 20
-137.000000000002
 11
570.000000000002
 21
-137.000000000002
  0
LINE
  5
522
100
AcDbEntity
  8
2
  6
CONTINUOUS
100
AcDbLine
 10
581.300000000002
 20
-146.000000000002
 11
581.300000000002
 21
-140.000000000002
  0
ARC
  5
523
100
AcDbEntity
  8
2
  6
CONTINUOUS
100
AcDbCircle
 10
578.300000000002
 20
-140.000000000002
 40
2.99999999999994
100
AcDbArc
 50
0.0
 51
90.0
  0
LINE
  5
524
100
AcDbEntity
  8
2
  6
CONTINUOUS
100
AcDbLine
 10
561.700000000002
 20
-137.000000000002
 11
570.000000000002
 21
-137.000000000002
  0
LINE
  5
525
100
AcDbEntity
  8
2
  6
CONTINUOUS
100
AcDbLine
 10
558.700000000002
 20
-146.000000000002
 11
558.700000000002
 21
-140.000000000002
  0
ARC
  5
526
100
AcDbEntity
  8
2
  6
CONTINUOUS
100
AcDbCircle
 10
561.700000000002
 20
-140.000000000002
 40
2.99999999999994
100
AcDbArc
 50
90.0
 51
180.0
  0
LINE
  5
527
100
AcDbEntity
  8
2
  6
CONTINUOUS
100
AcDbLine
 10
552.500000000002
 20
-148.000000000001
 11
587.500000000002
 21
-148.000000000001
  0
LINE
  5
528
100
AcDbEntity
  8
2
  6
CONTINUOUS
100
AcDbLine
 10
552.500000000002
 20
-149.000000000001
 11
587.500000000002
 21
-149.000000000001
  0
INSERT
  5
52A
100
AcDbEntity
  8
2
  6
CONTINUOUS
100
AcDbBlockReference
  2
SUB25
 10
570.000000000002
 20
-211.000000000001
 41
1.0
 42
1.0
 50
0.0
  0
INSERT
  5
538
100
AcDbEntity
  8
2
  6
CONTINUOUS
100
AcDbBlockReference
  2
SUB26
 10
596.846787517319
 20
-164.500000000001
 41
1.0
 42
1.0
 50
0.0
  0
LINE
  5
545
100
AcDbEntity
  8
7
  6
CENTER2
 62
    40
100
AcDbLine
 10
613.579035357043
 20
-154.839632205589
 11
570.000000000002
 21
-180.000000000001
  0
INSERT
  5
547
100
AcDbEntity
  8
2
  6
CONTINUOUS
100
AcDbBlockReference
  2
SUB27
 10
543.153212482684
 20
-164.500000000001
 41
1.0
 42
1.0
 50
0.0
  0
LINE
  5
554
100
AcDbEntity
  8
7
  6
CENTER2
 62
    40
100
AcDbLine
 10
526.103785732758
 20
-154.656508876402
 11
570.000000000002
 21
-180.000000000001
  0
ARC
  5
555
100
AcDbEntity
  8
2
  6
CONTINUOUS
100
AcDbCircle
 10
547.500000000002
 20
-151.897509007208
 40
5.0
100
AcDbArc
 50
308.682187453489
 51
0.0
  0
ARC
  5
556
100
AcDbEntity
  8
2
  6
CONTINUOUS
100
AcDbCircle
 10
592.500000000002
 20
-151.897509007208
 40
5.0
100
AcDbArc
 50
180.0
 51
231.317812546511
  0
INSERT
  5
558
100
AcDbEntity
  8
0
  6
CONTINUOUS
100
AcDbBlockReference
  2
M6_0001
 10
570.000000000002
 20
-218.000000000001
 41
1.0
 42
1.0
 50
0.0
  0
ARC
  5
55D
100
AcDbEntity
  8
2
  6
CONTINUOUS
100
AcDbCircle
 10
570.000000000002
 20
-180.000000000001
 40
43.9999999999998
100
AcDbArc
 50
76.8634412130566
 51
81.8995451763709
  0
ARC
  5
55E
100
AcDbEntity
  8
2
  6
CONTINUOUS
100
AcDbCircle
 10
570.000000000002
 20
-180.000000000001
 40
43.9999999999999
100
AcDbArc
 50
98.1004548236294
 51
103.136558786945
  0
ARC
  5
55F
100
AcDbEntity
  8
2
  6
CONTINUOUS
100
AcDbCircle
 10
570.000000000002
 20
-180.000000000001
 40
43.9999999999999
100
AcDbArc
 50
256.863441213055
 51
283.136558786943
  0
LINE
  5
560
100
AcDbEntity
  8
2
  6
CONTINUOUS
100
AcDbLine
 10
580.000000000001
 20
-222.848570571258
 11
596.387568081106
 21
-196.269488337532
  0
LINE
  5
561
100
AcDbEntity
  8
2
  6
CONTINUOUS
100
AcDbLine
 10
560.000000000002
 20
-222.848570571258
 11
543.612431918897
 21
-196.269488337532
  0
LINE
  5
562
100
AcDbEntity
  8
2
  6
CONTINUOUS
100
AcDbLine
 10
560.000000000002
 20
-137.151429428744
 11
554.544335602646
 21
-146.000000000001
  0
LINE
  5
563
100
AcDbEntity
  8
2
  6
CONTINUOUS
100
AcDbLine
 10
552.500000000002
 20
-149.315718587841
 11
543.612431918897
 21
-163.73051166247
  0
LINE
  5
564
100
AcDbEntity
  8
2
  6
CONTINUOUS
100
AcDbLine
 10
580.000000000001
 20
-137.151429428744
 11
585.455664397357
 21
-146.000000000001
  0
LINE
  5
565
100
AcDbEntity
  8
2
  6
CONTINUOUS
100
AcDbLine
 10
587.500000000002
 20
-149.315718587841
 11
596.387568081106
 21
-163.73051166247
  0
LINE
  5
566
100
AcDbEntity
  8
2
  6
CONTINUOUS
100
AcDbLine
 10
602.500000000002
 20
-146.000000000001
 11
587.500000000002
 21
-146.000000000001
  0
LINE
  5
567
100
AcDbEntity
  8
2
  6
CONTINUOUS
100
AcDbLine
 10
552.500000000002
 20
-146.000000000001
 11
537.500000000002
 21
-146.000000000001
  0
ARC
  5
568
100
AcDbEntity
  8
2
  6
CONTINUOUS
100
AcDbCircle
 10
570.000000000002
 20
-180.000041242513
 40
47.0000000000005
100
AcDbArc
 50
22.7736246142746
 51
46.3363348843325
  0
ARC
  5
569
100
AcDbEntity
  8
2
  6
CONTINUOUS
100
AcDbCircle
 10
570.000000000002
 20
-180.000041242513
 40
47.0
100
AcDbArc
 50
133.663665115668
 51
157.22637614998
  0
ARC
  5
56A
100
AcDbEntity
  8
2
  6
CONTINUOUS
100
AcDbCircle
 10
570.000000000002
 20
-180.000041242513
 40
47.0
100
AcDbArc
 50
262.77362657159
 51
277.226374996069
  0
LINE
  5
56B
100
AcDbEntity
  8
2
  6
CONTINUOUS
100
AcDbLine
 10
602.419395941568
 20
-191.799735536288
 11
613.335948134741
 21
-161.806754887247
  0
LINE
  5
56C
100
AcDbEntity
  8
2
  6
CONTINUOUS
100
AcDbLine
 10
596.428532792048
 20
-202.176214449916
 11
582.542343379894
 21
-218.725130569294
  0
LINE
  5
56D
100
AcDbEntity
  8
2
  6
CONTINUOUS
100
AcDbLine
 10
578.875058871533
 20
-223.095630057199
 11
575.91212571135
 21
-226.626716295463
  0
ARC
  5
56E
100
AcDbEntity
  8
2
  6
CONTINUOUS
100
AcDbCircle
 10
570.000000000002
 20
-180.000000000001
 40
34.5000000000002
100
AcDbArc
 50
197.499999999999
 51
222.5
  0
ARC
  5
56F
100
AcDbEntity
  8
2
  6
CONTINUOUS
100
AcDbCircle
 10
570.000000000002
 20
-180.000000000001
 40
34.4999999999998
100
AcDbArc
 50
317.500000000001
 51
342.500000000001
  0
LINE
  5
570
100
AcDbEntity
  8
2
  6
CONTINUOUS
100
AcDbLine
 10
543.57146723685
 20
-202.176213125738
 11
557.457653461659
 21
-218.725125446587
  0
LINE
  5
571
100
AcDbEntity
  8
2
  6
CONTINUOUS
100
AcDbLine
 10
561.124942506632
 20
-223.095630341016
 11
564.087874317547
 21
-226.626714971285
  0
LINE
  5
572
100
AcDbEntity
  8
2
  6
CONTINUOUS
100
AcDbLine
 10
537.58060408733
 20
-191.799736860466
 11
526.664051894157
 21
-161.806756211425
  0
LINE
  5
573
100
AcDbEntity
  8
2
  6
CONTINUOUS
100
AcDbLine
 10
552.500000000002
 20
-148.053477966039
 11
532.576143181082
 21
-151.566591482986
  0
LINE
  5
574
100
AcDbEntity
  8
2
  6
CONTINUOUS
100
AcDbLine
 10
587.500000000002
 20
-148.053477079268
 11
607.423857951248
 21
-151.566590795875
  0
ARC
  5
575
100
AcDbEntity
  8
2
  6
CONTINUOUS
100
AcDbCircle
 10
604.64101615138
 20
-160.000000000001
 40
6.5
100
AcDbArc
 50
120.0
 51
184.971000512384
  0
ARC
  5
576
100
AcDbEntity
  8
2
  6
CONTINUOUS
100
AcDbCircle
 10
604.64101615138
 20
-160.000000000001
 40
6.50000000000001
100
AcDbArc
 50
235.028999487613
 51
120.0
  0
ARC
  5
577
100
AcDbEntity
  8
2
  6
CONTINUOUS
100
AcDbCircle
 10
604.64101615138
 20
-160.000000000001
 40
5.64999999999995
100
AcDbArc
 50
119.999999999999
 51
180.874404809366
  0
ARC
  5
578
100
AcDbEntity
  8
2
  6
CONTINUOUS
100
AcDbCircle
 10
604.64101615138
 20
-160.000000000001
 40
5.65000000000044
100
AcDbArc
 50
180.874404809366
 51
189.727128534107
  0
ARC
  5
579
100
AcDbEntity
  8
2
  6
CONTINUOUS
100
AcDbCircle
 10
604.64101615138
 20
-160.000000000001
 40
5.64999999999998
100
AcDbArc
 50
230.272871465889
 51
239.12559519063
  0
ARC
  5
57A
100
AcDbEntity
  8
2
  6
CONTINUOUS
100
AcDbCircle
 10
604.64101615138
 20
-160.000000000001
 40
5.65
100
AcDbArc
 50
239.12559519063
 51
119.999999999998
  0
LWPOLYLINE
  5
57B
100
AcDbEntity
  8
2
  6
CONTINUOUS
100
AcDbPolyline
 90
        6
 70
     1
 43
0.0
 10
602.908965343811
 20
-157.000000000001
 10
601.176914536242
 20
-160.000000000001
 10
602.908965343811
 20
-163.000000000001
 10
606.373066958948
 20
-163.000000000001
 10
608.105117766517
 20
-160.000000000001
 10
606.373066958948
 20
-157.000000000001
  0
ARC
  5
57C
100
AcDbEntity
  8
2
  6
CONTINUOUS
100
AcDbCircle
 10
535.358983848624
 20
-160.000000000001
 40
6.5
100
AcDbArc
 50
240.0
 51
304.971000512386
  0
ARC
  5
57D
100
AcDbEntity
  8
2
  6
CONTINUOUS
100
AcDbCircle
 10
535.358983848624
 20
-160.000000000001
 40
6.50000000000001
100
AcDbArc
 50
355.028999487616
 51
240.0
  0
ARC
  5
57E
100
AcDbEntity
  8
2
  6
CONTINUOUS
100
AcDbCircle
 10
535.358983848624
 20
-160.000000000001
 40
5.65
100
AcDbArc
 50
239.999999999999
 51
300.874404809369
  0
ARC
  5
57F
100
AcDbEntity
  8
2
  6
CONTINUOUS
100
AcDbCircle
 10
535.358983848624
 20
-160.000000000001
 40
5.6500000000002
100
AcDbArc
 50
300.874404809369
 51
309.72712853411
  0
ARC
  5
580
100
AcDbEntity
  8
2
  6
CONTINUOUS
100
AcDbCircle
 10
535.358983848624
 20
-160.000000000001
 40
5.65
100
AcDbArc
 50
350.272871465895
 51
359.125595190634
  0
ARC
  5
581
100
AcDbEntity
  8
2
  6
CONTINUOUS
100
AcDbCircle
 10
535.358983848624
 20
-160.000000000001
 40
5.64999999999998
100
AcDbArc
 50
359.125595190634
 51
239.999999999999
  0
LWPOLYLINE
  5
582
100
AcDbEntity
  8
2
  6
CONTINUOUS
100
AcDbPolyline
 90
        6
 70
     1
 43
0.0
 10
533.626933041055
 20
-163.000000000001
 10
537.091034656193
 20
-163.000000000001
 10
538.823085463762
 20
-160.000000000001
 10
537.091034656193
 20
-157.000000000001
 10
533.626933041055
 20
-157.000000000001
 10
531.894882233486
 20
-160.000000000001
  0
ARC
  5
583
100
AcDbEntity
  8
2
  6
CONTINUOUS
100
AcDbCircle
 10
570.000000000002
 20
-220.000000000001
 40
6.50000000000016
100
AcDbArc
 50
214.395614481802
 51
325.604385518196
  0
LINE
  5
584
100
AcDbEntity
  8
6
  6
CENTER
100
AcDbLine
 10
598.500000000002
 20
-123.500000000002
 11
540.000000000002
 21
-123.500000000002
  0
LINE
  5
585
100
AcDbEntity
  8
6
  6
CENTER
100
AcDbLine
 10
554.000000000002
 20
-101.500000000002
 11
554.000000000002
 21
-143.500000000002
  0
LINE
  5
586
100
AcDbEntity
  8
7
  6
CENTER2
 62
    40
100
AcDbLine
 10
584.500000000002
 20
-137.250000000002
 11
584.500000000002
 21
-109.750000000002
  0
LINE
  5
587
100
AcDbEntity
  8
7
  6
CENTER2
 62
    40
100
AcDbLine
 10
565.500000000002
 20
-108.154550611759
 11
565.500000000002
 21
-138.983571941804
  0
LINE
  5
588
100
AcDbEntity
  8
2
  6
CONTINUOUS
100
AcDbLine
 10
542.500000000002
 20
-109.000000000002
 11
560.000000000002
 21
-109.000000000002
  0
LINE
  5
589
100
AcDbEntity
  8
2
  6
CONTINUOUS
100
AcDbLine
 10
542.500000000002
 20
-138.000000000002
 11
559.463932022502
 21
-138.000000000002
  0
LINE
  5
58A
100
AcDbEntity
  8
2
  6
CONTINUOUS
100
AcDbLine
 10
539.500000000002
 20
-112.000000000002
 11
539.500000000002
 21
-135.000000000002
  0
LINE
  5
58B
100
AcDbEntity
  8
7
  6
CENTER2
 62
    40
100
AcDbLine
 10
538.570607821086
 20
-112.000000000002
 11
569.399629151131
 21
-112.000000000002
  0
LINE
  5
58C
100
AcDbEntity
  8
7
  6
CENTER2
 62
    40
100
AcDbLine
 10
538.570607821086
 20
-135.000000000002
 11
569.399629151131
 21
-135.000000000002
  0
LINE
  5
58D
100
AcDbEntity
  8
7
  6
CENTER2
 62
    40
100
AcDbLine
 10
542.500000000002
 20
-108.154550611759
 11
542.500000000002
 21
-138.983571941804
  0
ARC
  5
58E
100
AcDbEntity
  8
2
  6
CONTINUOUS
100
AcDbCircle
 10
542.500000000002
 20
-112.000000000002
 40
3.0
100
AcDbArc
 50
90.0
 51
180.0
  0
ARC
  5
58F
100
AcDbEntity
  8
2
  6
CONTINUOUS
100
AcDbCircle
 10
542.500000000002
 20
-135.000000000002
 40
3.0
100
AcDbArc
 50
180.0
 51
270.0
  0
ARC
  5
590
100
AcDbEntity
  8
2
  6
CONTINUOUS
100
AcDbCircle
 10
554.000000000002
 20
-123.500000000002
 40
13.0
100
AcDbArc
 50
41.075348874402
 51
318.924651125598
  0
ARC
  5
591
100
AcDbEntity
  8
2
  6
CONTINUOUS
100
AcDbCircle
 10
554.000000000002
 20
-123.500000000002
 40
12.5
100
AcDbArc
 50
38.3717151470566
 51
321.628284852943
  0
ARC
  5
592
100
AcDbEntity
  8
2
  6
CONTINUOUS
100
AcDbCircle
 10
554.000000000002
 20
-123.500000000002
 40
11.8
100
AcDbArc
 50
33.8489938853152
 51
326.151006114685
  0
INSERT
  5
594
100
AcDbEntity
  8
2
  6
CONTINUOUS
100
AcDbBlockReference
  2
SUB28
 10
542.500000000002
 20
-112.000000000002
 41
1.0
 42
1.0
 50
0.0
  0
INSERT
  5
59B
100
AcDbEntity
  8
2
  6
CONTINUOUS
100
AcDbBlockReference
  2
SUB29
 10
542.500000000002
 20
-135.000000000002
 41
1.0
 42
1.0
 50
0.0
  0
ARC
  5
5A1
100
AcDbEntity
  8
2
  6
CONTINUOUS
100
AcDbCircle
 10
554.000000000002
 20
-123.500000000002
 40
4.3
100
AcDbArc
 50
105.000000000001
 51
285.000000000001
  0
ARC
  5
5A2
100
AcDbEntity
  8
2
  6
CONTINUOUS
100
AcDbCircle
 10
554.000000000002
 20
-124.000000000002
 40
11.5
100
AcDbArc
 50
36.1189933705596
 51
177.50809363102
  0
ARC
  5
5A3
100
AcDbEntity
  8
2
  6
CONTINUOUS
100
AcDbCircle
 10
554.000000000002
 20
-123.000000000002
 40
11.5
100
AcDbArc
 50
182.49190636898
 51
328.448909307112
  0
LINE
  5
5A4
100
AcDbEntity
  8
2
  6
CONTINUOUS
100
AcDbLine
 10
552.887078106061
 20
-119.346518946959
 11
559.455373724827
 21
-117.586549440262
  0
LINE
  5
5A5
100
AcDbEntity
  8
2
  6
CONTINUOUS
100
AcDbLine
 10
555.112921893943
 20
-127.653481053045
 11
561.681217512709
 21
-125.893511546348
  0
ARC
  5
5A6
100
AcDbEntity
  8
2
  6
CONTINUOUS
100
AcDbCircle
 10
562.457674648016
 20
-128.791289025215
 40
3.00000000000001
100
AcDbArc
 50
63.4203304481901
 51
104.999999999999
  0
ARC
  5
5A7
100
AcDbEntity
  8
2
  6
CONTINUOUS
100
AcDbCircle
 10
562.457674648016
 20
-128.791289025215
 40
11.6
100
AcDbArc
 50
83.3549772353729
 51
105.0
  0
LINE
  5
5A8
100
AcDbEntity
  8
7
  6
CENTER2
 62
    40
100
AcDbLine
 10
601.897073014954
 20
-110.500000000002
 11
567.825718315055
 21
-110.500000000002
  0
LINE
  5
5A9
100
AcDbEntity
  8
7
  6
CENTER2
 62
    40
100
AcDbLine
 10
601.621987106189
 20
-136.500000000002
 11
567.904314288988
 21
-136.500000000002
  0
LINE
  5
5AA
100
AcDbEntity
  8
7
  6
CENTER2
 62
    40
100
AcDbLine
 10
597.500000000002
 20
-140.563905190068
 11
597.500000000002
 21
-105.981676659606
  0
LINE
  5
5AB
100
AcDbEntity
  8
7
  6
CENTER2
 62
    40
100
AcDbLine
 10
571.500000000002
 20
-140.563905190068
 11
571.500000000002
 21
-105.981676659606
  0
LINE
  5
5AC
100
AcDbEntity
  8
2
  6
CONTINUOUS
100
AcDbLine
 10
600.500000000002
 20
-136.500000000002
 11
600.500000000002
 21
-110.500000000002
  0
INSERT
  5
5AE
100
AcDbEntity
  8
2
  6
CONTINUOUS
100
AcDbBlockReference
  2
SUB30
 10
597.500000000002
 20
-110.500000000002
 41
1.0
 42
1.0
 50
0.0
  0
INSERT
  5
5B5
100
AcDbEntity
  8
2
  6
CONTINUOUS
100
AcDbBlockReference
  2
SUB31
 10
597.500000000002
 20
-136.500000000002
 41
1.0
 42
1.0
 50
0.0
  0
ARC
  5
5BB
100
AcDbEntity
  8
2
  6
CONTINUOUS
100
AcDbCircle
 10
597.500000000002
 20
-110.500000000002
 40
3.0
100
AcDbArc
 50
0.0
 51
90.0
  0
ARC
  5
5BC
100
AcDbEntity
  8
2
  6
CONTINUOUS
100
AcDbCircle
 10
597.500000000002
 20
-136.500000000002
 40
3.0
100
AcDbArc
 50
270.0
 51
0.0
  0
LINE
  5
5BD
100
AcDbEntity
  8
2
  6
CONTINUOUS
100
AcDbLine
 10
581.448031944495
 20
-139.500000000002
 11
597.500000000002
 21
-139.500000000002
  0
LINE
  5
5BE
100
AcDbEntity
  8
2
  6
CONTINUOUS
100
AcDbLine
 10
600.500000000002
 20
-141.000000000002
 11
582.372870202848
 21
-141.000000000002
  0
LINE
  5
5BF
100
AcDbEntity
  8
2
  6
CONTINUOUS
100
AcDbLine
 10
557.627129797155
 20
-141.000000000002
 11
539.500000000002
 21
-141.000000000002
  0
LINE
  5
5C0
100
AcDbEntity
  8
2
  6
CONTINUOUS
100
AcDbLine
 10
600.500000000002
 20
-141.000000000002
 11
602.500000000002
 21
-139.000000000002
  0
LINE
  5
5C1
100
AcDbEntity
  8
2
  6
CONTINUOUS
100
AcDbLine
 10
539.500000000002
 20
-141.000000000002
 11
537.500000000002
 21
-139.000000000002
  0
ARC
  5
5C2
100
AcDbEntity
  8
2
  6
CONTINUOUS
100
AcDbCircle
 10
584.500000000002
 20
-123.500000000002
 40
12.5
100
AcDbArc
 50
0.0
 51
131.605653783917
  0
ARC
  5
5C3
100
AcDbEntity
  8
2
  6
CONTINUOUS
100
AcDbCircle
 10
584.500000000002
 20
-123.500000000002
 40
12.5
100
AcDbArc
 50
228.394346216083
 51
0.0
  0
ARC
  5
5C4
100
AcDbEntity
  8
2
  6
CONTINUOUS
100
AcDbCircle
 10
584.500000000002
 20
-123.500000000002
 40
13.0
100
AcDbArc
 50
0.0
 51
129.677195725332
  0
ARC
  5
5C5
100
AcDbEntity
  8
2
  6
CONTINUOUS
100
AcDbCircle
 10
584.500000000002
 20
-123.500000000002
 40
13.0
100
AcDbArc
 50
230.322804274668
 51
0.0
  0
CIRCLE
  5
5C6
100
AcDbEntity
  8
2
  6
CONTINUOUS
100
AcDbCircle
 10
584.500000000002
 20
-117.500000000002
 40
1.0
  0
CIRCLE
  5
5C7
100
AcDbEntity
  8
2
  6
CONTINUOUS
100
AcDbCircle
 10
588.500000000002
 20
-117.500000000002
 40
1.0
  0
CIRCLE
  5
5C8
100
AcDbEntity
  8
2
  6
CONTINUOUS
100
AcDbCircle
 10
588.500000000002
 20
-117.500000000002
 40
0.7
  0
CIRCLE
  5
5C9
100
AcDbEntity
  8
2
  6
CONTINUOUS
100
AcDbCircle
 10
584.500000000002
 20
-117.500000000002
 40
0.7
  0
CIRCLE
  5
5CA
100
AcDbEntity
  8
2
  6
CONTINUOUS
100
AcDbCircle
 10
580.500000000002
 20
-117.500000000002
 40
1.0
  0
CIRCLE
  5
5CB
100
AcDbEntity
  8
2
  6
CONTINUOUS
100
AcDbCircle
 10
580.500000000002
 20
-117.500000000002
 40
0.7
  0
CIRCLE
  5
5CC
100
AcDbEntity
  8
2
  6
CONTINUOUS
100
AcDbCircle
 10
584.500000000002
 20
-129.500000000002
 40
1.0
  0
CIRCLE
  5
5CD
100
AcDbEntity
  8
2
  6
CONTINUOUS
100
AcDbCircle
 10
588.500000000002
 20
-129.500000000002
 40
1.0
  0
CIRCLE
  5
5CE
100
AcDbEntity
  8
2
  6
CONTINUOUS
100
AcDbCircle
 10
584.500000000002
 20
-129.500000000002
 40
0.7
  0
CIRCLE
  5
5CF
100
AcDbEntity
  8
2
  6
CONTINUOUS
100
AcDbCircle
 10
588.500000000002
 20
-129.500000000002
 40
0.7
  0
CIRCLE
  5
5D0
100
AcDbEntity
  8
2
  6
CONTINUOUS
100
AcDbCircle
 10
580.500000000002
 20
-129.500000000002
 40
1.0
  0
CIRCLE
  5
5D1
100
AcDbEntity
  8
2
  6
CONTINUOUS
100
AcDbCircle
 10
580.500000000002
 20
-129.500000000002
 40
0.7
  0
CIRCLE
  5
5D2
100
AcDbEntity
  8
2
  6
CONTINUOUS
100
AcDbCircle
 10
587.500000000002
 20
-123.500000000002
 40
1.0
  0
CIRCLE
  5
5D3
100
AcDbEntity
  8
2
  6
CONTINUOUS
100
AcDbCircle
 10
587.500000000002
 20
-123.500000000002
 40
0.7
  0
CIRCLE
  5
5D4
100
AcDbEntity
  8
2
  6
CONTINUOUS
100
AcDbCircle
 10
592.500000000002
 20
-123.500000000002
 40
1.0
  0
CIRCLE
  5
5D5
100
AcDbEntity
  8
2
  6
CONTINUOUS
100
AcDbCircle
 10
592.500000000002
 20
-123.500000000002
 40
0.7
  0
CIRCLE
  5
5D6
100
AcDbEntity
  8
2
  6
CONTINUOUS
100
AcDbCircle
 10
581.500000000002
 20
-123.500000000002
 40
1.0
  0
CIRCLE
  5
5D7
100
AcDbEntity
  8
2
  6
CONTINUOUS
100
AcDbCircle
 10
581.500000000002
 20
-123.500000000002
 40
0.7
  0
ARC
  5
5D8
100
AcDbEntity
  8
2
  6
CONTINUOUS
100
AcDbCircle
 10
576.500000000002
 20
-123.500000000002
 40
1.0
100
AcDbArc
 50
0.0
 51
107.457603123733
  0
ARC
  5
5D9
100
AcDbEntity
  8
2
  6
CONTINUOUS
100
AcDbCircle
 10
576.500000000002
 20
-123.500000000002
 40
1.00000000000003
100
AcDbArc
 50
252.542396876269
 51
0.0
  0
ARC
  5
5DA
100
AcDbEntity
  8
2
  6
CONTINUOUS
100
AcDbCircle
 10
576.500000000002
 20
-123.500000000002
 40
0.700000000000045
100
AcDbArc
 50
0.0
 51
115.376933525165
  0
ARC
  5
5DB
100
AcDbEntity
  8
2
  6
CONTINUOUS
100
AcDbCircle
 10
576.500000000002
 20
-123.500000000002
 40
0.700000000000043
100
AcDbArc
 50
244.623066474839
 51
0.0
  0
LINE
  5
5DC
100
AcDbEntity
  8
7
  6
CENTER2
 62
    40
100
AcDbLine
 10
570.000000000002
 20
-232.244117423696
 11
570.000000000002
 21
-70.832399953717
  0
LINE
  5
5DD
100
AcDbEntity
  8
2
  6
CONTINUOUS
100
AcDbLine
 10
576.200000000002
 20
-109.000000000001
 11
576.200000000002
 21
-137.000000000002
  0
LINE
  5
5DE
100
AcDbEntity
  8
2
  6
CONTINUOUS
100
AcDbLine
 10
563.800000000002
 20
-137.000000000002
 11
563.800000000002
 21
-109.000000000001
  0
CIRCLE
  5
5DF
100
AcDbEntity
  8
2
  6
CONTINUOUS
100
AcDbCircle
 10
570.000000000002
 20
-93.000000000001
 40
17.0
  0
LINE
  5
5E0
100
AcDbEntity
  8
7
  6
CENTER2
 62
    40
100
AcDbLine
 10
551.000000000002
 20
-93.000000000001
 11
589.000000000002
 21
-93.000000000001
  0
CIRCLE
  5
5E1
100
AcDbEntity
  8
2
  6
CONTINUOUS
100
AcDbCircle
 10
570.000000000002
 20
-93.000000000001
 40
16.0
  0
CIRCLE
  5
5E2
100
AcDbEntity
  8
2
  6
CONTINUOUS
100
AcDbCircle
 10
570.000000000002
 20
-93.000000000001
 40
12.0
  0
CIRCLE
  5
5E3
100
AcDbEntity
  8
2
  6
CONTINUOUS
100
AcDbCircle
 10
570.000000000002
 20
-93.000000000001
 40
11.0
  0
LINE
  5
5E4
100
AcDbEntity
  8
2
  6
CONTINUOUS
100
AcDbLine
 10
560.000000000002
 20
-109.000000000001
 11
564.255437353464
 21
-109.000000000001
  0
LINE
  5
5E5
100
AcDbEntity
  8
2
  6
CONTINUOUS
100
AcDbLine
 10
575.74456264654
 20
-109.000000000001
 11
580.000000000002
 21
-109.000000000001
  0
LINE
  5
5E6
100
AcDbEntity
  8
2
  6
CONTINUOUS
100
AcDbLine
 10
582.000000000002
 20
-107.000000000001
 11
582.000000000002
 21
-105.041594578793
  0
LINE
  5
5E7
100
AcDbEntity
  8
2
  6
CONTINUOUS
100
AcDbLine
 10
582.000000000002
 20
-80.958405421209
 11
582.000000000002
 21
-79.000000000001
  0
LINE
  5
5E8
100
AcDbEntity
  8
2
  6
CONTINUOUS
100
AcDbLine
 10
558.000000000002
 20
-107.000000000001
 11
558.000000000002
 21
-105.041594578793
  0
LINE
  5
5E9
100
AcDbEntity
  8
2
  6
CONTINUOUS
100
AcDbLine
 10
558.000000000002
 20
-80.958405421209
 11
558.000000000002
 21
-79.000000000001
  0
ARC
  5
5EA
100
AcDbEntity
  8
2
  6
CONTINUOUS
100
AcDbCircle
 10
580.000000000002
 20
-107.000000000001
 40
2.0
100
AcDbArc
 50
270.0
 51
0.0
  0
ARC
  5
5EB
100
AcDbEntity
  8
2
  6
CONTINUOUS
100
AcDbCircle
 10
560.000000000002
 20
-107.000000000001
 40
2.0
100
AcDbArc
 50
180.0
 51
270.0
  0
CIRCLE
  5
5EC
100
AcDbEntity
  8
2
  6
CONTINUOUS
100
AcDbCircle
 10
573.000000000002
 20
-100.000000000001
 40
1.0
  0
CIRCLE
  5
5ED
100
AcDbEntity
  8
2
  6
CONTINUOUS
100
AcDbCircle
 10
570.000000000002
 20
-85.000000000001
 40
0.75
  0
CIRCLE
  5
5EE
100
AcDbEntity
  8
2
  6
CONTINUOUS
100
AcDbCircle
 10
565.411388509193
 20
-86.446783645689
 40
0.75
  0
CIRCLE
  5
5EF
100
AcDbEntity
  8
2
  6
CONTINUOUS
100
AcDbCircle
 10
562.482459033715
 20
-90.263838853396
 40
0.75
  0
CIRCLE
  5
5F0
100
AcDbEntity
  8
2
  6
CONTINUOUS
100
AcDbCircle
 10
562.482459033715
 20
-95.7361611466063
 40
0.75
  0
CIRCLE
  5
5F1
100
AcDbEntity
  8
2
  6
CONTINUOUS
100
AcDbCircle
 10
567.000000000002
 20
-93.000000000001
 40
0.75
  0
CIRCLE
  5
5F2
100
AcDbEntity
  8
2
  6
CONTINUOUS
100
AcDbCircle
 10
567.000000000002
 20
-100.000000000001
 40
1.0
  0
CIRCLE
  5
5F3
100
AcDbEntity
  8
2
  6
CONTINUOUS
100
AcDbCircle
 10
573.000000000002
 20
-93.000000000001
 40
0.75
  0
CIRCLE
  5
5F4
100
AcDbEntity
  8
2
  6
CONTINUOUS
100
AcDbCircle
 10
574.58861149081
 20
-86.446783645689
 40
0.75
  0
CIRCLE
  5
5F5
100
AcDbEntity
  8
2
  6
CONTINUOUS
100
AcDbCircle
 10
577.517540966289
 20
-90.263838853396
 40
0.75
  0
CIRCLE
  5
5F6
100
AcDbEntity
  8
2
  6
CONTINUOUS
100
AcDbCircle
 10
577.517540966289
 20
-95.7361611466063
 40
0.75
  0
CIRCLE
  5
5F7
100
AcDbEntity
  8
2
  6
CONTINUOUS
100
AcDbCircle
 10
565.411388509193
 20
-86.446783645689
 40
0.95
  0
CIRCLE
  5
5F8
100
AcDbEntity
  8
2
  6
CONTINUOUS
100
AcDbCircle
 10
570.000000000002
 20
-85.000000000001
 40
0.95
  0
CIRCLE
  5
5F9
100
AcDbEntity
  8
2
  6
CONTINUOUS
100
AcDbCircle
 10
562.482459033715
 20
-90.263838853396
 40
0.95
  0
CIRCLE
  5
5FA
100
AcDbEntity
  8
2
  6
CONTINUOUS
100
AcDbCircle
 10
567.000000000002
 20
-93.000000000001
 40
0.95
  0
CIRCLE
  5
5FB
100
AcDbEntity
  8
2
  6
CONTINUOUS
100
AcDbCircle
 10
562.482459033715
 20
-95.7361611466063
 40
0.95
  0
CIRCLE
  5
5FC
100
AcDbEntity
  8
2
  6
CONTINUOUS
100
AcDbCircle
 10
567.000000000002
 20
-100.000000000001
 40
1.2
  0
CIRCLE
  5
5FD
100
AcDbEntity
  8
2
  6
CONTINUOUS
100
AcDbCircle
 10
573.000000000002
 20
-100.000000000001
 40
1.2
  0
CIRCLE
  5
5FE
100
AcDbEntity
  8
2
  6
CONTINUOUS
100
AcDbCircle
 10
573.000000000002
 20
-93.000000000001
 40
0.95
  0
CIRCLE
  5
5FF
100
AcDbEntity
  8
2
  6
CONTINUOUS
100
AcDbCircle
 10
577.517540966289
 20
-95.7361611466063
 40
0.55
  0
CIRCLE
  5
600
100
AcDbEntity
  8
2
  6
CONTINUOUS
100
AcDbCircle
 10
577.517540966289
 20
-90.263838853396
 40
0.95
  0
CIRCLE
  5
601
100
AcDbEntity
  8
2
  6
CONTINUOUS
100
AcDbCircle
 10
574.58861149081
 20
-86.446783645689
 40
0.95
  0
LINE
  5
602
100
AcDbEntity
  8
2
  6
CONTINUOUS
100
AcDbLine
 10
582.000000000002
 20
-107.500000000002
 11
597.500000000002
 21
-107.500000000002
  0
LINE
  5
603
100
AcDbEntity
  8
2
  6
CONTINUOUS
100
AcDbLine
 10
537.500000000002
 20
-140.000000000002
 11
538.500000000002
 21
-140.000000000002
  0
LINE
  5
604
100
AcDbEntity
  8
2
  6
CONTINUOUS
100
AcDbLine
 10
601.500000000002
 20
-140.000000000002
 11
602.500000000002
 21
-140.000000000002
  0
LINE
  5
605
100
AcDbEntity
  8
2
  6
CONTINUOUS
100
AcDbLine
 10
602.500000000002
 20
-108.000000000002
 11
600.500000000002
 21
-106.000000000002
  0
LINE
  5
606
100
AcDbEntity
  8
2
  6
CONTINUOUS
100
AcDbLine
 10
539.500000000002
 20
-106.000000000002
 11
558.000000000002
 21
-106.000000000002
  0
LINE
  5
607
100
AcDbEntity
  8
2
  6
CONTINUOUS
100
AcDbLine
 10
582.000000000002
 20
-106.000000000002
 11
600.500000000002
 21
-106.000000000002
  0
LINE
  5
608
100
AcDbEntity
  8
2
  6
CONTINUOUS
100
AcDbLine
 10
539.500000000002
 20
-106.000000000002
 11
537.500000000002
 21
-108.000000000002
  0
LINE
  5
609
100
AcDbEntity
  8
2
  6
CONTINUOUS
100
AcDbLine
 10
602.500000000002
 20
-108.000000000002
 11
602.500000000002
 21
-146.000000000001
  0
LINE
  5
60A
100
AcDbEntity
  8
2
  6
CONTINUOUS
100
AcDbLine
 10
537.500000000002
 20
-108.000000000002
 11
537.500000000002
 21
-146.000000000001
  0
ARC
  5
60B
100
AcDbEntity
  8
7
  6
CENTER2
 62
    40
100
AcDbCircle
 10
570.000000000002
 20
-180.000000000001
 40
40.0
100
AcDbArc
 50
13.3559188016466
 51
60.2221652157881
  0
ARC
  5
60C
100
AcDbEntity
  8
7
  6
CENTER2
 62
    40
100
AcDbCircle
 10
570.000000000002
 20
-180.000000000001
 40
40.0
100
AcDbArc
 50
133.516350179548
 51
166.628845226529
  0
ARC
  5
60D
100
AcDbEntity
  8
7
  6
CENTER2
 62
    40
100
AcDbCircle
 10
570.000000000002
 20
-180.000000000001
 40
40.0
100
AcDbArc
 50
232.337721235354
 51
286.644081198355
  0
ARC
  5
60E
100
AcDbEntity
  8
2
  6
CONTINUOUS
100
AcDbCircle
 10
570.000000000002
 20
-220.000000000001
 40
5.65000000000008
100
AcDbArc
 50
222.278725284077
 51
317.721274715919
  0
LINE
  5
60F
100
AcDbEntity
  8
7
  6
CENTER2
 62
    40
100
AcDbLine
 10
563.237681841865
 20
-218.000000000001
 11
577.037158016278
 21
-218.000000000001
  0
LINE
  5
610
100
AcDbEntity
  8
7
  6
CENTER2
 62
    40
100
AcDbLine
 10
57.0000000000016
 20
-234.520634960538
 11
57.0000000000016
 21
-103.608765917597
  0
LINE
  5
611
100
AcDbEntity
  8
7
  6
CENTER2
 62
    40
100
AcDbLine
 10
112.425625842188
 20
-179.999958757488
 11
-2.99999999999841
 21
-179.999958757488
  0
LINE
  5
612
100
AcDbEntity
  8
7
  6
CENTER2
 62
    40
100
AcDbLine
 10
100.301270189224
 20
-154.999958757489
 11
57.0000000000016
 21
-179.999958757488
  0
LINE
  5
613
100
AcDbEntity
  8
7
  6
CENTER2
 62
    40
100
AcDbLine
 10
57.0000000000016
 20
-179.999958757488
 11
13.6987298107796
 21
-154.999958757489
  0
ARC
  5
614
100
AcDbEntity
  8
7
  6
CENTER2
 62
    40
100
AcDbCircle
 10
57.0000000000016
 20
-179.999958757488
 40
38.0
100
AcDbArc
 50
119.777834784212
 51
166.644081198354
  0
ARC
  5
615
100
AcDbEntity
  8
7
  6
CENTER2
 62
    40
100
AcDbCircle
 10
57.0000000000016
 20
-179.999958757488
 40
38.0
100
AcDbArc
 50
13.3711547734708
 51
46.4836498204522
  0
ARC
  5
616
100
AcDbEntity
  8
7
  6
CENTER2
 62
    40
100
AcDbCircle
 10
57.0000000000016
 20
-179.999958757488
 40
38.0
100
AcDbArc
 50
253.355918801646
 51
307.662278764646
  0
LINE
  5
617
100
AcDbEntity
  8
2
  6
CONTINUOUS
100
AcDbLine
 10
48.500000000001
 20
29.0
 11
48.000000000001
 21
28.5
  0
LINE
  5
618
100
AcDbEntity
  8
2
  6
CONTINUOUS
100
AcDbLine
 10
48.500000000001
 20
-29.0
 11
48.000000000001
 21
-28.5
  0
DIMENSION
  5
628
100
AcDbEntity
  8
4
  6
CONTINUOUS
 62
     2
100
AcDbDimension
  2
*D11
 10
1.47792889038101E-012
 20
115.0
 11
285.000000000002
 21
115.0
 70
    32
  3
ISO-25
100
AcDbAlignedDimension
 13
570.000000000002
 23
33.999999999999
 14
1.47792889038101E-012
 24
9.5
 50
180.0
100
AcDbRotatedDimension
  0
DIMENSION
  5
638
100
AcDbEntity
  8
4
  6
CONTINUOUS
 62
     2
100
AcDbDimension
  2
*D12
 10
289.500000000001
 20
100.0
 11
429.750000000001
 21
100.0
 70
    32
  3
ISO-25
100
AcDbAlignedDimension
 13
570.000000000002
 23
34.499999999999
 14
289.500000000001
 24
43.499999999999
 50
180.0
100
AcDbRotatedDimension
  0
DIMENSION
  5
647
100
AcDbEntity
  8
4
  6
CONTINUOUS
 62
     2
100
AcDbDimension
  2
*D13
 10
57.0000000000016
 20
100.0
 11
173.250000000001
 21
100.0
 70
    32
  3
ISO-25
100
AcDbAlignedDimension
 13
289.500000000001
 23
43.999999999999
 14
57.0000000000016
 24
39.0
 50
180.0
100
AcDbRotatedDimension
1001
ACAD
1000
DSTYLE
1002
{
1070
    75
1070
     1
1002
}
  0
DIMENSION
  5
656
100
AcDbEntity
  8
4
  6
CONTINUOUS
 62
     2
100
AcDbDimension
  2
*D14
 10
1.47792889038101E-012
 20
100.0
 11
28.5000000000015
 21
100.0
 70
    32
  3
ISO-25
100
AcDbAlignedDimension
 13
57.0000000000016
 23
39.0
 14
1.47792889038101E-012
 24
9.5
 50
180.0
100
AcDbRotatedDimension
1001
ACAD
1000
DSTYLE
1002
{
1070
    75
1070
     1
1002
}
  0
DIMENSION
  5
666
100
AcDbEntity
  8
4
  6
CONTINUOUS
 62
     2
100
AcDbDimension
  2
*D15
 10
30.0000000000015
 20
85.0
 11
15.0000000000015
 21
85.0
 70
    32
  3
ISO-25
100
AcDbAlignedDimension
 13
1.47792889038101E-012
 23
9.5
 14
30.0000000000015
 24
12.5
 50
0.0
100
AcDbRotatedDimension
  0
DIMENSION
  5
676
100
AcDbEntity
  8
4
  6
CONTINUOUS
 62
     2
100
AcDbDimension
  2
*D16
 10
10.0000000000015
 20
70.0
 11
5.00000000000148
 21
70.0
 70
    32
  3
ISO-25
100
AcDbAlignedDimension
 13
1.47792889038101E-012
 23
9.5
 14
10.0000000000015
 24
9.5
 50
0.0
100
AcDbRotatedDimension
  0
DIMENSION
  5
688
100
AcDbEntity
  8
4
  6
CONTINUOUS
 62
     2
100
AcDbDimension
  2
*D17
 10
-30.0
 20
-28.9999995231628
 11
-31.0
 21
-4.87499952316284
 70
    32
  3
ISO-25
100
AcDbAlignedDimension
 13
49.0000000000016
 23
29.0000004768372
 14
49.0000000000016
 24
-28.9999995231628
 50
270.0
100
AcDbRotatedDimension
1001
ACAD
1000
DSTYLE
1002
{
1070
    47
1040
-0.03
1070
    48
1040
0.05
1070
    71
1070
     1
1070
   146
1040
0.714285714285714
1070
   272
1070
     2
1002
}
  0
DIMENSION
  5
698
100
AcDbEntity
  8
4
  6
CONTINUOUS
 62
     2
100
AcDbDimension
  2
*D18
 10
9.09233580289424
 20
-2.43642067494295
 11
-10.7806131957832
 21
-41.5206757220075
 70
    35
  3
ISO-25
100
AcDbDiametricDimension
 15
10.9076641971087
 25
2.43642067494295
1001
ACAD
1000
DSTYLE
1002
{
1070
   280
1070
     1
1002
}
  0
DIMENSION
  5
6A8
100
AcDbEntity
  8
4
  6
CONTINUOUS
 62
     2
100
AcDbDimension
  2
*D19
 10
-15.0
 20
-12.5
 11
-15.0
 21
0.0
 70
    32
  3
ISO-25
100
AcDbAlignedDimension
 13
30.0000000000015
 23
12.5
 14
30.0000000000015
 24
-12.5
 50
270.0
100
AcDbRotatedDimension
  0
LINE
  5
6A9
100
AcDbEntity
  8
2
  6
CONTINUOUS
100
AcDbLine
 10
89.5000000000016
 20
-145.999958757487
 11
89.5000000000016
 21
-139.999958757488
  0
LINE
  5
6AA
100
AcDbEntity
  8
2
  6
CONTINUOUS
100
AcDbLine
 10
24.5000000000016
 20
-145.999958757487
 11
24.5000000000016
 21
-139.999958757488
  0
LINE
  5
6AB
100
AcDbEntity
  8
2
  6
CONTINUOUS
100
AcDbLine
 10
26.5000000000016
 20
-115.999958757488
 11
87.5000000000016
 21
-115.999958757488
  0
LINE
  5
6AC
100
AcDbEntity
  8
2
  6
CONTINUOUS
100
AcDbLine
 10
89.5000000000016
 20
-107.999958757488
 11
89.5000000000016
 21
-139.999958757488
  0
LINE
  5
6AD
100
AcDbEntity
  8
2
  6
CONTINUOUS
100
AcDbLine
 10
87.5000000000016
 20
-105.999958757488
 11
89.5000000000016
 21
-107.999958757488
  0
LINE
  5
6AE
100
AcDbEntity
  8
2
  6
CONTINUOUS
100
AcDbLine
 10
26.5000000000016
 20
-105.999958757488
 11
87.5000000000016
 21
-105.999958757488
  0
LINE
  5
6AF
100
AcDbEntity
  8
2
  6
CONTINUOUS
100
AcDbLine
 10
24.5000000000016
 20
-107.999958757488
 11
24.5000000000016
 21
-139.999958757488
  0
LINE
  5
6B0
100
AcDbEntity
  8
2
  6
CONTINUOUS
100
AcDbLine
 10
26.5000000000016
 20
-105.999958757488
 11
24.5000000000016
 21
-107.999958757488
  0
LINE
  5
6B1
100
AcDbEntity
  8
2
  6
CONTINUOUS
100
AcDbLine
 10
26.5000000000016
 20
-115.999958757488
 11
24.5000000000016
 21
-117.999958757488
  0
LINE
  5
6B2
100
AcDbEntity
  8
2
  6
CONTINUOUS
100
AcDbLine
 10
87.5000000000016
 20
-115.999958757488
 11
89.5000000000016
 21
-117.999958757488
  0
LINE
  5
6B3
100
AcDbEntity
  8
2
  6
CONTINUOUS
100
AcDbLine
 10
24.5000000000016
 20
-145.999958757487
 11
48.4853292971227
 21
-145.999958757487
  0
LINE
  5
6B4
100
AcDbEntity
  8
2
  6
CONTINUOUS
100
AcDbLine
 10
65.5146707028805
 20
-145.999958757487
 11
89.5000000000016
 21
-145.999958757487
  0
LINE
  5
6B5
100
AcDbEntity
  8
2
  6
CONTINUOUS
100
AcDbLine
 10
24.5000000000016
 20
-139.999958757488
 11
89.5000000000016
 21
-139.999958757488
  0
LINE
  5
6B6
100
AcDbEntity
  8
2
  6
CONTINUOUS
100
AcDbLine
 10
87.5000000000016
 20
-105.999958757488
 11
87.5000000000016
 21
-139.999958757488
  0
LINE
  5
6B7
100
AcDbEntity
  8
2
  6
CONTINUOUS
100
AcDbLine
 10
26.5000000000016
 20
-105.999958757488
 11
26.5000000000016
 21
-139.999958757488
  0
CIRCLE
  5
6B8
100
AcDbEntity
  8
2
  6
CONTINUOUS
100
AcDbCircle
 10
57.0000000000016
 20
-179.999958757488
 40
29.0
  0
CIRCLE
  5
6B9
100
AcDbEntity
  8
2
  6
CONTINUOUS
100
AcDbCircle
 10
57.0000000000016
 20
-179.999958757488
 40
28.5
  0
ARC
  5
6BA
100
AcDbEntity
  8
2
  6
CONTINUOUS
100
AcDbCircle
 10
57.0000000000016
 20
-179.999958757488
 40
43.9999999999999
100
AcDbArc
 50
256.863441213055
 51
258.363325247734
  0
ARC
  5
6BB
100
AcDbEntity
  8
2
  6
CONTINUOUS
100
AcDbCircle
 10
57.0000000000016
 20
-179.999958757488
 40
44.0
100
AcDbArc
 50
281.636676584534
 51
283.136558786944
  0
LINE
  5
6BC
100
AcDbEntity
  8
2
  6
CONTINUOUS
100
AcDbLine
 10
47.0000000000016
 20
-222.848529328745
 11
44.4575575826484
 21
-218.724928697407
  0
LINE
  5
6BD
100
AcDbEntity
  8
2
  6
CONTINUOUS
100
AcDbLine
 10
67.0000000000006
 20
-222.848529328745
 11
69.5424392589015
 21
-218.724933820117
  0
LINE
  5
6BE
100
AcDbEntity
  8
2
  6
CONTINUOUS
100
AcDbLine
 10
65.0000000000016
 20
-145.899916907158
 11
65.0000000000016
 21
-139.999958757488
  0
LINE
  5
6BF
100
AcDbEntity
  8
2
  6
CONTINUOUS
100
AcDbLine
 10
49.0000000000016
 20
-145.899916907158
 11
49.0000000000016
 21
-139.999958757488
  0
LINE
  5
6C0
100
AcDbEntity
  8
2
  6
CONTINUOUS
100
AcDbLine
 10
88.0000000000016
 20
-145.999958757487
 11
88.0000000000016
 21
-139.999958757488
  0
LINE
  5
6C1
100
AcDbEntity
  8
2
  6
CONTINUOUS
100
AcDbLine
 10
26.0000000000016
 20
-145.999958757487
 11
26.0000000000016
 21
-139.999958757488
  0
ARC
  5
6C2
100
AcDbEntity
  8
2
  6
CONTINUOUS
100
AcDbCircle
 10
57.0000000000016
 20
-179.999958757488
 40
47.0
100
AcDbArc
 50
133.663737936198
 51
157.131693773707
  0
ARC
  5
6C3
100
AcDbEntity
  8
2
  6
CONTINUOUS
100
AcDbCircle
 10
57.0000000000016
 20
-179.999958757488
 40
47.0
100
AcDbArc
 50
22.868306226293
 51
46.3362620638023
  0
ARC
  5
6C4
100
AcDbEntity
  8
2
  6
CONTINUOUS
100
AcDbCircle
 10
57.0000000000016
 20
-179.999958757488
 40
47.0
100
AcDbArc
 50
262.868306226293
 51
277.131693773707
  0
ARC
  5
6C5
100
AcDbEntity
  8
2
  6
CONTINUOUS
100
AcDbCircle
 10
57.0000000000016
 20
-179.999958757488
 40
46.5
100
AcDbArc
 50
262.176224703757
 51
277.823775296243
  0
ARC
  5
6C6
100
AcDbEntity
  8
2
  6
CONTINUOUS
100
AcDbCircle
 10
57.0000000000016
 20
-179.999958757488
 40
46.5
100
AcDbArc
 50
22.1762247037562
 51
37.8237752962427
  0
ARC
  5
6C7
100
AcDbEntity
  8
2
  6
CONTINUOUS
100
AcDbCircle
 10
57.0000000000016
 20
-179.999958757488
 40
46.5
100
AcDbArc
 50
142.176224703757
 51
157.823775296244
  0
LINE
  5
6C8
100
AcDbEntity
  8
2
  6
CONTINUOUS
100
AcDbLine
 10
62.8350677112576
 20
-226.636339243168
 11
85.6258307889996
 21
-200.418565422074
  0
LINE
  5
6C9
100
AcDbEntity
  8
2
  6
CONTINUOUS
100
AcDbLine
 10
28.3741692110036
 20
-200.418565422074
 11
51.1649322887456
 21
-226.636339243168
  0
LINE
  5
6CA
100
AcDbEntity
  8
2
  6
CONTINUOUS
100
AcDbLine
 10
28.3741692110036
 20
-200.418565422074
 11
25.0040525240896
 21
-194.581352092904
  0
LINE
  5
6CB
100
AcDbEntity
  8
2
  6
CONTINUOUS
100
AcDbLine
 10
88.9959474759136
 20
-194.581352092904
 11
85.6258307889996
 21
-200.418565422074
  0
LINE
  5
6CC
100
AcDbEntity
  8
2
  6
CONTINUOUS
100
AcDbLine
 10
88.9959474759136
 20
-194.581352092904
 11
100.305824096785
 21
-161.735085385398
  0
LINE
  5
6CD
100
AcDbEntity
  8
2
  6
CONTINUOUS
100
AcDbLine
 10
94.4707563855286
 20
-151.628451643898
 11
60.3701166869149
 21
-144.999958757488
  0
LINE
  5
6CE
100
AcDbEntity
  8
2
  6
CONTINUOUS
100
AcDbLine
 10
53.6298833130883
 20
-144.999958757488
 11
19.5292436144746
 21
-151.628451643898
  0
LINE
  5
6CF
100
AcDbEntity
  8
2
  6
CONTINUOUS
100
AcDbLine
 10
13.6941759032186
 20
-161.735085385398
 11
25.0040525240896
 21
-194.581352092904
  0
LINE
  5
6D0
100
AcDbEntity
  8
2
  6
CONTINUOUS
100
AcDbLine
 10
60.3701166869149
 20
-144.999958757488
 11
53.6298833130883
 21
-144.999958757488
  0
LINE
  5
6D1
100
AcDbEntity
  8
2
  6
CONTINUOUS
100
AcDbLine
 10
49.0000000000016
 20
-142.999958757488
 11
65.0000000000016
 21
-142.999958757488
  0
ARC
  5
6D2
100
AcDbEntity
  8
2
  6
CONTINUOUS
100
AcDbCircle
 10
57.0000000000016
 20
-137.494358757489
 40
3.00559999999999
100
AcDbArc
 50
236.474891076335
 51
303.525108923665
  0
CIRCLE
  5
6D3
100
AcDbEntity
  8
2
  6
CONTINUOUS
100
AcDbCircle
 10
74.5000000000016
 20
-120.999958757488
 40
1.2
  0
LINE
  5
6D4
100
AcDbEntity
  8
2
  6
CONTINUOUS
100
AcDbLine
 10
79.0000000000016
 20
191.310359570325
 11
79.0000000000016
 21
208.689642268252
  0
LINE
  5
6D5
100
AcDbEntity
  8
2
  6
CONTINUOUS
100
AcDbLine
 10
65.5000000000016
 20
162.576
 11
89.5000000000016
 21
162.576
  0
LINE
  5
6D6
100
AcDbEntity
  8
2
  6
CONTINUOUS
100
AcDbLine
 10
145.500000000002
 20
162.576
 11
163.500000000002
 21
162.576
  0
LINE
  5
6D7
100
AcDbEntity
  8
2
  6
CONTINUOUS
100
AcDbLine
 10
65.5000000000016
 20
243.336
 11
89.5000000000016
 21
243.336
  0
LINE
  5
6D8
100
AcDbEntity
  8
2
  6
CONTINUOUS
100
AcDbLine
 10
145.500000000002
 20
243.336
 11
163.500000000002
 21
243.336
  0
LINE
  5
6D9
100
AcDbEntity
  8
2
  6
CONTINUOUS
100
AcDbLine
 10
65.5000000000016
 20
237.424
 11
89.5000000000016
 21
237.424
  0
LINE
  5
6DA
100
AcDbEntity
  8
2
  6
CONTINUOUS
100
AcDbLine
 10
145.500000000002
 20
237.424
 11
163.500000000002
 21
237.424
  0
LINE
  5
6DB
100
AcDbEntity
  8
2
  6
CONTINUOUS
100
AcDbLine
 10
145.000000000002
 20
242.836
 11
145.000000000002
 21
221.08959611533
  0
LINE
  5
6DC
100
AcDbEntity
  8
2
  6
CONTINUOUS
100
AcDbLine
 10
145.000000000002
 20
178.91040388467
 11
145.000000000002
 21
157.164
  0
LINE
  5
6DD
100
AcDbEntity
  8
2
  6
CONTINUOUS
100
AcDbLine
 10
90.0000000000016
 20
242.836
 11
90.0000000000016
 21
221.08959611533
  0
LINE
  5
6DE
100
AcDbEntity
  8
2
  6
CONTINUOUS
100
AcDbLine
 10
90.0000000000016
 20
178.91040388467
 11
90.0000000000026
 21
157.164
  0
LINE
  5
6DF
100
AcDbEntity
  8
2
  6
CONTINUOUS
100
AcDbLine
 10
163.500000000002
 20
237.424
 11
163.500000000002
 21
243.336
  0
LINE
  5
6E0
100
AcDbEntity
  8
2
  6
CONTINUOUS
100
AcDbLine
 10
65.5000000000016
 20
237.424
 11
65.5000000000016
 21
243.336
  0
LINE
  5
6E1
100
AcDbEntity
  8
2
  6
CONTINUOUS
100
AcDbLine
 10
89.5000000000016
 20
237.424
 11
89.5000000000016
 21
243.336
  0
LINE
  5
6E2
100
AcDbEntity
  8
2
  6
CONTINUOUS
100
AcDbLine
 10
145.500000000002
 20
237.424
 11
145.500000000002
 21
243.336
  0
LINE
  5
6E3
100
AcDbEntity
  8
2
  6
CONTINUOUS
100
AcDbLine
 10
163.500000000002
 20
237.424
 11
164.000000000002
 21
236.707669859233
  0
LINE
  5
6E4
100
AcDbEntity
  8
2
  6
CONTINUOUS
100
AcDbLine
 10
145.500000000002
 20
237.424
 11
145.000000000002
 21
236.707669859233
  0
LINE
  5
6E5
100
AcDbEntity
  8
2
  6
CONTINUOUS
100
AcDbLine
 10
89.5000000000016
 20
237.424
 11
90.0000000000016
 21
236.707669859233
  0
LINE
  5
6E6
100
AcDbEntity
  8
2
  6
CONTINUOUS
100
AcDbLine
 10
65.5000000000016
 20
237.424
 11
65.0000000000016
 21
236.707669859233
  0
LINE
  5
6E7
100
AcDbEntity
  8
2
  6
CONTINUOUS
100
AcDbLine
 10
163.500000000002
 20
156.664
 11
163.500000000002
 21
162.576
  0
LINE
  5
6E8
100
AcDbEntity
  8
2
  6
CONTINUOUS
100
AcDbLine
 10
145.500000000002
 20
156.664
 11
145.500000000002
 21
162.576
  0
LINE
  5
6E9
100
AcDbEntity
  8
2
  6
CONTINUOUS
100
AcDbLine
 10
89.5000000000016
 20
156.664
 11
89.5000000000016
 21
162.576
  0
LINE
  5
6EA
100
AcDbEntity
  8
2
  6
CONTINUOUS
100
AcDbLine
 10
65.0000000000016
 20
156.664
 11
65.0000000000016
 21
162.576
  0
LINE
  5
6EB
100
AcDbEntity
  8
2
  6
CONTINUOUS
100
AcDbLine
 10
163.500000000002
 20
162.576
 11
164.000000000002
 21
163.292330140766
  0
LINE
  5
6EC
100
AcDbEntity
  8
2
  6
CONTINUOUS
100
AcDbLine
 10
145.500000000002
 20
162.576
 11
145.000000000002
 21
163.292330140766
  0
LINE
  5
6ED
100
AcDbEntity
  8
2
  6
CONTINUOUS
100
AcDbLine
 10
89.5000000000016
 20
162.576
 11
90.0000000000016
 21
163.292330140766
  0
LINE
  5
6EE
100
AcDbEntity
  8
2
  6
CONTINUOUS
100
AcDbLine
 10
65.5000000000016
 20
162.576
 11
65.0000000000016
 21
163.292330140766
  0
LINE
  5
6EF
100
AcDbEntity
  8
2
  6
CONTINUOUS
100
AcDbLine
 10
93.0000000000026
 20
165.0
 11
142.000000000002
 21
165.0
  0
LINE
  5
6F0
100
AcDbEntity
  8
2
  6
CONTINUOUS
100
AcDbLine
 10
93.0000000000016
 20
235.0
 11
142.000000000002
 21
235.0
  0
LINE
  5
6F1
100
AcDbEntity
  8
2
  6
CONTINUOUS
100
AcDbLine
 10
79.0000000000016
 20
208.5673
 11
92.3900000000016
 21
208.5673
  0
LINE
  5
6F2
100
AcDbEntity
  8
2
  6
CONTINUOUS
100
AcDbLine
 10
142.610000000002
 20
208.5673
 11
145.000000000001
 21
208.5673
  0
LINE
  5
6F3
100
AcDbEntity
  8
2
  6
CONTINUOUS
100
AcDbLine
 10
79.0000000000016
 20
191.4327
 11
92.3900000000016
 21
191.4327
  0
LINE
  5
6F4
100
AcDbEntity
  8
2
  6
CONTINUOUS
100
AcDbLine
 10
142.610000000002
 20
191.4327
 11
145.000000000001
 21
191.4327
  0
ARC
  5
6F5
100
AcDbEntity
  8
2
  6
CONTINUOUS
100
AcDbCircle
 10
142.000000000002
 20
238.0
 40
3.0
100
AcDbArc
 50
270.0
 51
0.0
  0
ARC
  5
6F6
100
AcDbEntity
  8
2
  6
CONTINUOUS
100
AcDbCircle
 10
93.0000000000016
 20
238.0
 40
3.0
100
AcDbArc
 50
180.0
 51
270.0
  0
ARC
  5
6F7
100
AcDbEntity
  8
2
  6
CONTINUOUS
100
AcDbCircle
 10
93.0000000000026
 20
162.0
 40
3.0
100
AcDbArc
 50
90.0
 51
180.0
  0
ARC
  5
6F8
100
AcDbEntity
  8
2
  6
CONTINUOUS
100
AcDbCircle
 10
142.000000000002
 20
162.0
 40
3.0
100
AcDbArc
 50
0.0
 51
90.0
  0
LINE
  5
6F9
100
AcDbEntity
  8
2
  6
CONTINUOUS
100
AcDbLine
 10
93.0705517687895
 20
208.3
 11
141.929448231214
 21
208.3
  0
LINE
  5
6FA
100
AcDbEntity
  8
2
  6
CONTINUOUS
100
AcDbLine
 10
93.0705517687895
 20
191.7
 11
141.929448231214
 21
191.7
  0
ARC
  5
6FB
100
AcDbEntity
  8
2
  6
CONTINUOUS
100
AcDbCircle
 10
93.0705517687895
 20
209.3
 40
1.00000000000001
100
AcDbArc
 50
227.11322473712
 51
270.0
  0
ARC
  5
6FC
100
AcDbEntity
  8
2
  6
CONTINUOUS
100
AcDbCircle
 10
124.000000000002
 20
221.08959611533
 40
34.0
100
AcDbArc
 50
180.0
 51
201.610986241663
  0
ARC
  5
6FD
100
AcDbEntity
  8
2
  6
CONTINUOUS
100
AcDbCircle
 10
93.0705517687895
 20
190.7
 40
1.00000000000001
100
AcDbArc
 50
90.0
 51
132.88677526288
  0
ARC
  5
6FE
100
AcDbEntity
  8
2
  6
CONTINUOUS
100
AcDbCircle
 10
124.000000000002
 20
178.91040388467
 40
34.0
100
AcDbArc
 50
158.389013758337
 51
180.0
  0
ARC
  5
6FF
100
AcDbEntity
  8
2
  6
CONTINUOUS
100
AcDbCircle
 10
111.000000000002
 20
178.91040388467
 40
34.0
100
AcDbArc
 50
0.0
 51
21.610986241663
  0
ARC
  5
700
100
AcDbEntity
  8
2
  6
CONTINUOUS
100
AcDbCircle
 10
141.929448231214
 20
190.7
 40
1.00000000000001
100
AcDbArc
 50
47.1132247371156
 51
90.0
  0
ARC
  5
701
100
AcDbEntity
  8
2
  6
CONTINUOUS
100
AcDbCircle
 10
141.929448231214
 20
209.3
 40
1.00000000000001
100
AcDbArc
 50
270.0
 51
312.886775262884
  0
ARC
  5
702
100
AcDbEntity
  8
2
  6
CONTINUOUS
100
AcDbCircle
 10
111.000000000002
 20
221.08959611533
 40
34.0
100
AcDbArc
 50
338.389013758337
 51
0.0
  0
LINE
  5
703
100
AcDbEntity
  8
2
  6
CONTINUOUS
100
AcDbLine
 10
65.0000000000016
 20
157.164
 11
65.5000000000016
 21
156.664
  0
LINE
  5
704
100
AcDbEntity
  8
2
  6
CONTINUOUS
100
AcDbLine
 10
65.0000000000016
 20
242.836
 11
65.5000000000016
 21
243.336
  0
LINE
  5
705
100
AcDbEntity
  8
2
  6
CONTINUOUS
100
AcDbLine
 10
164.000000000002
 20
242.836
 11
163.500000000002
 21
243.336
  0
LINE
  5
706
100
AcDbEntity
  8
2
  6
CONTINUOUS
100
AcDbLine
 10
164.000000000002
 20
157.164
 11
163.500000000002
 21
156.664
  0
LINE
  5
707
100
AcDbEntity
  8
2
  6
CONTINUOUS
100
AcDbLine
 10
145.000000000002
 20
157.164
 11
145.500000000002
 21
156.664
  0
LINE
  5
708
100
AcDbEntity
  8
2
  6
CONTINUOUS
100
AcDbLine
 10
90.0000000000026
 20
157.164
 11
89.5000000000026
 21
156.664
  0
LINE
  5
709
100
AcDbEntity
  8
2
  6
CONTINUOUS
100
AcDbLine
 10
90.0000000000016
 20
242.836
 11
89.5000000000016
 21
243.336
  0
LINE
  5
70A
100
AcDbEntity
  8
2
  6
CONTINUOUS
100
AcDbLine
 10
145.000000000002
 20
242.836
 11
145.500000000002
 21
243.336
  0
LINE
  5
70B
100
AcDbEntity
  8
2
  6
CONTINUOUS
100
AcDbLine
 10
65.5000000000016
 20
156.664
 11
65.5000000000016
 21
162.576
  0
LINE
  5
70C
100
AcDbEntity
  8
2
  6
CONTINUOUS
100
AcDbLine
 10
65.5000000000016
 20
156.664
 11
89.5000000000016
 21
156.664
  0
LINE
  5
70D
100
AcDbEntity
  8
2
  6
CONTINUOUS
100
AcDbLine
 10
145.500000000002
 20
156.664
 11
163.500000000002
 21
156.664
  0
LINE
  5
70E
100
AcDbEntity
  8
2
  6
CONTINUOUS
100
AcDbLine
 10
65.0000000000016
 20
157.164
 11
64.5000000000016
 21
156.664
  0
LINE
  5
70F
100
AcDbEntity
  8
2
  6
CONTINUOUS
100
AcDbLine
 10
64.5000000000016
 20
156.664
 11
64.5000000000016
 21
162.576
  0
LINE
  5
710
100
AcDbEntity
  8
2
  6
CONTINUOUS
100
AcDbLine
 10
64.5000000000016
 20
162.576
 11
65.0000000000016
 21
163.292330140766
  0
LINE
  5
711
100
AcDbEntity
  8
2
  6
CONTINUOUS
100
AcDbLine
 10
64.5000000000016
 20
237.424
 11
64.5000000000016
 21
243.336
  0
LINE
  5
712
100
AcDbEntity
  8
2
  6
CONTINUOUS
100
AcDbLine
 10
65.0000000000016
 20
242.836
 11
64.5000000000016
 21
243.336
  0
LINE
  5
713
100
AcDbEntity
  8
2
  6
CONTINUOUS
100
AcDbLine
 10
64.5000000000016
 20
237.424
 11
65.0000000000016
 21
236.707669859233
  0
LINE
  5
714
100
AcDbEntity
  8
2
  6
CONTINUOUS
100
AcDbLine
 10
57.5000000000016
 20
237.424
 11
64.5000000000016
 21
237.424
  0
LINE
  5
715
100
AcDbEntity
  8
2
  6
CONTINUOUS
100
AcDbLine
 10
57.5000000000016
 20
243.336
 11
64.5000000000016
 21
243.336
  0
LINE
  5
716
100
AcDbEntity
  8
2
  6
CONTINUOUS
100
AcDbLine
 10
57.5000000000016
 20
237.424
 11
57.0000000000016
 21
236.707669859233
  0
LINE
  5
717
100
AcDbEntity
  8
2
  6
CONTINUOUS
100
AcDbLine
 10
57.5000000000016
 20
237.424
 11
57.5000000000016
 21
243.336
  0
LINE
  5
718
100
AcDbEntity
  8
2
  6
CONTINUOUS
100
AcDbLine
 10
57.0000000000016
 20
242.836
 11
57.5000000000016
 21
243.336
  0
LINE
  5
719
100
AcDbEntity
  8
2
  6
CONTINUOUS
100
AcDbLine
 10
57.5000000000016
 20
162.576
 11
57.0000000000016
 21
163.292330140766
  0
LINE
  5
71A
100
AcDbEntity
  8
2
  6
CONTINUOUS
100
AcDbLine
 10
57.0000000000016
 20
157.164
 11
57.5000000000016
 21
156.664
  0
LINE
  5
71B
100
AcDbEntity
  8
2
  6
CONTINUOUS
100
AcDbLine
 10
57.5000000000016
 20
156.664
 11
57.5000000000016
 21
162.576
  0
LINE
  5
71C
100
AcDbEntity
  8
2
  6
CONTINUOUS
100
AcDbLine
 10
64.5000000000016
 20
162.576
 11
57.5000000000016
 21
162.576
  0
LINE
  5
71D
100
AcDbEntity
  8
2
  6
CONTINUOUS
100
AcDbLine
 10
57.5000000000016
 20
156.664
 11
64.5000000000016
 21
156.664
  0
LINE
  5
71E
100
AcDbEntity
  8
2
  6
CONTINUOUS
100
AcDbLine
 10
164.500000000002
 20
156.664
 11
190.000000000001
 21
156.664
  0
LINE
  5
71F
100
AcDbEntity
  8
2
  6
CONTINUOUS
100
AcDbLine
 10
191.000000000001
 20
156.664
 11
197.000000000001
 21
156.664
  0
LINE
  5
720
100
AcDbEntity
  8
2
  6
CONTINUOUS
100
AcDbLine
 10
191.000000000001
 20
162.576
 11
197.000000000001
 21
162.576
  0
LINE
  5
721
100
AcDbEntity
  8
2
  6
CONTINUOUS
100
AcDbLine
 10
164.500000000002
 20
156.664
 11
164.500000000002
 21
167.5
  0
LINE
  5
722
100
AcDbEntity
  8
2
  6
CONTINUOUS
100
AcDbLine
 10
164.000000000002
 20
157.164
 11
164.500000000002
 21
156.664
  0
LINE
  5
723
100
AcDbEntity
  8
2
  6
CONTINUOUS
100
AcDbLine
 10
191.000000000001
 20
162.576
 11
190.500000000001
 21
163.292330140766
  0
LINE
  5
724
100
AcDbEntity
  8
2
  6
CONTINUOUS
100
AcDbLine
 10
191.000000000001
 20
156.664
 11
191.000000000001
 21
162.576
  0
LINE
  5
725
100
AcDbEntity
  8
2
  6
CONTINUOUS
100
AcDbLine
 10
190.000000000001
 20
156.664
 11
190.000000000001
 21
167.5
  0
LINE
  5
726
100
AcDbEntity
  8
2
  6
CONTINUOUS
100
AcDbLine
 10
190.500000000001
 20
157.164
 11
191.000000000001
 21
156.664
  0
LINE
  5
727
100
AcDbEntity
  8
2
  6
CONTINUOUS
100
AcDbLine
 10
190.500000000001
 20
157.164
 11
190.000000000001
 21
156.664
  0
LINE
  5
728
100
AcDbEntity
  8
2
  6
CONTINUOUS
100
AcDbLine
 10
197.000000000001
 20
162.576
 11
197.500000000001
 21
163.292330140766
  0
LINE
  5
729
100
AcDbEntity
  8
2
  6
CONTINUOUS
100
AcDbLine
 10
197.000000000001
 20
156.664
 11
197.000000000001
 21
162.576
  0
LINE
  5
72A
100
AcDbEntity
  8
2
  6
CONTINUOUS
100
AcDbLine
 10
197.500000000001
 20
157.164
 11
197.000000000001
 21
156.664
  0
LINE
  5
72B
100
AcDbEntity
  8
2
  6
CONTINUOUS
100
AcDbLine
 10
164.000000000002
 20
242.836
 11
164.500000000002
 21
243.336
  0
LINE
  5
72C
100
AcDbEntity
  8
2
  6
CONTINUOUS
100
AcDbLine
 10
164.500000000002
 20
243.336
 11
190.000000000001
 21
243.336
  0
LINE
  5
72D
100
AcDbEntity
  8
2
  6
CONTINUOUS
100
AcDbLine
 10
164.500000000002
 20
243.336
 11
164.500000000002
 21
232.5
  0
LINE
  5
72E
100
AcDbEntity
  8
2
  6
CONTINUOUS
100
AcDbLine
 10
190.500000000001
 20
242.836
 11
190.000000000001
 21
243.336
  0
LINE
  5
72F
100
AcDbEntity
  8
2
  6
CONTINUOUS
100
AcDbLine
 10
190.000000000001
 20
243.336
 11
190.000000000001
 21
232.5
  0
LINE
  5
730
100
AcDbEntity
  8
2
  6
CONTINUOUS
100
AcDbLine
 10
191.000000000001
 20
237.424
 11
190.500000000001
 21
236.707669859234
  0
LINE
  5
731
100
AcDbEntity
  8
2
  6
CONTINUOUS
100
AcDbLine
 10
191.000000000001
 20
243.336
 11
191.000000000001
 21
237.424
  0
LINE
  5
732
100
AcDbEntity
  8
2
  6
CONTINUOUS
100
AcDbLine
 10
190.500000000001
 20
242.836
 11
191.000000000001
 21
243.336
  0
LINE
  5
733
100
AcDbEntity
  8
2
  6
CONTINUOUS
100
AcDbLine
 10
191.000000000001
 20
243.336
 11
197.000000000001
 21
243.336
  0
LINE
  5
734
100
AcDbEntity
  8
2
  6
CONTINUOUS
100
AcDbLine
 10
191.000000000001
 20
237.424
 11
197.000000000001
 21
237.424
  0
LINE
  5
735
100
AcDbEntity
  8
2
  6
CONTINUOUS
100
AcDbLine
 10
197.000000000001
 20
237.424
 11
197.500000000001
 21
236.707669859234
  0
LINE
  5
736
100
AcDbEntity
  8
2
  6
CONTINUOUS
100
AcDbLine
 10
197.000000000001
 20
243.336
 11
197.000000000001
 21
237.424
  0
LINE
  5
737
100
AcDbEntity
  8
2
  6
CONTINUOUS
100
AcDbLine
 10
197.500000000001
 20
242.836
 11
197.000000000001
 21
243.336
  0
LINE
  5
738
100
AcDbEntity
  8
2
  6
CONTINUOUS
100
AcDbLine
 10
79.0000000000016
 20
194.15
 11
57.0000000000016
 21
194.15
  0
LINE
  5
739
100
AcDbEntity
  8
2
  6
CONTINUOUS
100
AcDbLine
 10
79.0000000000016
 20
205.85
 11
57.0000000000016
 21
205.85
  0
LINE
  5
73A
100
AcDbEntity
  8
2
  6
CONTINUOUS
100
AcDbLine
 10
384.250194067021
 20
-179.77201355006
 11
384.250194067021
 21
-157.27201355006
  0
MTEXT
  5
73B
100
AcDbEntity
  8
4
  6
CONTINUOUS
 62
     2
100
AcDbMText
 10
364.250194067021
 20
-163.52201355006
 40
3.5
 41
0.0
 11
1.0
 21
0.0
 71
     5
 72
     5
  7
BIGFONT
  1
{\T1.38889;\W0.676692;備　　　　　考}
  0
LINE
  5
73C
100
AcDbEntity
  8
2
  6
CONTINUOUS
100
AcDbLine
 10
314.250194067021
 20
-179.77201355006
 11
314.250194067021
 21
-157.27201355006
  0
LINE
  5
73D
100
AcDbEntity
  8
2
  6
CONTINUOUS
100
AcDbLine
 10
284.250194067021
 20
-179.77201355006
 11
284.250194067021
 21
-157.27201355006
  0
LINE
  5
73E
100
AcDbEntity
  8
2
  6
CONTINUOUS
100
AcDbLine
 10
254.250194067021
 20
-179.77201355006
 11
254.250194067021
 21
-157.27201355006
  0
LINE
  5
73F
100
AcDbEntity
  8
2
  6
CONTINUOUS
100
AcDbLine
 10
224.250194067021
 20
-179.77201355006
 11
224.250194067021
 21
-157.27201355006
  0
LINE
  5
740
100
AcDbEntity
  8
2
  6
CONTINUOUS
100
AcDbLine
 10
224.250194067021
 20
-164.77201355006
 11
344.250194067021
 21
-164.77201355006
  0
MTEXT
  5
741
100
AcDbEntity
  8
4
  6
CONTINUOUS
 62
     2
100
AcDbMText
 10
239.250194067021
 20
-161.02201355006
 40
2.5
 41
0.0
 11
1.0
 21
0.0
 71
     5
 72
     5
  7
BIGFONT
  1
{\T1.25;\W1.05263;締付トルク範囲}
  0
MTEXT
  5
742
100
AcDbEntity
  8
4
  6
CONTINUOUS
 62
     2
100
AcDbMText
 10
239.250194067021
 20
-167.27201355006
 40
2.5
 41
0.0
 11
1.0
 21
0.0
 71
     5
 72
     5
  7
BIGFONT
  1
{\T1.35714;\W0.736842;約　Ｎ・ｍ}
  0
MTEXT
  5
743
100
AcDbEntity
  8
4
  6
CONTINUOUS
 62
     2
100
AcDbMText
 10
269.250194067021
 20
-167.27201355006
 40
2.5
 41
0.0
 11
1.0
 21
0.0
 71
     5
 72
     5
  7
BIGFONT
  1
{\T1.42857;\W0.614035;約　　ｒｐｍ}
  0
MTEXT
  5
744
100
AcDbEntity
  8
4
  6
CONTINUOUS
 62
     2
100
AcDbMText
 10
269.250200170537
 20
-161.022007446544
 40
3.3
 41
0.0
 11
1.0
 21
0.0
 71
     5
 72
     5
  7
BIGFONT
  1
{\T1.34615;\W0.760234;回転速度（ＭＡＸ）}
  0
MTEXT
  5
745
100
AcDbEntity
  8
4
  6
CONTINUOUS
 62
     2
100
AcDbMText
 10
299.250194067021
 20
-161.02201355006
 40
3.5
 41
0.0
 11
1.0
 21
0.0
 71
     5
 72
     5
  7
BIGFONT
  1
{\T1.375;\W0.701754;全　　　　長}
  0
MTEXT
  5
746
100
AcDbEntity
  8
4
  6
CONTINUOUS
 62
     2
100
AcDbMText
 10
299.250194067021
 20
-167.27201355006
 40
2.5
 41
0.0
 11
1.0
 21
0.0
 71
     5
 72
     5
  7
BIGFONT
  1
{\T1.4;\W0.657895;約　ｍｍ}
  0
MTEXT
  5
747
100
AcDbEntity
  8
4
  6
CONTINUOUS
 62
     2
100
AcDbMText
 10
329.250194067021
 20
-161.02201355006
 40
3.5
 41
0.0
 11
1.0
 21
0.0
 71
     5
 72
     5
  7
BIGFONT
  1
{\T1.375;\W0.701754;質　　　　量}
  0
MTEXT
  5
748
100
AcDbEntity
  8
4
  6
CONTINUOUS
 62
     2
100
AcDbMText
 10
329.250194067021
 20
-167.27201355006
 40
2.5
 41
0.0
 11
1.0
 21
0.0
 71
     5
 72
     5
  7
BIGFONT
  1
{\T1.4;\W0.657895;約　ｋｇ}
  0
LINE
  5
749
100
AcDbEntity
  8
2
  6
CONTINUOUS
100
AcDbLine
 10
344.250194067021
 20
-179.77201355006
 11
344.250194067021
 21
-157.27201355006
  0
LINE
  5
74A
100
AcDbEntity
  8
2
  6
CONTINUOUS
100
AcDbLine
 10
179.250194067021
 20
-169.77201355006
 11
384.250194067021
 21
-169.77201355006
  0
LINE
  5
74B
100
AcDbEntity
  8
2
  6
CONTINUOUS
100
AcDbLine
 10
179.250194067021
 20
-157.27201355006
 11
384.250194067021
 21
-157.27201355006
  0
LINE
  5
74C
100
AcDbEntity
  8
2
  6
CONTINUOUS
100
AcDbLine
 10
179.250194067021
 20
-179.77201355006
 11
384.250194067021
 21
-179.77201355006
  0
MTEXT
  5
74D
100
AcDbEntity
  8
4
  6
CONTINUOUS
 62
     2
100
AcDbMText
 10
199.250194067021
 20
-163.52201355006
 40
3.5
 41
0.0
 11
1.0
 21
0.0
 71
     5
 72
     5
  7
BIGFONT
  1
{\T1.375;\W0.701754;型　　　　式}
  0
LINE
  5
74E
100
AcDbEntity
  8
2
  6
CONTINUOUS
100
AcDbLine
 10
179.250194067021
 20
-179.77201355006
 11
179.250194067021
 21
-157.27201355006
  0
MTEXT
  5
74F
100
AcDbEntity
  8
4
  6
CONTINUOUS
 62
     2
100
AcDbMText
 10
201.750194067021
 20
-174.77201355006
 40
3.5
 41
0.0
 11
1.0
 21
0.0
 71
     5
 72
     5
  7
STANDARD
  1
{\T1.60714;\W0.666667;UNR-G100-3700NT}
  0
MTEXT
  5
750
100
AcDbEntity
  8
4
  6
CONTINUOUS
 62
     2
100
AcDbMText
 10
299.250194067021
 20
-174.77201355006
 40
3.5
 41
0.0
 11
1.0
 21
0.0
 71
     5
 72
     5
  7
STANDARD
  1
{\T1.60714;\W0.666667;570}
  0
MTEXT
  5
751
100
AcDbEntity
  8
4
  6
CONTINUOUS
 62
     2
100
AcDbMText
 10
269.250194067021
 20
-174.77201355006
 40
3.5
 41
0.0
 11
1.0
 21
0.0
 71
     5
 72
     5
  7
STANDARD
  1
{\T1.60714;\W0.666667;370}
  0
MTEXT
  5
752
100
AcDbEntity
  8
4
  6
CONTINUOUS
 62
     2
100
AcDbMText
 10
239.250194067021
 20
-174.77201355006
 40
3.5
 41
0.0
 11
1.0
 21
0.0
 71
     5
 72
     5
  7
BIGFONT
  1
{\T1.4375;\W0.601504;２００～３７０}
  0
MTEXT
  5
753
100
AcDbEntity
  8
4
  6
CONTINUOUS
 62
     2
100
AcDbMText
 10
329.250194067021
 20
-174.77201355006
 40
3.5
 41
0.0
 11
1.0
 21
0.0
 71
     5
 72
     5
  7
STANDARD
  1
{\T1.60714;\W0.666667;11.0}
  0
INSERT
  5
755
100
AcDbEntity
  8
7
  6
CENTER2
 62
    40
100
AcDbBlockReference
  2
COMP1
 10
0.0
 20
0.0
 41
1.0
 42
1.0
 50
0.0
  0
INSERT
  5
75D
100
AcDbEntity
  8
2
  6
CONTINUOUS
100
AcDbBlockReference
  2
COMP2
 10
0.0
 20
0.0
 41
1.0
 42
1.0
 50
0.0
  0
MTEXT
  5
7A4
100
AcDbEntity
  8
4
  6
CONTINUOUS
 62
     2
100
AcDbMText
 10
595.034883849867
 20
245.643520266661
 40
3.5
 41
0.0
 11
1.0
 21
0.0
 71
     7
 72
     5
  7
BIGFONT
  1
{\T1.35185;\W0.747922;センサーケーブル　ＵＫ－ＡＣＧＢ１－＊}
  0
ENDSEC
  0
SECTION
  2
OBJECTS
  0
DICTIONARY
  5
C
100
AcDbDictionary
  3
ACAD_GROUP
350
D
  3
ACAD_MLINESTYLE
350
E
  3
ACDBVARIABLEDICTIONARY
350
7A5
  0
DICTIONARY
  5
D
102
{ACAD_REACTORS
330
C
102
}
100
AcDbDictionary
  0
DICTIONARY
  5
E
102
{ACAD_REACTORS
330
C
102
}
100
AcDbDictionary
  3
STANDARD
350
13
  0
DICTIONARY
  5
7A5
102
{ACAD_REACTORS
330
C
102
}
330
C
100
AcDbDictionary
  3
SORTENTS
350
7A6
  0
MLINESTYLE
  5
13
102
{ACAD_REACTORS
330
E
102
}
100
AcDbMlineStyle
  2
STANDARD
 70
     0
  3

 62
   256
 51
90.0
 52
90.0
 71
     2
 49
0.5
 62
   256
  6
BYLAYER
 49
-0.5
 62
   256
  6
BYLAYER
  0
DICTIONARYVAR
  5
7A6
102
{ACAD_REACTORS
330
7A5
102
}
100
DictionaryVariables
280
     0
  1
96
  0
ENDSEC
  0
EOF
