  0
SECTION
  2
HEADER
  9
$ACADVER
  1
AC1014
  9
$ACADMAINTVER
 70
     0
  9
$DWGCODEPAGE
  3
ANSI_932
  9
$INSBASE
 10
0.0
 20
0.0
 30
0.0
  9
$EXTMIN
 10
-36.5
 20
-244.972235575763
  9
$EXTMAX
 10
628.600000000001
 20
259.0
  9
$LIMMIN
 10
-36.5
 20
-244.972235575763
  9
$LIMMAX
 10
628.600000000001
 20
259.0
  9
$ORTHOMODE
 70
     0
  9
$REGENMODE
 70
     1
  9
$FILLMODE
 70
     1
  9
$QTEXTMODE
 70
     0
  9
$MIRRTEXT
 70
     1
  9
$DRAGMODE
 70
     2
  9
$LTSCALE
 40
1.0
  9
$OSMODE
 70
     0
  9
$ATTMODE
 70
     1
  9
$TEXTSIZE
 40
3.0
  9
$TRACEWID
 40
0.5
  9
$TEXTSTYLE
  7
STANDARD
  9
$CLAYER
  8
0
  9
$CELTYPE
  6
BYLAYER
  9
$CECOLOR
 62
   256
  9
$CELTSCALE
 40
1.0
  9
$DELOBJ
 70
     1
  9
$DISPSILH
 70
     0
  9
$DIMSCALE
 40
1.0
  9
$DIMASZ
 40
2.0
  9
$DIMEXO
 40
1.0
  9
$DIMDLI
 40
5.0
  9
$DIMRND
 40
0.0
  9
$DIMDLE
 40
3.0
  9
$DIMEXE
 40
1.0
  9
$DIMTP
 40
0.0
  9
$DIMTM
 40
0.0
  9
$DIMTXT
 40
3.5
  9
$DIMCEN
 40
2.0
  9
$DIMTSZ
 40
0.0
  9
$DIMTOL
 70
     0
  9
$DIMLIM
 70
     0
  9
$DIMTIH
 70
     0
  9
$DIMTOH
 70
     0
  9
$DIMSE1
 70
     0
  9
$DIMSE2
 70
     0
  9
$DIMTAD
 70
     1
  9
$DIMZIN
 70
     8
  9
$DIMBLK
  1

  9
$DIMASO
 70
     1
  9
$DIMSHO
 70
     1
  9
$DIMPOST
  1

  9
$DIMAPOST
  1

  9
$DIMALT
 70
     0
  9
$DIMALTD
 70
     4
  9
$DIMALTF
 40
0.0393700787401575
  9
$DIMLFAC
 40
1.0
  9
$DIMTOFL
 70
     1
  9
$DIMTVP
 40
1.0
  9
$DIMTIX
 70
     0
  9
$DIMSOXD
 70
     0
  9
$DIMSAH
 70
     0
  9
$DIMBLK1
  1

  9
$DIMBLK2
  1

  9
$DIMSTYLE
  2
ISO-25
  9
$DIMCLRD
 70
     0
  9
$DIMCLRE
 70
     0
  9
$DIMCLRT
 70
     0
  9
$DIMTFAC
 40
1.0
  9
$DIMGAP
 40
0.5
  9
$DIMJUST
 70
     0
  9
$DIMSD1
 70
     0
  9
$DIMSD2
 70
     0
  9
$DIMTOLJ
 70
     1
  9
$DIMTZIN
 70
     1
  9
$DIMALTZ
 70
     0
  9
$DIMALTTZ
 70
     0
  9
$DIMFIT
 70
     3
  9
$DIMUPT
 70
     0
  9
$DIMUNIT
 70
     2
  9
$DIMDEC
 70
     3
  9
$DIMTDEC
 70
     3
  9
$DIMALTU
 70
     8
  9
$DIMALTTD
 70
     4
  9
$DIMTXSTY
  7
STANDARD
  9
$DIMAUNIT
 70
     0
  9
$LUNITS
 70
     2
  9
$LUPREC
 70
     4
  9
$AXISMODE
 70
     0
  9
$AXISUNIT
 10
0.0
 20
0.0
  9
$SKETCHINC
 40
1.0
  9
$FILLETRAD
 40
0.0
  9
$AUNITS
 70
     0
  9
$AUPREC
 70
     0
  9
$MENU
  1
.
  9
$ELEVATION
 40
0.0
  9
$PELEVATION
 40
0.0
  9
$THICKNESS
 40
0.0
  9
$LIMCHECK
 70
     0
  9
$BLIPMODE
 70
     1
  9
$CHAMFERA
 40
0.0
  9
$CHAMFERB
 40
0.0
  9
$CHAMFERC
 40
0.0
  9
$CHAMFERD
 40
0.0
  9
$SKPOLY
 70
     0
  9
$TDCREATE
 40
2459662.6862963
  9
$TDUPDATE
 40
2459662.6862963
  9
$TDINDWG
 40
0.0
  9
$TDUSRTIMER
 40
0.0
  9
$USRTIMER
 70
     1
  9
$ANGBASE
 50
0.0
  9
$ANGDIR
 70
     0
  9
$PDMODE
 70
     0
  9
$PDSIZE
 40
0.0
  9
$PLINEWID
 40
0.0
  9
$COORDS
 70
     0
  9
$SPLFRAME
 70
     0
  9
$SPLINETYPE
 70
     6
  9
$SPLINESEGS
 70
     8
  9
$ATTDIA
 70
     0
  9
$ATTREQ
 70
     1
  9
$HANDLING
 70
     1
  9
$HANDSEED
  5
792
  9
$SURFTAB1
 70
     6
  9
$SURFTAB2
 70
     6
  9
$SURFTYPE
 70
     6
  9
$SURFU
 70
     6
  9
$SURFV
 70
     6
  9
$UCSNAME
  2

  9
$UCSORG
 10
0.0
 20
0.0
 30
0.0
  9
$UCSXDIR
 10
1.0
 20
0.0
 30
0.0
  9
$UCSYDIR
 10
0.0
 20
1.0
 30
0.0
  9
$PUCSNAME
  2

  9
$PUCSORG
 10
0.0
 20
1.0
 30
0.0
  9
$PUCSXDIR
 10
1.0
 20
0.0
 30
0.0
  9
$PUCSYDIR
 10
0.0
 20
1.0
 30
0.0
  9
$USERI1
 70
     0
  9
$USERI2
 70
     0
  9
$USERI3
 70
     0
  9
$USERI4
 70
     0
  9
$USERI5
 70
     0
  9
$USERR1
 40
0.0
  9
$USERR2
 40
0.0
  9
$USERR3
 40
0.0
  9
$USERR4
 40
0.0
  9
$USERR5
 40
0.0
  9
$WORLDVIEW
 70
     1
  9
$SHADEDGE
 70
     3
  9
$SHADEDIF
 70
    70
  9
$TILEMODE
 70
     1
  9
$MAXACTVP
 70
    16
  9
$PINSBASE
 10
0.0
 20
1.0
 30
0.0
  9
$PLIMCHECK
 70
     0
  9
$PEXTMIN
 10
1.00000000000000E+020
 20
1.00000000000000E+020
 30
1.00000000000000E+020
  9
$PEXTMAX
 10
-1.00000000000000E+020
 20
-1.00000000000000E+020
 30
-1.00000000000000E+020
  9
$PLIMMIN
 10
-36.5
 20
-244.972235575763
  9
$PLIMMAX
 10
628.600000000001
 20
259.0
  9
$UNITMODE
 70
     0
  9
$VISRETAIN
 70
     0
  9
$PLINEGEN
 70
     0
  9
$PSLTSCALE
 70
     0
  9
$TREEDEPTH
 70
  3020
  9
$PICKSTYLE
 70
     1
  9
$CMLSTYLE
  2
STANDARD
  9
$CMLJUST
 70
     0
  9
$CMLSCALE
 40
1.0
  9
$PROXYGRAPHICS
 70
     1
  9
$MEASUREMENT
 70
     1
  0
ENDSEC
  0
SECTION
  2
CLASSES
  0
CLASS
  1
LWPOLYLINE
  2
AcDbPolyline
  3
"AutoCAD"
 90
        0
280
     0
281
     1
  0
CLASS
  1
DICTIONARYVAR
  2
AcDbDictionaryVar
  3
"AutoCAD"
 90
        0
280
     0
281
     1
  0
CLASS
  1
HATCH
  2
AcDbHatch
  3
"AutoCAD"
 90
        0
280
     0
281
     1
  0
ENDSEC
  0
SECTION
  2
TABLES
  0
TABLE
  2
VPORT
  5
8
100
AcDbSymbolTable
 70
     1
  0
VPORT
  5
784
100
AcDbSymbolTableRecord
100
AcDbViewportTableRecord
  2
*ACTIVE
 70
     0
 10
0.0
 20
0.0
 11
1.0
 21
1.0
 12
296.050000000001
 22
7.01388221211835
 13
0.0
 23
0.0
 14
0.0
 24
0.0
 15
0.0
 25
0.0
 16
0.0
 26
0.0
 36
1.0
 17
0.0
 27
0.0
 37
0.0
 40
503.972235575763
 41
1.5
 42
50.0
 43
0.0
 44
0.0
 50
0.0
 51
0.0
 71
     0
 72
   100
 73
     1
 74
     1
 75
     0
 76
     0
 77
     0
 78
     0
  0
ENDTAB
  0
TABLE
  2
LTYPE
  5
5
100
AcDbSymbolTable
 70
    20
  0
LTYPE
  5
785
100
AcDbSymbolTableRecord
100
AcDbLinetypeTableRecord
  2
BYBLOCK
 70
     0
  3

 72
    65
 73
     0
 40
0.0
  0
LTYPE
  5
786
100
AcDbSymbolTableRecord
100
AcDbLinetypeTableRecord
  2
BYLAYER
 70
     0
  3

 72
    65
 73
     0
 40
0.0
  0
LTYPE
  5
787
100
AcDbSymbolTableRecord
100
AcDbLinetypeTableRecord
  2
CONTINUOUS
 70
    64
  3
solid line
 72
    65
 73
     0
 40
0.0
  0
LTYPE
  5
788
100
AcDbSymbolTableRecord
100
AcDbLinetypeTableRecord
  2
HIDDEN
 70
    64
  3
HIDDEN
 72
    65
 73
     0
 40
0.0
  0
LTYPE
  5
789
100
AcDbSymbolTableRecord
100
AcDbLinetypeTableRecord
  2
CENTER
 70
    64
  3
--- - --- - --- - --- - --- -
 72
    65
 73
     4
 40
6.0
 49
3.0
 74
     0
 49
-1.0
 74
     0
 49
1.0
 74
     0
 49
-1.0
 74
     0
  0
LTYPE
  5
78A
100
AcDbSymbolTableRecord
100
AcDbLinetypeTableRecord
  2
CENTER2
 70
    64
  3
CENTER2
 72
    65
 73
     0
 40
0.0
  0
LTYPE
  5
78B
100
AcDbSymbolTableRecord
100
AcDbLinetypeTableRecord
  2
PHANTOM
 70
    64
  3
----- - - ----- - - ----- - -
 72
    65
 73
     6
 40
12.0
 49
7.0
 74
     0
 49
-1.0
 74
     0
 49
1.0
 74
     0
 49
-1.0
 74
     0
 49
1.0
 74
     0
 49
-1.0
 74
     0
  0
ENDTAB
  0
TABLE
  2
LAYER
  5
2
100
AcDbSymbolTable
 70
    20
  0
LAYER
  5
78C
100
AcDbSymbolTableRecord
100
AcDbLayerTableRecord
  2
0
 70
    64
 62
     7
  6
CONTINUOUS
  0
LAYER
  5
28
100
AcDbSymbolTableRecord
100
AcDbLayerTableRecord
  2
2
 70
    64
 62
     7
  6
CONTINUOUS
  0
LAYER
  5
39
100
AcDbSymbolTableRecord
100
AcDbLayerTableRecord
  2
7
 70
    64
 62
     7
  6
CONTINUOUS
  0
LAYER
  5
A3
100
AcDbSymbolTableRecord
100
AcDbLayerTableRecord
  2
6
 70
    64
 62
     7
  6
CONTINUOUS
  0
LAYER
  5
146
100
AcDbSymbolTableRecord
100
AcDbLayerTableRecord
  2
8
 70
    64
 62
     7
  6
CONTINUOUS
  0
LAYER
  5
224
100
AcDbSymbolTableRecord
100
AcDbLayerTableRecord
  2
4
 70
    64
 62
     7
  6
CONTINUOUS
  0
LAYER
  5
78D
100
AcDbSymbolTableRecord
100
AcDbLayerTableRecord
  2
DEFPOINTS
 70
     0
 62
    -7
  6
CONTINUOUS
  0
ENDTAB
  0
TABLE
  2
STYLE
  5
3
100
AcDbSymbolTable
 70
     4
  0
STYLE
  5
78E
100
AcDbSymbolTableRecord
100
AcDbTextStyleTableRecord
  2
STANDARD
 70
    64
 40
0.0
 41
1.0
 50
0.0
 71
     0
 42
3.0
  3
monotxt
  4

  0
STYLE
  5
78F
100
AcDbSymbolTableRecord
100
AcDbTextStyleTableRecord
  2
BIGFONT
 70
    64
 40
0.0
 41
1.0
 50
0.0
 71
     0
 42
3.0
  3
monotxt
  4
bigfont
  0
ENDTAB
  0
TABLE
  2
VIEW
  5
6
100
AcDbSymbolTable
 70
     0
  0
ENDTAB
  0
TABLE
  2
UCS
  5
7
100
AcDbSymbolTable
 70
     0
  0
ENDTAB
  0
TABLE
  2
APPID
  5
9
100
AcDbSymbolTable
 70
     1
  0
APPID
  5
790
100
AcDbSymbolTableRecord
100
AcDbRegAppTableRecord
  2
ACAD
 70
     0
  0
ENDTAB
  0
TABLE
  2
DIMSTYLE
  5
A
100
AcDbSymbolTable
 70
     8
  0
DIMSTYLE
105
791
100
AcDbSymbolTableRecord
100
AcDbDimStyleTableRecord
  2
ISO-25
 70
     0
  3

  4

  5

  6

  7

 40
1.0
 41
2.0
 42
1.0
 43
5.0
 44
1.0
 45
0.0
 46
3.0
 47
0.0
 48
0.0
140
3.5
141
2.0
142
0.0
143
0.0393700787401575
144
1.0
145
1.0
146
1.0
147
0.5
 71
     0
 72
     0
 73
     0
 74
     0
 75
     0
 76
     0
 77
     1
 78
     8
170
     0
171
     0
172
     1
173
     0
174
     0
175
     0
176
     0
177
     0
178
     0
270
     2
271
     3
272
     3
273
     8
274
     4
340
78E
275
     0
280
     0
281
     0
282
     0
283
     1
284
     1
285
     0
286
     0
287
     3
288
     0
  0
ENDTAB
  0
TABLE
  2
BLOCK_RECORD
  5
1
100
AcDbSymbolTable
 70
     2
  0
BLOCK_RECORD
  5
20
100
AcDbSymbolTableRecord
100
AcDbBlockTableRecord
  2
*MODEL_SPACE
  0
BLOCK_RECORD
  5
22
100
AcDbSymbolTableRecord
100
AcDbBlockTableRecord
  2
*PAPER_SPACE
  0
BLOCK_RECORD
  5
6EC
100
AcDbSymbolTableRecord
100
AcDbBlockTableRecord
  2
MARK1_1
  0
BLOCK_RECORD
  5
4DB
100
AcDbSymbolTableRecord
100
AcDbBlockTableRecord
  2
*D1
  0
BLOCK_RECORD
  5
609
100
AcDbSymbolTableRecord
100
AcDbBlockTableRecord
  2
*D2
  0
BLOCK_RECORD
  5
619
100
AcDbSymbolTableRecord
100
AcDbBlockTableRecord
  2
*D3
  0
BLOCK_RECORD
  5
629
100
AcDbSymbolTableRecord
100
AcDbBlockTableRecord
  2
*D4
  0
BLOCK_RECORD
  5
639
100
AcDbSymbolTableRecord
100
AcDbBlockTableRecord
  2
*D5
  0
BLOCK_RECORD
  5
64B
100
AcDbSymbolTableRecord
100
AcDbBlockTableRecord
  2
*D6
  0
BLOCK_RECORD
  5
65B
100
AcDbSymbolTableRecord
100
AcDbBlockTableRecord
  2
*D7
  0
BLOCK_RECORD
  5
66D
100
AcDbSymbolTableRecord
100
AcDbBlockTableRecord
  2
*D8
  0
BLOCK_RECORD
  5
67D
100
AcDbSymbolTableRecord
100
AcDbBlockTableRecord
  2
*D9
  0
BLOCK_RECORD
  5
68D
100
AcDbSymbolTableRecord
100
AcDbBlockTableRecord
  2
*D10
  0
BLOCK_RECORD
  5
69C
100
AcDbSymbolTableRecord
100
AcDbBlockTableRecord
  2
*D11
  0
BLOCK_RECORD
  5
6AC
100
AcDbSymbolTableRecord
100
AcDbBlockTableRecord
  2
*D12
  0
BLOCK_RECORD
  5
6BB
100
AcDbSymbolTableRecord
100
AcDbBlockTableRecord
  2
*D13
  0
BLOCK_RECORD
  5
6CA
100
AcDbSymbolTableRecord
100
AcDbBlockTableRecord
  2
*D14
  0
BLOCK_RECORD
  5
6D9
100
AcDbSymbolTableRecord
100
AcDbBlockTableRecord
  2
*D15
  0
BLOCK_RECORD
  5
6EF
100
AcDbSymbolTableRecord
100
AcDbBlockTableRecord
  2
*D16
  0
BLOCK_RECORD
  5
6FF
100
AcDbSymbolTableRecord
100
AcDbBlockTableRecord
  2
*D17
  0
BLOCK_RECORD
  5
70F
100
AcDbSymbolTableRecord
100
AcDbBlockTableRecord
  2
*D18
  0
BLOCK_RECORD
  5
71F
100
AcDbSymbolTableRecord
100
AcDbBlockTableRecord
  2
*D19
  0
BLOCK_RECORD
  5
751
100
AcDbSymbolTableRecord
100
AcDbBlockTableRecord
  2
*D20
  0
BLOCK_RECORD
  5
52D
100
AcDbSymbolTableRecord
100
AcDbBlockTableRecord
  2
M6_0001
  0
BLOCK_RECORD
  5
24
100
AcDbSymbolTableRecord
100
AcDbBlockTableRecord
  2
SUB1
  0
BLOCK_RECORD
  5
107
100
AcDbSymbolTableRecord
100
AcDbBlockTableRecord
  2
SUB2
  0
BLOCK_RECORD
  5
115
100
AcDbSymbolTableRecord
100
AcDbBlockTableRecord
  2
SUB3
  0
BLOCK_RECORD
  5
123
100
AcDbSymbolTableRecord
100
AcDbBlockTableRecord
  2
SUB4
  0
BLOCK_RECORD
  5
131
100
AcDbSymbolTableRecord
100
AcDbBlockTableRecord
  2
SUB5
  0
BLOCK_RECORD
  5
1B0
100
AcDbSymbolTableRecord
100
AcDbBlockTableRecord
  2
SUB6
  0
BLOCK_RECORD
  5
1E6
100
AcDbSymbolTableRecord
100
AcDbBlockTableRecord
  2
SUB7
  0
BLOCK_RECORD
  5
1FF
100
AcDbSymbolTableRecord
100
AcDbBlockTableRecord
  2
SUB8
  0
BLOCK_RECORD
  5
20D
100
AcDbSymbolTableRecord
100
AcDbBlockTableRecord
  2
SUB9
  0
BLOCK_RECORD
  5
266
100
AcDbSymbolTableRecord
100
AcDbBlockTableRecord
  2
SUB10
  0
BLOCK_RECORD
  5
26E
100
AcDbSymbolTableRecord
100
AcDbBlockTableRecord
  2
SUB11
  0
BLOCK_RECORD
  5
312
100
AcDbSymbolTableRecord
100
AcDbBlockTableRecord
  2
SUB12
  0
BLOCK_RECORD
  5
320
100
AcDbSymbolTableRecord
100
AcDbBlockTableRecord
  2
SUB13
  0
BLOCK_RECORD
  5
38D
100
AcDbSymbolTableRecord
100
AcDbBlockTableRecord
  2
SUB14
  0
BLOCK_RECORD
  5
394
100
AcDbSymbolTableRecord
100
AcDbBlockTableRecord
  2
SUB15
  0
BLOCK_RECORD
  5
39B
100
AcDbSymbolTableRecord
100
AcDbBlockTableRecord
  2
SUB16
  0
BLOCK_RECORD
  5
3A2
100
AcDbSymbolTableRecord
100
AcDbBlockTableRecord
  2
SUB17
  0
BLOCK_RECORD
  5
3AB
100
AcDbSymbolTableRecord
100
AcDbBlockTableRecord
  2
SUB18
  0
BLOCK_RECORD
  5
3B9
100
AcDbSymbolTableRecord
100
AcDbBlockTableRecord
  2
SUB19
  0
BLOCK_RECORD
  5
3C9
100
AcDbSymbolTableRecord
100
AcDbBlockTableRecord
  2
SUB20
  0
BLOCK_RECORD
  5
3D8
100
AcDbSymbolTableRecord
100
AcDbBlockTableRecord
  2
SUB21
  0
BLOCK_RECORD
  5
3EC
100
AcDbSymbolTableRecord
100
AcDbBlockTableRecord
  2
SUB22
  0
BLOCK_RECORD
  5
401
100
AcDbSymbolTableRecord
100
AcDbBlockTableRecord
  2
SUB23
  0
BLOCK_RECORD
  5
4FF
100
AcDbSymbolTableRecord
100
AcDbBlockTableRecord
  2
SUB24
  0
BLOCK_RECORD
  5
50D
100
AcDbSymbolTableRecord
100
AcDbBlockTableRecord
  2
SUB25
  0
BLOCK_RECORD
  5
51C
100
AcDbSymbolTableRecord
100
AcDbBlockTableRecord
  2
SUB26
  0
BLOCK_RECORD
  5
550
100
AcDbSymbolTableRecord
100
AcDbBlockTableRecord
  2
SUB27
  0
BLOCK_RECORD
  5
557
100
AcDbSymbolTableRecord
100
AcDbBlockTableRecord
  2
SUB28
  0
BLOCK_RECORD
  5
568
100
AcDbSymbolTableRecord
100
AcDbBlockTableRecord
  2
SUB29
  0
BLOCK_RECORD
  5
56F
100
AcDbSymbolTableRecord
100
AcDbBlockTableRecord
  2
SUB30
  0
BLOCK_RECORD
  5
738
100
AcDbSymbolTableRecord
100
AcDbBlockTableRecord
  2
SUB31
  0
BLOCK_RECORD
  5
73F
100
AcDbSymbolTableRecord
100
AcDbBlockTableRecord
  2
SUB32
  0
BLOCK_RECORD
  5
746
100
AcDbSymbolTableRecord
100
AcDbBlockTableRecord
  2
SUB33
  0
ENDTAB
  0
ENDSEC
  0
SECTION
  2
BLOCKS
  0
BLOCK
  5
21
100
AcDbEntity
  8
0
100
AcDbBlockBegin
  2
*MODEL_SPACE
 70
     0
 10
0.0
 20
0.0
 30
0.0
  3
*MODEL_SPACE
  1

  0
ENDBLK
  5
77E
100
AcDbEntity
  8
0
100
AcDbBlockEnd
  0
BLOCK
  5
23
100
AcDbEntity
 67
     1
  8
0
100
AcDbBlockBegin
  2
*PAPER_SPACE
 70
     0
 10
0.0
 20
0.0
 30
0.0
  3
*PAPER_SPACE
  1

  0
ENDBLK
  5
77F
100
AcDbEntity
 67
     1
  8
0
100
AcDbBlockEnd
  0
BLOCK
  5
780
100
AcDbEntity
  8
0
100
AcDbBlockBegin
  2
MARK1_1
 70
    64
 10
0.0
 20
0.0
  0
LINE
  5
781
100
AcDbEntity
  8
0
  6
CONTINUOUS
 62
     0
100
AcDbLine
 10
1.0
 20
0.25
 11
0.0
 21
0.0
  0
LINE
  5
782
100
AcDbEntity
  8
0
  6
CONTINUOUS
 62
     0
100
AcDbLine
 10
0.0
 20
0.0
 11
1.0
 21
-0.25
  0
ENDBLK
  5
783
100
AcDbEntity
  8
0
100
AcDbBlockEnd
  0
BLOCK
  5
4DC
100
AcDbEntity
  8
0
100
AcDbBlockBegin
  2
*D1
 70
    65
 10
0.0
 20
0.0
  0
LINE
  5
4DD
100
AcDbEntity
  8
0
  6
CONTINUOUS
 62
     2
100
AcDbLine
 10
77.5
 20
-100.000000000001
 11
45.0
 21
-100.000000000001
  0
LINE
  5
4DE
100
AcDbEntity
  8
0
  6
CONTINUOUS
 62
     2
100
AcDbLine
 10
75.5
 20
-100.500000000001
 11
77.5
 21
-100.000000000001
  0
LINE
  5
4DF
100
AcDbEntity
  8
0
  6
CONTINUOUS
 62
     2
100
AcDbLine
 10
77.5
 20
-100.000000000001
 11
75.5
 21
-99.500000000001
  0
LINE
  5
4E0
100
AcDbEntity
  8
0
  6
CONTINUOUS
 62
     2
100
AcDbLine
 10
12.5
 20
-100.000000000001
 11
45.0
 21
-100.000000000001
  0
LINE
  5
4E1
100
AcDbEntity
  8
0
  6
CONTINUOUS
 62
     2
100
AcDbLine
 10
14.5
 20
-99.500000000001
 11
12.5
 21
-100.000000000001
  0
LINE
  5
4E2
100
AcDbEntity
  8
0
  6
CONTINUOUS
 62
     2
100
AcDbLine
 10
12.5
 20
-100.000000000001
 11
14.5
 21
-100.500000000001
  0
LINE
  5
4E3
100
AcDbEntity
  8
0
  6
CONTINUOUS
 62
     2
100
AcDbLine
 10
77.5
 20
-111.5
 11
77.5
 21
-99.000000000001
  0
LINE
  5
4E4
100
AcDbEntity
  8
0
  6
CONTINUOUS
 62
     2
100
AcDbLine
 10
12.5
 20
-111.5
 11
12.5
 21
-99.000000000001
  0
MTEXT
  5
4E5
100
AcDbEntity
  8
0
  6
CONTINUOUS
 62
     2
100
AcDbMText
 10
42.8125
 20
-99.500000000001
 40
3.5
 41
0.0
 11
1.0
 21
0.0
 71
     7
 72
     5
  7
STANDARD
  1
{\T1.60714;\W0.666667;65}
 73
     1
 44
1.0
  0
POINT
  5
4E6
100
AcDbEntity
  8
DEFPOINTS
  6
BYBLOCK
 62
     0
100
AcDbPoint
 10
77.5
 20
-112.0
  0
POINT
  5
4E7
100
AcDbEntity
  8
DEFPOINTS
  6
BYBLOCK
 62
     0
100
AcDbPoint
 10
12.5
 20
-112.0
  0
POINT
  5
4E8
100
AcDbEntity
  8
DEFPOINTS
  6
BYBLOCK
 62
     0
100
AcDbPoint
 10
12.5
 20
-100.000000000001
  0
ENDBLK
  5
4E9
100
AcDbEntity
  8
4
100
AcDbBlockEnd
  0
BLOCK
  5
60A
100
AcDbEntity
  8
0
100
AcDbBlockBegin
  2
*D2
 70
    65
 10
0.0
 20
0.0
  0
LINE
  5
60B
100
AcDbEntity
  8
0
  6
CONTINUOUS
 62
     2
100
AcDbLine
 10
515.500000000001
 20
92.0
 11
375.250000000001
 21
92.0
  0
LINE
  5
60C
100
AcDbEntity
  8
0
  6
CONTINUOUS
 62
     2
100
AcDbLine
 10
513.500000000001
 20
91.5
 11
515.500000000001
 21
92.0
  0
LINE
  5
60D
100
AcDbEntity
  8
0
  6
CONTINUOUS
 62
     2
100
AcDbLine
 10
515.500000000001
 20
92.0
 11
513.500000000001
 21
92.5
  0
LINE
  5
60E
100
AcDbEntity
  8
0
  6
CONTINUOUS
 62
     2
100
AcDbLine
 10
235.0
 20
92.0
 11
375.250000000001
 21
92.0
  0
LINE
  5
60F
100
AcDbEntity
  8
0
  6
CONTINUOUS
 62
     2
100
AcDbLine
 10
237.0
 20
92.5
 11
235.0
 21
92.0
  0
LINE
  5
610
100
AcDbEntity
  8
0
  6
CONTINUOUS
 62
     2
100
AcDbLine
 10
235.0
 20
92.0
 11
237.0
 21
91.5
  0
LINE
  5
611
100
AcDbEntity
  8
0
  6
CONTINUOUS
 62
     2
100
AcDbLine
 10
515.500000000001
 20
34.499999999999
 11
515.500000000001
 21
93.0
  0
LINE
  5
612
100
AcDbEntity
  8
0
  6
CONTINUOUS
 62
     2
100
AcDbLine
 10
235.0
 20
44.499999999999
 11
235.0
 21
93.0
  0
MTEXT
  5
613
100
AcDbEntity
  8
0
  6
CONTINUOUS
 62
     2
100
AcDbMText
 10
369.125000000001
 20
92.5
 40
3.5
 41
0.0
 11
1.0
 21
0.0
 71
     7
 72
     5
  7
STANDARD
  1
{\T1.60714;\W0.666667;280.5}
 73
     1
 44
1.0
  0
POINT
  5
614
100
AcDbEntity
  8
DEFPOINTS
  6
BYBLOCK
 62
     0
100
AcDbPoint
 10
515.500000000001
 20
33.999999999999
  0
POINT
  5
615
100
AcDbEntity
  8
DEFPOINTS
  6
BYBLOCK
 62
     0
100
AcDbPoint
 10
235.0
 20
43.999999999999
  0
POINT
  5
616
100
AcDbEntity
  8
DEFPOINTS
  6
BYBLOCK
 62
     0
100
AcDbPoint
 10
235.0
 20
92.0
  0
ENDBLK
  5
617
100
AcDbEntity
  8
4
100
AcDbBlockEnd
  0
BLOCK
  5
61A
100
AcDbEntity
  8
0
100
AcDbBlockBegin
  2
*D3
 70
    65
 10
0.0
 20
0.0
  0
LINE
  5
61B
100
AcDbEntity
  8
0
  6
CONTINUOUS
 62
     2
100
AcDbLine
 10
0.0
 20
76.0
 11
10.0
 21
76.0
  0
LINE
  5
61C
100
AcDbEntity
  8
0
  6
CONTINUOUS
 62
     2
100
AcDbLine
 10
2.0
 20
76.5
 11
0.0
 21
76.0
  0
LINE
  5
61D
100
AcDbEntity
  8
0
  6
CONTINUOUS
 62
     2
100
AcDbLine
 10
0.0
 20
76.0
 11
2.0
 21
75.5
  0
LINE
  5
61E
100
AcDbEntity
  8
0
  6
CONTINUOUS
 62
     2
100
AcDbLine
 10
20.0
 20
76.0
 11
10.0
 21
76.0
  0
LINE
  5
61F
100
AcDbEntity
  8
0
  6
CONTINUOUS
 62
     2
100
AcDbLine
 10
18.0
 20
75.5
 11
20.0
 21
76.0
  0
LINE
  5
620
100
AcDbEntity
  8
0
  6
CONTINUOUS
 62
     2
100
AcDbLine
 10
20.0
 20
76.0
 11
18.0
 21
76.5
  0
LINE
  5
621
100
AcDbEntity
  8
0
  6
CONTINUOUS
 62
     2
100
AcDbLine
 10
0.0
 20
8.43999999999997
 11
0.0
 21
77.0
  0
LINE
  5
622
100
AcDbEntity
  8
0
  6
CONTINUOUS
 62
     2
100
AcDbLine
 10
20.0
 20
10.5
 11
20.0
 21
77.0
  0
MTEXT
  5
623
100
AcDbEntity
  8
0
  6
CONTINUOUS
 62
     2
100
AcDbMText
 10
7.8125
 20
76.5
 40
3.5
 41
0.0
 11
1.0
 21
0.0
 71
     7
 72
     5
  7
STANDARD
  1
{\T1.60714;\W0.666667;20}
 73
     1
 44
1.0
  0
POINT
  5
624
100
AcDbEntity
  8
DEFPOINTS
  6
BYBLOCK
 62
     0
100
AcDbPoint
 10
0.0
 20
7.93999999999997
  0
POINT
  5
625
100
AcDbEntity
  8
DEFPOINTS
  6
BYBLOCK
 62
     0
100
AcDbPoint
 10
20.0
 20
9.99999999999997
  0
POINT
  5
626
100
AcDbEntity
  8
DEFPOINTS
  6
BYBLOCK
 62
     0
100
AcDbPoint
 10
20.0
 20
76.0
  0
ENDBLK
  5
627
100
AcDbEntity
  8
4
100
AcDbBlockEnd
  0
BLOCK
  5
62A
100
AcDbEntity
  8
0
100
AcDbBlockBegin
  2
*D4
 70
    65
 10
0.0
 20
0.0
  0
LINE
  5
62B
100
AcDbEntity
  8
0
  6
CONTINUOUS
 62
     2
100
AcDbLine
 10
0.0
 20
60.0
 11
4.0
 21
60.0
  0
LINE
  5
62C
100
AcDbEntity
  8
0
  6
CONTINUOUS
 62
     2
100
AcDbLine
 10
2.0
 20
60.5
 11
0.0
 21
60.0
  0
LINE
  5
62D
100
AcDbEntity
  8
0
  6
CONTINUOUS
 62
     2
100
AcDbLine
 10
0.0
 20
60.0
 11
2.0
 21
59.5
  0
LINE
  5
62E
100
AcDbEntity
  8
0
  6
CONTINUOUS
 62
     2
100
AcDbLine
 10
8.0
 20
60.0
 11
4.0
 21
60.0
  0
LINE
  5
62F
100
AcDbEntity
  8
0
  6
CONTINUOUS
 62
     2
100
AcDbLine
 10
6.0
 20
59.5
 11
8.0
 21
60.0
  0
LINE
  5
630
100
AcDbEntity
  8
0
  6
CONTINUOUS
 62
     2
100
AcDbLine
 10
8.0
 20
60.0
 11
6.0
 21
60.5
  0
LINE
  5
631
100
AcDbEntity
  8
0
  6
CONTINUOUS
 62
     2
100
AcDbLine
 10
0.0
 20
8.43999999999997
 11
0.0
 21
61.0
  0
LINE
  5
632
100
AcDbEntity
  8
0
  6
CONTINUOUS
 62
     2
100
AcDbLine
 10
8.0
 20
8.43999999999997
 11
8.0
 21
61.0
  0
MTEXT
  5
633
100
AcDbEntity
  8
0
  6
CONTINUOUS
 62
     2
100
AcDbMText
 10
3.125
 20
60.5
 40
3.5
 41
0.0
 11
1.0
 21
0.0
 71
     7
 72
     5
  7
STANDARD
  1
{\T1.60714;\W0.666667;8}
 73
     1
 44
1.0
  0
POINT
  5
634
100
AcDbEntity
  8
DEFPOINTS
  6
BYBLOCK
 62
     0
100
AcDbPoint
 10
0.0
 20
7.93999999999997
  0
POINT
  5
635
100
AcDbEntity
  8
DEFPOINTS
  6
BYBLOCK
 62
     0
100
AcDbPoint
 10
8.0
 20
7.93999999999997
  0
POINT
  5
636
100
AcDbEntity
  8
DEFPOINTS
  6
BYBLOCK
 62
     0
100
AcDbPoint
 10
8.0
 20
60.0
  0
ENDBLK
  5
637
100
AcDbEntity
  8
4
100
AcDbBlockEnd
  0
BLOCK
  5
63A
100
AcDbEntity
  8
0
100
AcDbBlockBegin
  2
*D5
 70
    65
 10
0.0
 20
0.0
  0
LINE
  5
63B
100
AcDbEntity
  8
0
  6
CONTINUOUS
 62
     2
100
AcDbLine
 10
-30.0
 20
24.0
 11
-30.0
 21
-2.84217094304040E-014
  0
LINE
  5
63C
100
AcDbEntity
  8
0
  6
CONTINUOUS
 62
     2
100
AcDbLine
 10
-29.5
 20
22.0
 11
-30.0
 21
24.0
  0
LINE
  5
63D
100
AcDbEntity
  8
0
  6
CONTINUOUS
 62
     2
100
AcDbLine
 10
-30.0
 20
24.0
 11
-30.5
 21
22.0
  0
LINE
  5
63E
100
AcDbEntity
  8
0
  6
CONTINUOUS
 62
     2
100
AcDbLine
 10
-30.0
 20
-24.0
 11
-30.0
 21
-2.84217094304040E-014
  0
LINE
  5
63F
100
AcDbEntity
  8
0
  6
CONTINUOUS
 62
     2
100
AcDbLine
 10
-30.5
 20
-22.0
 11
-30.0
 21
-24.0
  0
LINE
  5
640
100
AcDbEntity
  8
0
  6
CONTINUOUS
 62
     2
100
AcDbLine
 10
-30.0
 20
-24.0
 11
-29.5
 21
-22.0
  0
LINE
  5
641
100
AcDbEntity
  8
0
  6
CONTINUOUS
 62
     2
100
AcDbLine
 10
36.0
 20
24.0
 11
-31.0
 21
24.0
  0
LINE
  5
642
100
AcDbEntity
  8
0
  6
CONTINUOUS
 62
     2
100
AcDbLine
 10
36.0
 20
-24.0
 11
-31.0
 21
-24.0
  0
MTEXT
  5
643
100
AcDbEntity
  8
0
  6
CONTINUOUS
 62
     2
100
AcDbMText
 10
-31.5
 20
-8.37500000000003
 40
3.5
 41
0.0
 11
6.12323399573677E-017
 21
1.0
 71
     7
 72
     5
  7
STANDARD
  1
{\T1.60714;\W0.666667;%%c48}
 73
     1
 44
1.0
  0
MTEXT
  5
644
100
AcDbEntity
  8
0
  6
CONTINUOUS
 62
     2
100
AcDbMText
 10
-33.5
 20
-0.375000000000028
 40
2.5
 41
0.0
 11
6.12323399573677E-017
 21
1.0
 71
     7
 72
     5
  7
STANDARD
  1
{\T1.60714;\W0.666667;-0.03}
 73
     1
 44
1.0
  0
MTEXT
  5
645
100
AcDbEntity
  8
0
  6
CONTINUOUS
 62
     2
100
AcDbMText
 10
-30.5
 20
-0.375000000000028
 40
2.5
 41
0.0
 11
6.12323399573677E-017
 21
1.0
 71
     7
 72
     5
  7
STANDARD
  1
{\T1.60714;\W0.666667;-0.05}
 73
     1
 44
1.0
  0
POINT
  5
646
100
AcDbEntity
  8
DEFPOINTS
  6
BYBLOCK
 62
     0
100
AcDbPoint
 10
36.5
 20
24.0
  0
POINT
  5
647
100
AcDbEntity
  8
DEFPOINTS
  6
BYBLOCK
 62
     0
100
AcDbPoint
 10
36.5
 20
-24.0
  0
POINT
  5
648
100
AcDbEntity
  8
DEFPOINTS
  6
BYBLOCK
 62
     0
100
AcDbPoint
 10
-30.0
 20
-24.0
  0
ENDBLK
  5
649
100
AcDbEntity
  8
4
100
AcDbBlockEnd
  0
BLOCK
  5
64C
100
AcDbEntity
  8
0
100
AcDbBlockBegin
  2
*D6
 70
    65
 10
0.0
 20
0.0
  0
LINE
  5
64D
100
AcDbEntity
  8
0
  6
CONTINUOUS
 62
     2
100
AcDbLine
 10
-15.0
 20
9.99999999999997
 11
-15.0
 21
-2.84217094304040E-014
  0
LINE
  5
64E
100
AcDbEntity
  8
0
  6
CONTINUOUS
 62
     2
100
AcDbLine
 10
-14.5
 20
7.99999999999997
 11
-15.0
 21
9.99999999999997
  0
LINE
  5
64F
100
AcDbEntity
  8
0
  6
CONTINUOUS
 62
     2
100
AcDbLine
 10
-15.0
 20
9.99999999999997
 11
-15.5
 21
7.99999999999997
  0
LINE
  5
650
100
AcDbEntity
  8
0
  6
CONTINUOUS
 62
     2
100
AcDbLine
 10
-15.0
 20
-10.0
 11
-15.0
 21
-2.84217094304040E-014
  0
LINE
  5
651
100
AcDbEntity
  8
0
  6
CONTINUOUS
 62
     2
100
AcDbLine
 10
-15.5
 20
-8.00000000000003
 11
-15.0
 21
-10.0
  0
LINE
  5
652
100
AcDbEntity
  8
0
  6
CONTINUOUS
 62
     2
100
AcDbLine
 10
-15.0
 20
-10.0
 11
-14.5
 21
-8.00000000000003
  0
LINE
  5
653
100
AcDbEntity
  8
0
  6
CONTINUOUS
 62
     2
100
AcDbLine
 10
19.4
 20
9.99999999999997
 11
-16.0
 21
9.99999999999997
  0
LINE
  5
654
100
AcDbEntity
  8
0
  6
CONTINUOUS
 62
     2
100
AcDbLine
 10
19.4
 20
-10.0
 11
-16.0
 21
-10.0
  0
MTEXT
  5
655
100
AcDbEntity
  8
0
  6
CONTINUOUS
 62
     2
100
AcDbMText
 10
-15.5
 20
-3.50000000000003
 40
3.5
 41
0.0
 11
6.12323399573677E-017
 21
1.0
 71
     7
 72
     5
  7
STANDARD
  1
{\T1.60714;\W0.666667;%%c20}
 73
     1
 44
1.0
  0
POINT
  5
656
100
AcDbEntity
  8
DEFPOINTS
  6
BYBLOCK
 62
     0
100
AcDbPoint
 10
19.9
 20
9.99999999999997
  0
POINT
  5
657
100
AcDbEntity
  8
DEFPOINTS
  6
BYBLOCK
 62
     0
100
AcDbPoint
 10
19.9
 20
-10.0
  0
POINT
  5
658
100
AcDbEntity
  8
DEFPOINTS
  6
BYBLOCK
 62
     0
100
AcDbPoint
 10
-15.0
 20
-10.0
  0
ENDBLK
  5
659
100
AcDbEntity
  8
4
100
AcDbBlockEnd
  0
BLOCK
  5
65C
100
AcDbEntity
  8
0
100
AcDbBlockBegin
  2
*D7
 70
    65
 10
0.0
 20
0.0
  0
LINE
  5
65D
100
AcDbEntity
  8
0
  6
CONTINUOUS
 62
     2
100
AcDbLine
 10
6.54625552867471
 20
-1.79718555145436
 11
-7.43459094496089
 21
-20.3576863045406
  0
LINE
  5
65E
100
AcDbEntity
  8
0
  6
CONTINUOUS
 62
     2
100
AcDbLine
 10
-7.43459094496089
 20
-20.3576863045406
 11
-18.0595909449609
 21
-20.3576863045406
  0
LINE
  5
65F
100
AcDbEntity
  8
0
  6
CONTINUOUS
 62
     2
100
AcDbLine
 10
5.74230167670876
 20
-3.69551592415272
 11
6.54625552867471
 21
-1.79718555145436
  0
LINE
  5
660
100
AcDbEntity
  8
0
  6
CONTINUOUS
 62
     2
100
AcDbLine
 10
6.54625552867471
 20
-1.79718555145436
 11
4.94355254272905
 21
-3.09385171467482
  0
LINE
  5
661
100
AcDbEntity
  8
0
  6
CONTINUOUS
 62
     2
100
AcDbLine
 10
6.54625552867471
 20
-1.79718555145436
 11
7.9
 21
-2.84217094304040E-014
  0
LINE
  5
662
100
AcDbEntity
  8
0
  6
CONTINUOUS
 62
     2
100
AcDbLine
 10
9.25374447132528
 20
1.79718555145431
 11
7.9
 21
-2.84217094304040E-014
  0
LINE
  5
663
100
AcDbEntity
  8
0
  6
CONTINUOUS
 62
     2
100
AcDbLine
 10
9.25374447132528
 20
1.79718555145431
 11
11.058737099759
 21
4.19343295339343
  0
LINE
  5
664
100
AcDbEntity
  8
0
  6
CONTINUOUS
 62
     2
100
AcDbLine
 10
10.0576983232912
 20
3.69551592415267
 11
9.25374447132528
 21
1.79718555145431
  0
LINE
  5
665
100
AcDbEntity
  8
0
  6
CONTINUOUS
 62
     2
100
AcDbLine
 10
9.25374447132528
 20
1.79718555145431
 11
10.8564474572709
 21
3.09385171467477
  0
MTEXT
  5
666
100
AcDbEntity
  8
0
  6
CONTINUOUS
 62
     2
100
AcDbMText
 10
-17.5595909449609
 20
-19.8576863045406
 40
3.5
 41
0.0
 11
1.0
 21
0.0
 71
     7
 72
     5
  7
STANDARD
  1
{\T1.60714;\W0.666667;%%c4.5}
 73
     1
 44
1.0
  0
POINT
  5
667
100
AcDbEntity
  8
DEFPOINTS
  6
BYBLOCK
 62
     0
100
AcDbPoint
 10
9.25374447132528
 20
1.79718555145431
  0
POINT
  5
668
100
AcDbEntity
  8
DEFPOINTS
  6
BYBLOCK
 62
     0
100
AcDbPoint
 10
6.54625552867471
 20
-1.79718555145436
  0
ENDBLK
  5
669
100
AcDbEntity
  8
4
100
AcDbBlockEnd
  0
BLOCK
  5
66E
100
AcDbEntity
  8
0
100
AcDbBlockBegin
  2
*D8
 70
    65
 10
0.0
 20
0.0
  0
LINE
  5
66F
100
AcDbEntity
  8
0
  6
CONTINUOUS
 62
     2
100
AcDbLine
 10
86.185301287778
 20
-85.000000000001
 11
45.0000000000005
 21
-85.000000000001
  0
LINE
  5
670
100
AcDbEntity
  8
0
  6
CONTINUOUS
 62
     2
100
AcDbLine
 10
84.185301287778
 20
-85.500000000001
 11
86.185301287778
 21
-85.000000000001
  0
LINE
  5
671
100
AcDbEntity
  8
0
  6
CONTINUOUS
 62
     2
100
AcDbLine
 10
86.185301287778
 20
-85.000000000001
 11
84.185301287778
 21
-84.500000000001
  0
LINE
  5
672
100
AcDbEntity
  8
0
  6
CONTINUOUS
 62
     2
100
AcDbLine
 10
3.81469871222304
 20
-85.000000000001
 11
45.0000000000005
 21
-85.000000000001
  0
LINE
  5
673
100
AcDbEntity
  8
0
  6
CONTINUOUS
 62
     2
100
AcDbLine
 10
5.81469871222304
 20
-84.500000000001
 11
3.81469871222304
 21
-85.000000000001
  0
LINE
  5
674
100
AcDbEntity
  8
0
  6
CONTINUOUS
 62
     2
100
AcDbLine
 10
3.81469871222304
 20
-85.000000000001
 11
5.81469871222304
 21
-85.500000000001
  0
LINE
  5
675
100
AcDbEntity
  8
0
  6
CONTINUOUS
 62
     2
100
AcDbLine
 10
86.185301287778
 20
-161.367957703696
 11
86.185301287778
 21
-84.000000000001
  0
LINE
  5
676
100
AcDbEntity
  8
0
  6
CONTINUOUS
 62
     2
100
AcDbLine
 10
3.81469871222304
 20
-161.367957703697
 11
3.81469871222304
 21
-84.000000000001
  0
MTEXT
  5
677
100
AcDbEntity
  8
0
  6
CONTINUOUS
 62
     2
100
AcDbMText
 10
40.1875000000005
 20
-84.500000000001
 40
3.5
 41
0.0
 11
1.0
 21
0.0
 71
     7
 72
     5
  7
STANDARD
  1
{\T1.60714;\W0.666667;(83)}
 73
     1
 44
1.0
  0
POINT
  5
678
100
AcDbEntity
  8
DEFPOINTS
  6
BYBLOCK
 62
     0
100
AcDbPoint
 10
86.185301287778
 20
-161.867957703696
  0
POINT
  5
679
100
AcDbEntity
  8
DEFPOINTS
  6
BYBLOCK
 62
     0
100
AcDbPoint
 10
3.81469871222304
 20
-161.867957703697
  0
POINT
  5
67A
100
AcDbEntity
  8
DEFPOINTS
  6
BYBLOCK
 62
     0
100
AcDbPoint
 10
3.81469871222304
 20
-85.000000000001
  0
ENDBLK
  5
67B
100
AcDbEntity
  8
4
100
AcDbBlockEnd
  0
BLOCK
  5
67E
100
AcDbEntity
  8
0
100
AcDbBlockBegin
  2
*D9
 70
    65
 10
0.0
 20
0.0
  0
LINE
  5
67F
100
AcDbEntity
  8
0
  6
CONTINUOUS
 62
     2
100
AcDbLine
 10
-30.0
 20
-110.0
 11
-30.0
 21
-145.000000000001
  0
LINE
  5
680
100
AcDbEntity
  8
0
  6
CONTINUOUS
 62
     2
100
AcDbLine
 10
-29.5
 20
-112.0
 11
-30.0
 21
-110.0
  0
LINE
  5
681
100
AcDbEntity
  8
0
  6
CONTINUOUS
 62
     2
100
AcDbLine
 10
-30.0
 20
-110.0
 11
-30.5
 21
-112.0
  0
LINE
  5
682
100
AcDbEntity
  8
0
  6
CONTINUOUS
 62
     2
100
AcDbLine
 10
-30.0
 20
-180.000000000001
 11
-30.0
 21
-145.000000000001
  0
LINE
  5
683
100
AcDbEntity
  8
0
  6
CONTINUOUS
 62
     2
100
AcDbLine
 10
-30.5
 20
-178.000000000001
 11
-30.0
 21
-180.000000000001
  0
LINE
  5
684
100
AcDbEntity
  8
0
  6
CONTINUOUS
 62
     2
100
AcDbLine
 10
-30.0
 20
-180.000000000001
 11
-29.5
 21
-178.000000000001
  0
LINE
  5
685
100
AcDbEntity
  8
0
  6
CONTINUOUS
 62
     2
100
AcDbLine
 10
14.0
 20
-110.0
 11
-31.0
 21
-110.0
  0
LINE
  5
686
100
AcDbEntity
  8
0
  6
CONTINUOUS
 62
     2
100
AcDbLine
 10
-15.5
 20
-180.000000000001
 11
-31.0
 21
-180.000000000001
  0
MTEXT
  5
687
100
AcDbEntity
  8
0
  6
CONTINUOUS
 62
     2
100
AcDbMText
 10
-30.5
 20
-147.187500000001
 40
3.5
 41
0.0
 11
6.12323399573677E-017
 21
1.0
 71
     7
 72
     5
  7
STANDARD
  1
{\T1.60714;\W0.666667;70}
 73
     1
 44
1.0
  0
POINT
  5
688
100
AcDbEntity
  8
DEFPOINTS
  6
BYBLOCK
 62
     0
100
AcDbPoint
 10
14.5
 20
-110.0
  0
POINT
  5
689
100
AcDbEntity
  8
DEFPOINTS
  6
BYBLOCK
 62
     0
100
AcDbPoint
 10
-15.0
 20
-180.000000000001
  0
POINT
  5
68A
100
AcDbEntity
  8
DEFPOINTS
  6
BYBLOCK
 62
     0
100
AcDbPoint
 10
-30.0
 20
-180.000000000001
  0
ENDBLK
  5
68B
100
AcDbEntity
  8
4
100
AcDbBlockEnd
  0
BLOCK
  5
68E
100
AcDbEntity
  8
0
100
AcDbBlockBegin
  2
*D10
 70
    65
 10
0.0
 20
0.0
  0
LINE
  5
68F
100
AcDbEntity
  8
0
  6
CONTINUOUS
 62
     2
100
AcDbLine
 10
-30.0
 20
-180.000000000001
 11
-30.0
 21
-202.500000000001
  0
LINE
  5
690
100
AcDbEntity
  8
0
  6
CONTINUOUS
 62
     2
100
AcDbLine
 10
-29.5
 20
-182.000000000001
 11
-30.0
 21
-180.000000000001
  0
LINE
  5
691
100
AcDbEntity
  8
0
  6
CONTINUOUS
 62
     2
100
AcDbLine
 10
-30.0
 20
-180.000000000001
 11
-30.5
 21
-182.000000000001
  0
LINE
  5
692
100
AcDbEntity
  8
0
  6
CONTINUOUS
 62
     2
100
AcDbLine
 10
-30.0
 20
-225.000000000001
 11
-30.0
 21
-202.500000000001
  0
LINE
  5
693
100
AcDbEntity
  8
0
  6
CONTINUOUS
 62
     2
100
AcDbLine
 10
-30.5
 20
-223.000000000001
 11
-30.0
 21
-225.000000000001
  0
LINE
  5
694
100
AcDbEntity
  8
0
  6
CONTINUOUS
 62
     2
100
AcDbLine
 10
-30.0
 20
-225.000000000001
 11
-29.5
 21
-223.000000000001
  0
LINE
  5
695
100
AcDbEntity
  8
0
  6
CONTINUOUS
 62
     2
100
AcDbLine
 10
44.5
 20
-225.000000000001
 11
-31.0
 21
-225.000000000001
  0
MTEXT
  5
696
100
AcDbEntity
  8
0
  6
CONTINUOUS
 62
     2
100
AcDbMText
 10
-30.5
 20
-204.687500000001
 40
3.5
 41
0.0
 11
6.12323399573677E-017
 21
1.0
 71
     7
 72
     5
  7
STANDARD
  1
{\T1.60714;\W0.666667;45}
 73
     1
 44
1.0
  0
POINT
  5
697
100
AcDbEntity
  8
DEFPOINTS
  6
BYBLOCK
 62
     0
100
AcDbPoint
 10
-15.0
 20
-180.000000000001
  0
POINT
  5
698
100
AcDbEntity
  8
DEFPOINTS
  6
BYBLOCK
 62
     0
100
AcDbPoint
 10
45.0
 20
-225.000000000001
  0
POINT
  5
699
100
AcDbEntity
  8
DEFPOINTS
  6
BYBLOCK
 62
     0
100
AcDbPoint
 10
-30.0
 20
-225.000000000001
  0
ENDBLK
  5
69A
100
AcDbEntity
  8
4
100
AcDbBlockEnd
  0
BLOCK
  5
69D
100
AcDbEntity
  8
0
100
AcDbBlockBegin
  2
*D11
 70
    65
 10
0.0
 20
0.0
  0
LINE
  5
69E
100
AcDbEntity
  8
0
  6
CONTINUOUS
 62
     2
100
AcDbLine
 10
37.06
 20
-243.972235575763
 11
45.0
 21
-243.972235575763
  0
LINE
  5
69F
100
AcDbEntity
  8
0
  6
CONTINUOUS
 62
     2
100
AcDbLine
 10
39.06
 20
-243.472235575763
 11
37.06
 21
-243.972235575763
  0
LINE
  5
6A0
100
AcDbEntity
  8
0
  6
CONTINUOUS
 62
     2
100
AcDbLine
 10
37.06
 20
-243.972235575763
 11
39.06
 21
-244.472235575763
  0
LINE
  5
6A1
100
AcDbEntity
  8
0
  6
CONTINUOUS
 62
     2
100
AcDbLine
 10
52.94
 20
-243.972235575763
 11
45.0
 21
-243.972235575763
  0
LINE
  5
6A2
100
AcDbEntity
  8
0
  6
CONTINUOUS
 62
     2
100
AcDbLine
 10
50.94
 20
-244.472235575763
 11
52.94
 21
-243.972235575763
  0
LINE
  5
6A3
100
AcDbEntity
  8
0
  6
CONTINUOUS
 62
     2
100
AcDbLine
 10
52.94
 20
-243.972235575763
 11
50.94
 21
-243.472235575763
  0
LINE
  5
6A4
100
AcDbEntity
  8
0
  6
CONTINUOUS
 62
     2
100
AcDbLine
 10
37.06
 20
-186.413239382945
 11
37.06
 21
-244.972235575763
  0
LINE
  5
6A5
100
AcDbEntity
  8
0
  6
CONTINUOUS
 62
     2
100
AcDbLine
 10
52.94
 20
-186.413239382945
 11
52.94
 21
-244.972235575763
  0
MTEXT
  5
6A6
100
AcDbEntity
  8
0
  6
CONTINUOUS
 62
     2
100
AcDbMText
 10
37.5625
 20
-243.472235575763
 40
3.5
 41
0.0
 11
1.0
 21
0.0
 71
     7
 72
     5
  7
STANDARD
  1
{\T1.60714;\W0.666667;□15.88}
 73
     1
 44
1.0
  0
POINT
  5
6A7
100
AcDbEntity
  8
DEFPOINTS
  6
BYBLOCK
 62
     0
100
AcDbPoint
 10
37.06
 20
-185.913239382945
  0
POINT
  5
6A8
100
AcDbEntity
  8
DEFPOINTS
  6
BYBLOCK
 62
     0
100
AcDbPoint
 10
52.94
 20
-185.913239382945
  0
POINT
  5
6A9
100
AcDbEntity
  8
DEFPOINTS
  6
BYBLOCK
 62
     0
100
AcDbPoint
 10
52.94
 20
-243.972235575763
  0
ENDBLK
  5
6AA
100
AcDbEntity
  8
4
100
AcDbBlockEnd
  0
BLOCK
  5
6AD
100
AcDbEntity
  8
0
100
AcDbBlockBegin
  2
*D12
 70
    65
 10
0.0
 20
0.0
  0
LINE
  5
6AE
100
AcDbEntity
  8
0
  6
CONTINUOUS
 62
     2
100
AcDbLine
 10
67.2111396446187
 20
-210.832860322833
 11
76.3970715623455
 21
-223.584504780794
  0
LINE
  5
6AF
100
AcDbEntity
  8
0
  6
CONTINUOUS
 62
     2
100
AcDbLine
 10
76.3970715623455
 20
-223.584504780794
 11
84.3970715623455
 21
-223.584504780794
  0
LINE
  5
6B0
100
AcDbEntity
  8
0
  6
CONTINUOUS
 62
     2
100
AcDbLine
 10
67.2111396446187
 20
-210.832860322833
 11
45.0
 21
-180.000000000001
  0
LINE
  5
6B1
100
AcDbEntity
  8
0
  6
CONTINUOUS
 62
     2
100
AcDbLine
 10
65.6364367643384
 20
-209.502330038008
 11
67.2111396446187
 21
-210.832860322833
  0
LINE
  5
6B2
100
AcDbEntity
  8
0
  6
CONTINUOUS
 62
     2
100
AcDbLine
 10
67.2111396446187
 20
-210.832860322833
 11
66.4478278254655
 21
-208.917826363149
  0
LINE
  5
6B3
100
AcDbEntity
  8
0
  6
CONTINUOUS
 62
     2
100
AcDbLine
 10
22.7888603553814
 20
-149.167139677169
 11
45.0
 21
-180.000000000001
  0
LINE
  5
6B4
100
AcDbEntity
  8
0
  6
CONTINUOUS
 62
     2
100
AcDbLine
 10
24.3635632356617
 20
-150.497669961994
 11
22.7888603553814
 21
-149.167139677169
  0
LINE
  5
6B5
100
AcDbEntity
  8
0
  6
CONTINUOUS
 62
     2
100
AcDbLine
 10
22.7888603553814
 20
-149.167139677169
 11
23.5521721745346
 21
-151.082173636853
  0
MTEXT
  5
6B6
100
AcDbEntity
  8
0
  6
CONTINUOUS
 62
     2
100
AcDbMText
 10
76.8970715623455
 20
-223.084504780794
 40
3.5
 41
0.0
 11
1.0
 21
0.0
 71
     7
 72
     5
  7
STANDARD
  1
{\T1.60714;\W0.666667;%%c76}
 73
     1
 44
1.0
  0
POINT
  5
6B7
100
AcDbEntity
  8
DEFPOINTS
  6
BYBLOCK
 62
     0
100
AcDbPoint
 10
22.7888603553814
 20
-149.167139677169
  0
POINT
  5
6B8
100
AcDbEntity
  8
DEFPOINTS
  6
BYBLOCK
 62
     0
100
AcDbPoint
 10
67.2111396446187
 20
-210.832860322833
  0
ENDBLK
  5
6B9
100
AcDbEntity
  8
4
100
AcDbBlockEnd
  0
BLOCK
  5
6BC
100
AcDbEntity
  8
0
100
AcDbBlockBegin
  2
*D13
 70
    65
 10
0.0
 20
0.0
  0
LINE
  5
6BD
100
AcDbEntity
  8
0
  6
CONTINUOUS
 62
     2
100
AcDbLine
 10
10.7715191294211
 20
-209.213200736867
 11
7.50390804527601
 21
-212.00202969168
  0
LINE
  5
6BE
100
AcDbEntity
  8
0
  6
CONTINUOUS
 62
     2
100
AcDbLine
 10
7.50390804527601
 20
-212.00202969168
 11
-0.496091954723987
 21
-212.00202969168
  0
LINE
  5
6BF
100
AcDbEntity
  8
0
  6
CONTINUOUS
 62
     2
100
AcDbLine
 10
10.7715191294211
 20
-209.213200736867
 11
45.0
 21
-180.000000000001
  0
LINE
  5
6C0
100
AcDbEntity
  8
0
  6
CONTINUOUS
 62
     2
100
AcDbLine
 10
11.9681938265928
 20
-207.534519805555
 11
10.7715191294211
 21
-209.213200736867
  0
LINE
  5
6C1
100
AcDbEntity
  8
0
  6
CONTINUOUS
 62
     2
100
AcDbLine
 10
10.7715191294211
 20
-209.213200736867
 11
12.6173760651898
 21
-208.29515271379
  0
LINE
  5
6C2
100
AcDbEntity
  8
0
  6
CONTINUOUS
 62
     2
100
AcDbLine
 10
79.2284808705789
 20
-150.786799263135
 11
45.0
 21
-180.000000000001
  0
LINE
  5
6C3
100
AcDbEntity
  8
0
  6
CONTINUOUS
 62
     2
100
AcDbLine
 10
78.0318061734073
 20
-152.465480194447
 11
79.2284808705789
 21
-150.786799263135
  0
LINE
  5
6C4
100
AcDbEntity
  8
0
  6
CONTINUOUS
 62
     2
100
AcDbLine
 10
79.2284808705789
 20
-150.786799263135
 11
77.3826239348103
 21
-151.704847286212
  0
MTEXT
  5
6C5
100
AcDbEntity
  8
0
  6
CONTINUOUS
 62
     2
100
AcDbMText
 10
0.00390804527601318
 20
-211.50202969168
 40
3.5
 41
0.0
 11
1.0
 21
0.0
 71
     7
 72
     5
  7
STANDARD
  1
{\T1.60714;\W0.666667;%%c90}
 73
     1
 44
1.0
  0
POINT
  5
6C6
100
AcDbEntity
  8
DEFPOINTS
  6
BYBLOCK
 62
     0
100
AcDbPoint
 10
79.2284808705789
 20
-150.786799263135
  0
POINT
  5
6C7
100
AcDbEntity
  8
DEFPOINTS
  6
BYBLOCK
 62
     0
100
AcDbPoint
 10
10.7715191294211
 20
-209.213200736867
  0
ENDBLK
  5
6C8
100
AcDbEntity
  8
4
100
AcDbBlockEnd
  0
BLOCK
  5
6CB
100
AcDbEntity
  8
0
100
AcDbBlockBegin
  2
*D14
 70
    65
 10
0.0
 20
0.0
  0
ARC
  5
6CC
100
AcDbEntity
  8
0
  6
CONTINUOUS
 62
     2
100
AcDbCircle
 10
45.0
 20
-180.000000000001
 40
55.621325964944
100
AcDbArc
 50
0.0
 51
15.0
  0
LINE
  5
6CD
100
AcDbEntity
  8
0
  6
CONTINUOUS
 62
     2
100
AcDbLine
 10
100.121325964944
 20
-178.000000000001
 11
100.621325964944
 21
-180.000000000001
  0
LINE
  5
6CE
100
AcDbEntity
  8
0
  6
CONTINUOUS
 62
     2
100
AcDbLine
 10
100.621325964944
 20
-180.000000000001
 11
101.121325964944
 21
-178.000000000001
  0
ARC
  5
6CF
100
AcDbEntity
  8
0
  6
CONTINUOUS
 62
     2
100
AcDbCircle
 10
45.0
 20
-180.000000000001
 40
55.621325964944
100
AcDbArc
 50
15.0
 51
30.0
  0
LINE
  5
6D0
100
AcDbEntity
  8
0
  6
CONTINUOUS
 62
     2
100
AcDbLine
 10
94.6024939797088
 20
-153.671387825098
 11
93.1694812778165
 21
-152.189337017529
  0
LINE
  5
6D1
100
AcDbEntity
  8
0
  6
CONTINUOUS
 62
     2
100
AcDbLine
 10
93.1694812778165
 20
-152.189337017529
 11
93.7364685759243
 21
-154.171387825098
  0
LINE
  5
6D2
100
AcDbEntity
  8
0
  6
CONTINUOUS
 62
     2
100
AcDbLine
 10
87.0022320835452
 20
-155.750000000001
 11
94.035506681601
 21
-151.689337017529
  0
MTEXT
  5
6D3
100
AcDbEntity
  8
0
  6
CONTINUOUS
 62
     2
100
AcDbMText
 10
98.3031714972679
 20
-162.093991611855
 40
3.5
 41
0.0
 11
0.25881904510252
 21
-0.965925826289068
 71
     7
 72
     5
  7
STANDARD
  1
{\T1.60714;\W0.666667;30%%d}
 73
     1
 44
1.0
  0
POINT
  5
6D4
100
AcDbEntity
  8
DEFPOINTS
  6
BYBLOCK
 62
     0
100
AcDbPoint
 10
100.425625842186
 20
-180.000000000001
  0
POINT
  5
6D5
100
AcDbEntity
  8
DEFPOINTS
  6
BYBLOCK
 62
     0
100
AcDbPoint
 10
86.569219381653
 20
-156.000000000001
  0
POINT
  5
6D6
100
AcDbEntity
  8
DEFPOINTS
  6
BYBLOCK
 62
     0
100
AcDbPoint
 10
45.0
 20
-180.000000000001
  0
ENDBLK
  5
6D7
100
AcDbEntity
  8
4
100
AcDbBlockEnd
  0
BLOCK
  5
6DA
100
AcDbEntity
  8
0
100
AcDbBlockBegin
  2
*D15
 70
    65
 10
0.0
 20
0.0
  0
ARC
  5
6DB
100
AcDbEntity
  8
0
  6
CONTINUOUS
 62
     2
100
AcDbCircle
 10
45.0
 20
-180.000000000001
 40
60.0
100
AcDbArc
 50
150.0
 51
165.0
  0
LINE
  5
6DC
100
AcDbEntity
  8
0
  6
CONTINUOUS
 62
     2
100
AcDbLine
 10
-7.52851152517405
 20
-151.98205080757
 11
-6.96152422706627
 21
-150.000000000001
  0
LINE
  5
6DD
100
AcDbEntity
  8
0
  6
CONTINUOUS
 62
     2
100
AcDbLine
 10
-6.96152422706627
 20
-150.000000000001
 11
-8.39453692895849
 21
-151.48205080757
  0
ARC
  5
6DE
100
AcDbEntity
  8
0
  6
CONTINUOUS
 62
     2
100
AcDbCircle
 10
45.0
 20
-180.000000000001
 40
60.0
100
AcDbArc
 50
165.0
 51
180.0
  0
LINE
  5
6DF
100
AcDbEntity
  8
0
  6
CONTINUOUS
 62
     2
100
AcDbLine
 10
-15.5
 20
-178.000000000001
 11
-15.0
 21
-180.000000000001
  0
LINE
  5
6E0
100
AcDbEntity
  8
0
  6
CONTINUOUS
 62
     2
100
AcDbLine
 10
-15.0
 20
-180.000000000001
 11
-14.5
 21
-178.000000000001
  0
LINE
  5
6E1
100
AcDbEntity
  8
0
  6
CONTINUOUS
 62
     2
100
AcDbLine
 10
2.99776791645482
 20
-155.750000000001
 11
-7.82754963085071
 21
-149.500000000001
  0
MTEXT
  5
6E2
100
AcDbEntity
  8
0
  6
CONTINUOUS
 62
     2
100
AcDbMText
 10
-14.3443791483474
 20
-167.72218816331
 40
3.5
 41
0.0
 11
0.258819045102521
 21
0.965925826289068
 71
     7
 72
     5
  7
STANDARD
  1
{\T1.60714;\W0.666667;30%%d}
 73
     1
 44
1.0
  0
POINT
  5
6E3
100
AcDbEntity
  8
DEFPOINTS
  6
BYBLOCK
 62
     0
100
AcDbPoint
 10
3.43078061834704
 20
-156.000000000001
  0
POINT
  5
6E4
100
AcDbEntity
  8
DEFPOINTS
  6
BYBLOCK
 62
     0
100
AcDbPoint
 10
-15.0
 20
-180.000000000001
  0
POINT
  5
6E5
100
AcDbEntity
  8
DEFPOINTS
  6
BYBLOCK
 62
     0
100
AcDbPoint
 10
45.0
 20
-180.000000000001
  0
ENDBLK
  5
6E6
100
AcDbEntity
  8
4
100
AcDbBlockEnd
  0
BLOCK
  5
6F0
100
AcDbEntity
  8
0
100
AcDbBlockBegin
  2
*D16
 70
    65
 10
0.0
 20
0.0
  0
LINE
  5
6F1
100
AcDbEntity
  8
0
  6
CONTINUOUS
 62
     2
100
AcDbLine
 10
116.880242150789
 20
-180.000000000001
 11
116.880242150789
 21
-165.000000000001
  0
LINE
  5
6F2
100
AcDbEntity
  8
0
  6
CONTINUOUS
 62
     2
100
AcDbLine
 10
116.380242150789
 20
-178.000000000001
 11
116.880242150789
 21
-180.000000000001
  0
LINE
  5
6F3
100
AcDbEntity
  8
0
  6
CONTINUOUS
 62
     2
100
AcDbLine
 10
116.880242150789
 20
-180.000000000001
 11
117.380242150789
 21
-178.000000000001
  0
LINE
  5
6F4
100
AcDbEntity
  8
0
  6
CONTINUOUS
 62
     2
100
AcDbLine
 10
116.880242150789
 20
-150.0
 11
116.880242150789
 21
-165.000000000001
  0
LINE
  5
6F5
100
AcDbEntity
  8
0
  6
CONTINUOUS
 62
     2
100
AcDbLine
 10
117.380242150789
 20
-152.0
 11
116.880242150789
 21
-150.0
  0
LINE
  5
6F6
100
AcDbEntity
  8
0
  6
CONTINUOUS
 62
     2
100
AcDbLine
 10
116.880242150789
 20
-150.0
 11
116.380242150789
 21
-152.0
  0
LINE
  5
6F7
100
AcDbEntity
  8
0
  6
CONTINUOUS
 62
     2
100
AcDbLine
 10
100.925625842186
 20
-180.000000000001
 11
117.880242150789
 21
-180.000000000001
  0
LINE
  5
6F8
100
AcDbEntity
  8
0
  6
CONTINUOUS
 62
     2
100
AcDbLine
 10
78.0
 20
-150.0
 11
117.880242150789
 21
-150.0
  0
MTEXT
  5
6F9
100
AcDbEntity
  8
0
  6
CONTINUOUS
 62
     2
100
AcDbMText
 10
116.380242150789
 20
-167.187500000001
 40
3.5
 41
0.0
 11
6.12323399573677E-017
 21
1.0
 71
     7
 72
     5
  7
STANDARD
  1
{\T1.60714;\W0.666667;30}
 73
     1
 44
1.0
  0
POINT
  5
6FA
100
AcDbEntity
  8
DEFPOINTS
  6
BYBLOCK
 62
     0
100
AcDbPoint
 10
100.425625842186
 20
-180.000000000001
  0
POINT
  5
6FB
100
AcDbEntity
  8
DEFPOINTS
  6
BYBLOCK
 62
     0
100
AcDbPoint
 10
77.5
 20
-150.0
  0
POINT
  5
6FC
100
AcDbEntity
  8
DEFPOINTS
  6
BYBLOCK
 62
     0
100
AcDbPoint
 10
116.880242150789
 20
-150.0
  0
ENDBLK
  5
6FD
100
AcDbEntity
  8
4
100
AcDbBlockEnd
  0
BLOCK
  5
700
100
AcDbEntity
  8
0
100
AcDbBlockBegin
  2
*D17
 70
    65
 10
0.0
 20
0.0
  0
LINE
  5
701
100
AcDbEntity
  8
0
  6
CONTINUOUS
 62
     2
100
AcDbLine
 10
235.0
 20
92.0
 11
140.0
 21
92.0
  0
LINE
  5
702
100
AcDbEntity
  8
0
  6
CONTINUOUS
 62
     2
100
AcDbLine
 10
233.0
 20
91.5
 11
235.0
 21
92.0
  0
LINE
  5
703
100
AcDbEntity
  8
0
  6
CONTINUOUS
 62
     2
100
AcDbLine
 10
235.0
 20
92.0
 11
233.0
 21
92.5
  0
LINE
  5
704
100
AcDbEntity
  8
0
  6
CONTINUOUS
 62
     2
100
AcDbLine
 10
45.0
 20
92.0
 11
140.0
 21
92.0
  0
LINE
  5
705
100
AcDbEntity
  8
0
  6
CONTINUOUS
 62
     2
100
AcDbLine
 10
47.0
 20
92.5
 11
45.0
 21
92.0
  0
LINE
  5
706
100
AcDbEntity
  8
0
  6
CONTINUOUS
 62
     2
100
AcDbLine
 10
45.0
 20
92.0
 11
47.0
 21
91.5
  0
LINE
  5
707
100
AcDbEntity
  8
0
  6
CONTINUOUS
 62
     2
100
AcDbLine
 10
235.0
 20
44.499999999999
 11
235.0
 21
93.0
  0
LINE
  5
708
100
AcDbEntity
  8
0
  6
CONTINUOUS
 62
     2
100
AcDbLine
 10
45.0
 20
28.0
 11
45.0
 21
93.0
  0
MTEXT
  5
709
100
AcDbEntity
  8
0
  6
CONTINUOUS
 62
     2
100
AcDbMText
 10
136.5
 20
92.5
 40
3.5
 41
0.0
 11
1.0
 21
0.0
 71
     7
 72
     5
  7
STANDARD
  1
{\T1.60714;\W0.666667;190}
 73
     1
 44
1.0
  0
POINT
  5
70A
100
AcDbEntity
  8
DEFPOINTS
  6
BYBLOCK
 62
     0
100
AcDbPoint
 10
235.0
 20
43.999999999999
  0
POINT
  5
70B
100
AcDbEntity
  8
DEFPOINTS
  6
BYBLOCK
 62
     0
100
AcDbPoint
 10
45.0
 20
27.5
  0
POINT
  5
70C
100
AcDbEntity
  8
DEFPOINTS
  6
BYBLOCK
 62
     0
100
AcDbPoint
 10
45.0
 20
92.0
  0
ENDBLK
  5
70D
100
AcDbEntity
  8
4
100
AcDbBlockEnd
  0
BLOCK
  5
710
100
AcDbEntity
  8
0
100
AcDbBlockBegin
  2
*D18
 70
    65
 10
0.0
 20
0.0
  0
LINE
  5
711
100
AcDbEntity
  8
0
  6
CONTINUOUS
 62
     2
100
AcDbLine
 10
515.500000000001
 20
108.0
 11
257.750000000001
 21
108.0
  0
LINE
  5
712
100
AcDbEntity
  8
0
  6
CONTINUOUS
 62
     2
100
AcDbLine
 10
513.500000000001
 20
107.5
 11
515.500000000001
 21
108.0
  0
LINE
  5
713
100
AcDbEntity
  8
0
  6
CONTINUOUS
 62
     2
100
AcDbLine
 10
515.500000000001
 20
108.0
 11
513.500000000001
 21
108.5
  0
LINE
  5
714
100
AcDbEntity
  8
0
  6
CONTINUOUS
 62
     2
100
AcDbLine
 10
0.0
 20
108.0
 11
257.750000000001
 21
108.0
  0
LINE
  5
715
100
AcDbEntity
  8
0
  6
CONTINUOUS
 62
     2
100
AcDbLine
 10
2.0
 20
108.5
 11
0.0
 21
108.0
  0
LINE
  5
716
100
AcDbEntity
  8
0
  6
CONTINUOUS
 62
     2
100
AcDbLine
 10
0.0
 20
108.0
 11
2.0
 21
107.5
  0
LINE
  5
717
100
AcDbEntity
  8
0
  6
CONTINUOUS
 62
     2
100
AcDbLine
 10
515.500000000001
 20
46.7881124429805
 11
515.500000000001
 21
109.0
  0
LINE
  5
718
100
AcDbEntity
  8
0
  6
CONTINUOUS
 62
     2
100
AcDbLine
 10
0.0
 20
34.7463879634905
 11
0.0
 21
109.0
  0
MTEXT
  5
719
100
AcDbEntity
  8
0
  6
CONTINUOUS
 62
     2
100
AcDbMText
 10
252.062500000001
 20
108.5
 40
3.5
 41
0.0
 11
1.0
 21
0.0
 71
     7
 72
     5
  7
BIGFONT
  1
{\T1.4;\W0.657895;約５１６}
 73
     1
 44
1.0
  0
POINT
  5
71A
100
AcDbEntity
  8
DEFPOINTS
  6
BYBLOCK
 62
     0
100
AcDbPoint
 10
515.500000000001
 20
46.2881124429805
  0
POINT
  5
71B
100
AcDbEntity
  8
DEFPOINTS
  6
BYBLOCK
 62
     0
100
AcDbPoint
 10
0.0
 20
34.2463879634905
  0
POINT
  5
71C
100
AcDbEntity
  8
DEFPOINTS
  6
BYBLOCK
 62
     0
100
AcDbPoint
 10
0.0
 20
108.0
  0
ENDBLK
  5
71D
100
AcDbEntity
  8
4
100
AcDbBlockEnd
  0
BLOCK
  5
720
100
AcDbEntity
  8
0
100
AcDbBlockBegin
  2
*D19
 70
    65
 10
0.0
 20
0.0
  0
LINE
  5
721
100
AcDbEntity
  8
0
  6
CONTINUOUS
 62
     2
100
AcDbLine
 10
0.0
 20
92.0
 11
22.5
 21
92.0
  0
LINE
  5
722
100
AcDbEntity
  8
0
  6
CONTINUOUS
 62
     2
100
AcDbLine
 10
2.0
 20
92.5
 11
0.0
 21
92.0
  0
LINE
  5
723
100
AcDbEntity
  8
0
  6
CONTINUOUS
 62
     2
100
AcDbLine
 10
0.0
 20
92.0
 11
2.0
 21
91.5
  0
LINE
  5
724
100
AcDbEntity
  8
0
  6
CONTINUOUS
 62
     2
100
AcDbLine
 10
45.0
 20
92.0
 11
22.5
 21
92.0
  0
LINE
  5
725
100
AcDbEntity
  8
0
  6
CONTINUOUS
 62
     2
100
AcDbLine
 10
43.0
 20
91.5
 11
45.0
 21
92.0
  0
LINE
  5
726
100
AcDbEntity
  8
0
  6
CONTINUOUS
 62
     2
100
AcDbLine
 10
45.0
 20
92.0
 11
43.0
 21
92.5
  0
LINE
  5
727
100
AcDbEntity
  8
0
  6
CONTINUOUS
 62
     2
100
AcDbLine
 10
0.0
 20
8.43999999999997
 11
0.0
 21
93.0
  0
LINE
  5
728
100
AcDbEntity
  8
0
  6
CONTINUOUS
 62
     2
100
AcDbLine
 10
45.0
 20
42.115
 11
45.0
 21
93.0
  0
MTEXT
  5
729
100
AcDbEntity
  8
0
  6
CONTINUOUS
 62
     2
100
AcDbMText
 10
20.3125
 20
92.5
 40
3.5
 41
0.0
 11
1.0
 21
0.0
 71
     7
 72
     5
  7
STANDARD
  1
{\T1.60714;\W0.666667;45}
 73
     1
 44
1.0
  0
POINT
  5
72A
100
AcDbEntity
  8
DEFPOINTS
  6
BYBLOCK
 62
     0
100
AcDbPoint
 10
0.0
 20
7.93999999999997
  0
POINT
  5
72B
100
AcDbEntity
  8
DEFPOINTS
  6
BYBLOCK
 62
     0
100
AcDbPoint
 10
45.0
 20
41.615
  0
POINT
  5
72C
100
AcDbEntity
  8
DEFPOINTS
  6
BYBLOCK
 62
     0
100
AcDbPoint
 10
45.0
 20
92.0
  0
ENDBLK
  5
72D
100
AcDbEntity
  8
4
100
AcDbBlockEnd
  0
BLOCK
  5
752
100
AcDbEntity
  8
0
100
AcDbBlockBegin
  2
*D20
 70
    65
 10
0.0
 20
0.0
  0
LINE
  5
753
100
AcDbEntity
  8
0
  6
CONTINUOUS
 62
     2
100
AcDbLine
 10
36.0
 20
76.0
 11
40.5
 21
76.0
  0
LINE
  5
754
100
AcDbEntity
  8
0
  6
CONTINUOUS
 62
     2
100
AcDbLine
 10
38.0
 20
76.5
 11
36.0
 21
76.0
  0
LINE
  5
755
100
AcDbEntity
  8
0
  6
CONTINUOUS
 62
     2
100
AcDbLine
 10
36.0
 20
76.0
 11
38.0
 21
75.5
  0
LINE
  5
756
100
AcDbEntity
  8
0
  6
CONTINUOUS
 62
     2
100
AcDbLine
 10
45.0
 20
76.0
 11
40.5
 21
76.0
  0
LINE
  5
757
100
AcDbEntity
  8
0
  6
CONTINUOUS
 62
     2
100
AcDbLine
 10
43.0
 20
75.5
 11
45.0
 21
76.0
  0
LINE
  5
758
100
AcDbEntity
  8
0
  6
CONTINUOUS
 62
     2
100
AcDbLine
 10
45.0
 20
76.0
 11
43.0
 21
76.5
  0
LINE
  5
759
100
AcDbEntity
  8
0
  6
CONTINUOUS
 62
     2
100
AcDbLine
 10
36.0
 20
24.0
 11
36.0
 21
77.0
  0
LINE
  5
75A
100
AcDbEntity
  8
0
  6
CONTINUOUS
 62
     2
100
AcDbLine
 10
45.0
 20
33.0
 11
45.0
 21
77.0
  0
MTEXT
  5
75B
100
AcDbEntity
  8
0
  6
CONTINUOUS
 62
     2
100
AcDbMText
 10
39.625
 20
76.5
 40
3.5
 41
0.0
 11
1.0
 21
0.0
 71
     7
 72
     5
  7
STANDARD
  1
{\T1.60714;\W0.666667;9}
 73
     1
 44
1.0
  0
POINT
  5
75C
100
AcDbEntity
  8
DEFPOINTS
  6
BYBLOCK
 62
     0
100
AcDbPoint
 10
36.0
 20
23.5
  0
POINT
  5
75D
100
AcDbEntity
  8
DEFPOINTS
  6
BYBLOCK
 62
     0
100
AcDbPoint
 10
45.0
 20
32.5
  0
POINT
  5
75E
100
AcDbEntity
  8
DEFPOINTS
  6
BYBLOCK
 62
     0
100
AcDbPoint
 10
45.0
 20
76.0
  0
ENDBLK
  5
75F
100
AcDbEntity
  8
4
100
AcDbBlockEnd
  0
BLOCK
  5
52F
100
AcDbEntity
  8
0
100
AcDbBlockBegin
  2
M6_0001
 70
    64
 10
0.0
 20
0.0
  0
CIRCLE
  5
530
100
AcDbEntity
  8
2
  6
CONTINUOUS
 62
     0
100
AcDbCircle
 10
0.0
 20
0.0
 40
2.6
  0
CIRCLE
  5
531
100
AcDbEntity
  8
8
  6
CONTINUOUS
 62
     7
100
AcDbCircle
 10
0.0
 20
0.0
 40
3.0
  0
ENDBLK
  5
532
100
AcDbEntity
  8
8
100
AcDbBlockEnd
  0
BLOCK
  5
26
100
AcDbEntity
  8
0
100
AcDbBlockBegin
  2
SUB1
 70
    64
 10
0.0
 20
0.0
  0
LINE
  5
27
100
AcDbEntity
  8
2
  6
CONTINUOUS
 62
     0
100
AcDbLine
 10
535.100000000001
 20
73.0
 11
535.100000000001
 21
96.0
  0
LINE
  5
29
100
AcDbEntity
  8
2
  6
CONTINUOUS
 62
     0
100
AcDbLine
 10
544.100000000001
 20
78.0
 11
536.100000000001
 21
78.0
  0
ARC
  5
2A
100
AcDbEntity
  8
2
  6
CONTINUOUS
 62
     0
100
AcDbCircle
 10
536.100000000001
 20
77.0
 40
1.0
100
AcDbArc
 50
90.0
 51
180.0
  0
LINE
  5
2B
100
AcDbEntity
  8
2
  6
CONTINUOUS
 62
     0
100
AcDbLine
 10
536.100000000001
 20
76.0
 11
544.100000000001
 21
76.0
  0
POINT
  5
2C
100
AcDbEntity
  8
2
  6
CONTINUOUS
 62
     0
100
AcDbPoint
 10
535.100000000001
 20
77.0
  0
ARC
  5
2D
100
AcDbEntity
  8
2
  6
CONTINUOUS
 62
     0
100
AcDbCircle
 10
536.100000000001
 20
77.0
 40
1.0
100
AcDbArc
 50
180.0
 51
270.0
  0
LINE
  5
2E
100
AcDbEntity
  8
2
  6
CONTINUOUS
 62
     0
100
AcDbLine
 10
544.100000000001
 20
91.0
 11
536.100000000001
 21
91.0
  0
ARC
  5
2F
100
AcDbEntity
  8
2
  6
CONTINUOUS
 62
     0
100
AcDbCircle
 10
536.100000000001
 20
92.0
 40
1.0
100
AcDbArc
 50
180.0
 51
270.0
  0
LINE
  5
30
100
AcDbEntity
  8
2
  6
CONTINUOUS
 62
     0
100
AcDbLine
 10
536.100000000001
 20
93.0
 11
544.100000000001
 21
93.0
  0
ARC
  5
31
100
AcDbEntity
  8
2
  6
CONTINUOUS
 62
     0
100
AcDbCircle
 10
536.100000000001
 20
92.0
 40
1.0
100
AcDbArc
 50
90.0
 51
180.0
  0
ARC
  5
32
100
AcDbEntity
  8
2
  6
CONTINUOUS
 62
     0
100
AcDbCircle
 10
537.100000000001
 20
96.0
 40
1.99999999999994
100
AcDbArc
 50
90.0
 51
180.0
  0
LINE
  5
33
100
AcDbEntity
  8
2
  6
CONTINUOUS
 62
     0
100
AcDbLine
 10
544.600000000001
 20
98.0
 11
537.100000000001
 21
98.0
  0
LINE
  5
34
100
AcDbEntity
  8
2
  6
CONTINUOUS
 62
     0
100
AcDbLine
 10
532.600000000001
 20
96.0
 11
535.100000000001
 21
96.0
  0
LINE
  5
35
100
AcDbEntity
  8
2
  6
CONTINUOUS
 62
     0
100
AcDbLine
 10
532.600000000001
 20
73.0
 11
535.100000000001
 21
73.0
  0
ARC
  5
36
100
AcDbEntity
  8
2
  6
CONTINUOUS
 62
     0
100
AcDbCircle
 10
537.100000000001
 20
73.0
 40
1.99999999999994
100
AcDbArc
 50
180.0
 51
270.0
  0
LINE
  5
37
100
AcDbEntity
  8
2
  6
CONTINUOUS
 62
     0
100
AcDbLine
 10
544.600000000001
 20
71.0
 11
537.100000000001
 21
71.0
  0
LINE
  5
38
100
AcDbEntity
  8
7
  6
CENTER2
 62
    40
100
AcDbLine
 10
481.700000000001
 20
84.5
 11
583.600000000001
 21
84.5
  0
LINE
  5
3A
100
AcDbEntity
  8
7
  6
CENTER2
 62
    40
100
AcDbLine
 10
432.5
 20
39.999999999999
 11
432.5
 21
44.2
  0
LINE
  5
3B
100
AcDbEntity
  8
2
  6
CONTINUOUS
 62
     0
100
AcDbLine
 10
404.000000000001
 20
43.999999999999
 11
396.000000000001
 21
43.999999999999
  0
LINE
  5
3C
100
AcDbEntity
  8
2
  6
CONTINUOUS
 62
     0
100
AcDbLine
 10
228.0
 20
30.999999999999
 11
395.000000000001
 21
30.999999999999
  0
ARC
  5
3D
100
AcDbEntity
  8
2
  6
CONTINUOUS
 62
     0
100
AcDbCircle
 10
395.000000000001
 20
31.999999999999
 40
1.0
100
AcDbArc
 50
270.0
 51
0.0
  0
LINE
  5
3E
100
AcDbEntity
  8
2
  6
CONTINUOUS
 62
     0
100
AcDbLine
 10
396.000000000001
 20
32.499999999999
 11
396.000000000001
 21
43.999999999999
  0
LINE
  5
3F
100
AcDbEntity
  8
2
  6
CONTINUOUS
 62
     0
100
AcDbLine
 10
396.000000000001
 20
32.499999999999
 11
396.000000000001
 21
17.962999999999
  0
LINE
  5
40
100
AcDbEntity
  8
2
  6
CONTINUOUS
 62
     0
100
AcDbLine
 10
410.500000000001
 20
43.999999999999
 11
410.500000000001
 21
-1.02318153949454E-012
  0
LINE
  5
41
100
AcDbEntity
  8
2
  6
CONTINUOUS
 62
     0
100
AcDbLine
 10
410.500000000001
 20
43.999999999999
 11
404.000000000001
 21
43.999999999999
  0
LINE
  5
42
100
AcDbEntity
  8
2
  6
CONTINUOUS
 62
     0
100
AcDbLine
 10
404.000000000001
 20
43.999999999999
 11
404.000000000001
 21
-1.02318153949454E-012
  0
LINE
  5
43
100
AcDbEntity
  8
2
  6
CONTINUOUS
 62
     0
100
AcDbLine
 10
404.000000000001
 20
-44.000000000001
 11
396.000000000001
 21
-44.000000000001
  0
LINE
  5
44
100
AcDbEntity
  8
2
  6
CONTINUOUS
 62
     0
100
AcDbLine
 10
228.0
 20
-31.000000000001
 11
395.000000000001
 21
-31.000000000001
  0
ARC
  5
45
100
AcDbEntity
  8
2
  6
CONTINUOUS
 62
     0
100
AcDbCircle
 10
395.000000000001
 20
-32.000000000001
 40
1.0
100
AcDbArc
 50
0.0
 51
90.0
  0
LINE
  5
46
100
AcDbEntity
  8
2
  6
CONTINUOUS
 62
     0
100
AcDbLine
 10
396.000000000001
 20
-32.500000000001
 11
396.000000000001
 21
-44.000000000001
  0
LINE
  5
47
100
AcDbEntity
  8
2
  6
CONTINUOUS
 62
     0
100
AcDbLine
 10
396.000000000001
 20
-32.500000000001
 11
396.000000000001
 21
-17.963000000001
  0
LINE
  5
48
100
AcDbEntity
  8
2
  6
CONTINUOUS
 62
     0
100
AcDbLine
 10
410.500000000001
 20
-44.000000000001
 11
410.500000000001
 21
-1.02318153949454E-012
  0
LINE
  5
49
100
AcDbEntity
  8
2
  6
CONTINUOUS
 62
     0
100
AcDbLine
 10
410.500000000001
 20
-44.000000000001
 11
404.000000000001
 21
-44.000000000001
  0
LINE
  5
4A
100
AcDbEntity
  8
2
  6
CONTINUOUS
 62
     0
100
AcDbLine
 10
404.000000000001
 20
-44.000000000001
 11
404.000000000001
 21
-1.02318153949454E-012
  0
LINE
  5
4B
100
AcDbEntity
  8
2
  6
CONTINUOUS
 62
     0
100
AcDbLine
 10
410.500000000001
 20
30.999999999999
 11
410.500000000001
 21
-31.000000000001
  0
LINE
  5
4C
100
AcDbEntity
  8
2
  6
CONTINUOUS
 62
     0
100
AcDbLine
 10
470.500000000001
 20
31.999999999999
 11
420.500000000001
 21
31.999999999999
  0
LINE
  5
4D
100
AcDbEntity
  8
2
  6
CONTINUOUS
 62
     0
100
AcDbLine
 10
420.500000000001
 20
33.999999999999
 11
470.500000000001
 21
33.999999999999
  0
LINE
  5
4E
100
AcDbEntity
  8
2
  6
CONTINUOUS
 62
     0
100
AcDbLine
 10
440.700000000001
 20
33.999999999999
 11
440.700000000001
 21
37.999999999999
  0
LINE
  5
4F
100
AcDbEntity
  8
2
  6
CONTINUOUS
 62
     0
100
AcDbLine
 10
438.700000000001
 20
39.999999999999
 11
432.500000000001
 21
39.999999999999
  0
ARC
  5
50
100
AcDbEntity
  8
2
  6
CONTINUOUS
 62
     0
100
AcDbCircle
 10
438.700000000001
 20
37.999999999999
 40
1.99999999999994
100
AcDbArc
 50
0.0
 51
90.0
  0
LINE
  5
51
100
AcDbEntity
  8
2
  6
CONTINUOUS
 62
     0
100
AcDbLine
 10
463.800000000001
 20
42.999999999999
 11
455.500000000001
 21
42.999999999999
  0
LINE
  5
52
100
AcDbEntity
  8
2
  6
CONTINUOUS
 62
     0
100
AcDbLine
 10
466.800000000001
 20
33.999999999999
 11
466.800000000001
 21
39.999999999999
  0
ARC
  5
53
100
AcDbEntity
  8
2
  6
CONTINUOUS
 62
     0
100
AcDbCircle
 10
463.800000000001
 20
39.999999999999
 40
2.99999999999994
100
AcDbArc
 50
0.0
 51
90.0
  0
LINE
  5
54
100
AcDbEntity
  8
2
  6
CONTINUOUS
 62
     0
100
AcDbLine
 10
447.200000000001
 20
42.999999999999
 11
455.500000000001
 21
42.999999999999
  0
LINE
  5
55
100
AcDbEntity
  8
2
  6
CONTINUOUS
 62
     0
100
AcDbLine
 10
444.200000000001
 20
33.999999999999
 11
444.200000000001
 21
39.999999999999
  0
ARC
  5
56
100
AcDbEntity
  8
2
  6
CONTINUOUS
 62
     0
100
AcDbCircle
 10
447.200000000001
 20
39.999999999999
 40
2.99999999999994
100
AcDbArc
 50
90.0
 51
180.0
  0
LINE
  5
57
100
AcDbEntity
  8
2
  6
CONTINUOUS
 62
     0
100
AcDbLine
 10
424.300000000001
 20
33.999999999999
 11
424.300000000001
 21
37.999999999999
  0
LINE
  5
58
100
AcDbEntity
  8
2
  6
CONTINUOUS
 62
     0
100
AcDbLine
 10
426.300000000001
 20
39.999999999999
 11
432.500000000001
 21
39.999999999999
  0
ARC
  5
59
100
AcDbEntity
  8
2
  6
CONTINUOUS
 62
     0
100
AcDbCircle
 10
426.300000000001
 20
37.999999999999
 40
1.99999999999994
100
AcDbArc
 50
90.0
 51
180.0
  0
LINE
  5
5A
100
AcDbEntity
  8
2
  6
CONTINUOUS
 62
     0
100
AcDbLine
 10
410.500000000001
 20
30.999999999999
 11
420.500000000001
 21
30.999999999999
  0
LINE
  5
5B
100
AcDbEntity
  8
2
  6
CONTINUOUS
 62
     0
100
AcDbLine
 10
470.500000000001
 20
19.999999999999
 11
470.500000000001
 21
17.862999999999
  0
LINE
  5
5C
100
AcDbEntity
  8
2
  6
CONTINUOUS
 62
     0
100
AcDbLine
 10
470.500000000001
 20
19.999999999999
 11
470.500000000001
 21
24.499999999999
  0
LINE
  5
5D
100
AcDbEntity
  8
2
  6
CONTINUOUS
 62
     0
100
AcDbLine
 10
470.500000000001
 20
24.499999999999
 11
420.500000000001
 21
24.499999999999
  0
LINE
  5
5E
100
AcDbEntity
  8
2
  6
CONTINUOUS
 62
     0
100
AcDbLine
 10
436.800000000001
 20
44.699999999999
 11
436.800000000001
 21
39.999999999999
  0
LINE
  5
5F
100
AcDbEntity
  8
2
  6
CONTINUOUS
 62
     0
100
AcDbLine
 10
428.200000000001
 20
39.999999999999
 11
428.200000000001
 21
44.699999999999
  0
LINE
  5
60
100
AcDbEntity
  8
2
  6
CONTINUOUS
 62
     0
100
AcDbLine
 10
470.500000000001
 20
-29.000000000001
 11
470.500000000001
 21
17.862999999999
  0
LINE
  5
61
100
AcDbEntity
  8
2
  6
CONTINUOUS
 62
     0
100
AcDbLine
 10
410.500000000001
 20
-31.000000000001
 11
468.500000000001
 21
-31.000000000001
  0
ARC
  5
62
100
AcDbEntity
  8
2
  6
CONTINUOUS
 62
     0
100
AcDbCircle
 10
468.500000000001
 20
-29.000000000001
 40
2.0
100
AcDbArc
 50
270.0
 51
0.0
  0
LINE
  5
63
100
AcDbEntity
  8
2
  6
CONTINUOUS
 62
     0
100
AcDbLine
 10
394.500000000001
 20
33.499999999999
 11
394.500000000001
 21
43.499999999999
  0
LINE
  5
64
100
AcDbEntity
  8
2
  6
CONTINUOUS
 62
     0
100
AcDbLine
 10
388.900000000001
 20
43.499999999999
 11
396.000000000001
 21
43.499999999999
  0
LINE
  5
65
100
AcDbEntity
  8
2
  6
CONTINUOUS
 62
     0
100
AcDbLine
 10
388.900000000001
 20
33.499999999999
 11
396.000000000001
 21
33.499999999999
  0
LINE
  5
66
100
AcDbEntity
  8
2
  6
CONTINUOUS
 62
     0
100
AcDbLine
 10
388.500000000001
 20
34.192820323027
 11
388.500000000001
 21
42.807179676972
  0
LINE
  5
67
100
AcDbEntity
  8
2
  6
CONTINUOUS
 62
     0
100
AcDbLine
 10
388.900000000001
 20
33.499999999999
 11
388.900000000001
 21
43.499999999999
  0
LINE
  5
68
100
AcDbEntity
  8
2
  6
CONTINUOUS
 62
     0
100
AcDbLine
 10
388.900000000001
 20
33.499999999999
 11
388.500000000001
 21
34.192820323027
  0
LINE
  5
69
100
AcDbEntity
  8
2
  6
CONTINUOUS
 62
     0
100
AcDbLine
 10
388.900000000001
 20
43.499999999999
 11
388.500000000001
 21
42.807179676972
  0
LINE
  5
6A
100
AcDbEntity
  8
2
  6
CONTINUOUS
 62
     0
100
AcDbLine
 10
394.500000000001
 20
38.499999999999
 11
396.000000000001
 21
36.415529012679
  0
LINE
  5
6B
100
AcDbEntity
  8
2
  6
CONTINUOUS
 62
     0
100
AcDbLine
 10
396.000000000001
 20
38.499999999999
 11
394.500000000001
 21
40.560367822646
  0
LINE
  5
6C
100
AcDbEntity
  8
2
  6
CONTINUOUS
 62
     0
100
AcDbLine
 10
394.500000000001
 20
-42.500000000001
 11
394.500000000001
 21
-32.500000000001
  0
LINE
  5
6D
100
AcDbEntity
  8
2
  6
CONTINUOUS
 62
     0
100
AcDbLine
 10
388.900000000001
 20
-32.500000000001
 11
396.000000000001
 21
-32.500000000001
  0
LINE
  5
6E
100
AcDbEntity
  8
2
  6
CONTINUOUS
 62
     0
100
AcDbLine
 10
388.900000000001
 20
-42.500000000001
 11
396.000000000001
 21
-42.500000000001
  0
LINE
  5
6F
100
AcDbEntity
  8
2
  6
CONTINUOUS
 62
     0
100
AcDbLine
 10
388.500000000001
 20
-41.807179676973
 11
388.500000000001
 21
-33.192820323028
  0
LINE
  5
70
100
AcDbEntity
  8
2
  6
CONTINUOUS
 62
     0
100
AcDbLine
 10
388.900000000001
 20
-42.500000000001
 11
388.900000000001
 21
-32.500000000001
  0
LINE
  5
71
100
AcDbEntity
  8
2
  6
CONTINUOUS
 62
     0
100
AcDbLine
 10
388.900000000001
 20
-42.500000000001
 11
388.500000000001
 21
-41.807179676973
  0
LINE
  5
72
100
AcDbEntity
  8
2
  6
CONTINUOUS
 62
     0
100
AcDbLine
 10
388.900000000001
 20
-32.500000000001
 11
388.500000000001
 21
-33.192820323028
  0
LINE
  5
73
100
AcDbEntity
  8
2
  6
CONTINUOUS
 62
     0
100
AcDbLine
 10
394.500000000001
 20
-37.500000000001
 11
396.000000000001
 21
-39.584470987321
  0
LINE
  5
74
100
AcDbEntity
  8
2
  6
CONTINUOUS
 62
     0
100
AcDbLine
 10
396.000000000001
 20
-37.500000000001
 11
394.500000000001
 21
-35.439632177354
  0
ARC
  5
75
100
AcDbEntity
  8
2
  6
CONTINUOUS
 62
     0
100
AcDbCircle
 10
408.200000000001
 20
44.699999999999
 40
20.0
100
AcDbArc
 50
0.0
 51
90.0
  0
ARC
  5
76
100
AcDbEntity
  8
2
  6
CONTINUOUS
 62
     0
100
AcDbCircle
 10
408.200000000001
 20
44.699999999999
 40
28.6
100
AcDbArc
 50
0.0
 51
90.0
  0
ARC
  5
77
100
AcDbEntity
  8
7
  6
CENTER2
 62
    40
100
AcDbCircle
 10
408.200000000001
 20
44.699999999999
 40
24.3
100
AcDbArc
 50
0.0
 51
90.0
  0
ARC
  5
78
100
AcDbEntity
  8
2
  6
CONTINUOUS
 62
     0
100
AcDbCircle
 10
481.700000000001
 20
58.3
 40
20.0
100
AcDbArc
 50
90.0
 51
180.0
  0
ARC
  5
79
100
AcDbEntity
  8
2
  6
CONTINUOUS
 62
     0
100
AcDbCircle
 10
481.700000000001
 20
58.3
 40
32.4
100
AcDbArc
 50
90.0
 51
180.0
  0
LINE
  5
7A
100
AcDbEntity
  8
2
  6
CONTINUOUS
 62
     0
100
AcDbLine
 10
461.700000000001
 20
58.3
 11
461.700000000001
 21
42.999999999999
  0
LINE
  5
7B
100
AcDbEntity
  8
2
  6
CONTINUOUS
 62
     0
100
AcDbLine
 10
449.300000000001
 20
42.999999999999
 11
449.300000000001
 21
58.3
  0
LINE
  5
7C
100
AcDbEntity
  8
7
  6
CENTER2
 62
    40
100
AcDbLine
 10
432.5
 20
16.080260469154
 11
432.5
 21
44.699999999999
  0
LINE
  5
7D
100
AcDbEntity
  8
7
  6
CENTER2
 62
    40
100
AcDbLine
 10
455.500000000001
 20
18.117987278092
 11
455.500000000001
 21
59.098824419682
  0
ARC
  5
7E
100
AcDbEntity
  8
7
  6
CENTER2
 62
    40
100
AcDbCircle
 10
481.700000000001
 20
58.3
 40
26.2
100
AcDbArc
 50
90.0
 51
180.0
  0
LINE
  5
7F
100
AcDbEntity
  8
2
  6
CONTINUOUS
 62
     0
100
AcDbLine
 10
520.600000000001
 20
69.5
 11
520.600000000001
 21
68.5
  0
LINE
  5
80
100
AcDbEntity
  8
2
  6
CONTINUOUS
 62
     0
100
AcDbLine
 10
520.600000000001
 20
99.5
 11
520.600000000001
 21
100.5
  0
ARC
  5
81
100
AcDbEntity
  8
2
  6
CONTINUOUS
 62
     0
100
AcDbCircle
 10
514.100000000001
 20
74.0
 40
5.50000000000011
100
AcDbArc
 50
270.0
 51
0.0
  0
LINE
  5
82
100
AcDbEntity
  8
2
  6
CONTINUOUS
 62
     0
100
AcDbLine
 10
519.600000000001
 20
74.0
 11
519.600000000001
 21
95.0
  0
ARC
  5
83
100
AcDbEntity
  8
2
  6
CONTINUOUS
 62
     0
100
AcDbCircle
 10
514.100000000001
 20
95.0
 40
5.50000000000011
100
AcDbArc
 50
0.0
 51
90.0
  0
LINE
  5
84
100
AcDbEntity
  8
2
  6
CONTINUOUS
 62
     0
100
AcDbLine
 10
519.600000000001
 20
77.0
 11
508.600000000001
 21
77.0
  0
LINE
  5
85
100
AcDbEntity
  8
2
  6
CONTINUOUS
 62
     0
100
AcDbLine
 10
519.600000000001
 20
92.0
 11
508.600000000001
 21
92.0
  0
CIRCLE
  5
86
100
AcDbEntity
  8
2
  6
CONTINUOUS
 62
     0
100
AcDbCircle
 10
514.100000000001
 20
72.5
 40
1.5
  0
CIRCLE
  5
87
100
AcDbEntity
  8
2
  6
CONTINUOUS
 62
     0
100
AcDbCircle
 10
514.100000000001
 20
96.5
 40
3.0
  0
LINE
  5
88
100
AcDbEntity
  8
2
  6
CONTINUOUS
 62
     0
100
AcDbLine
 10
515.783000000001
 20
94.585
 11
513.283000000001
 21
98.915
  0
LINE
  5
89
100
AcDbEntity
  8
2
  6
CONTINUOUS
 62
     0
100
AcDbLine
 10
513.283000000001
 20
98.915
 11
512.417000000001
 21
98.415
  0
LINE
  5
8A
100
AcDbEntity
  8
2
  6
CONTINUOUS
 62
     0
100
AcDbLine
 10
512.417000000001
 20
98.415
 11
514.917000000001
 21
94.085
  0
LINE
  5
8B
100
AcDbEntity
  8
2
  6
CONTINUOUS
 62
     0
100
AcDbLine
 10
514.917000000001
 20
94.085
 11
515.783000000001
 21
94.585
  0
LINE
  5
8C
100
AcDbEntity
  8
2
  6
CONTINUOUS
 62
     0
100
AcDbLine
 10
521.100000000001
 20
75.5
 11
532.100000000001
 21
75.5
  0
LINE
  5
8D
100
AcDbEntity
  8
2
  6
CONTINUOUS
 62
     0
100
AcDbLine
 10
532.100000000001
 20
78.5
 11
521.100000000001
 21
78.5
  0
LINE
  5
8E
100
AcDbEntity
  8
2
  6
CONTINUOUS
 62
     0
100
AcDbLine
 10
532.100000000001
 20
75.5
 11
532.100000000001
 21
78.5
  0
LINE
  5
8F
100
AcDbEntity
  8
2
  6
CONTINUOUS
 62
     0
100
AcDbLine
 10
521.100000000001
 20
78.5
 11
521.100000000001
 21
75.5
  0
LINE
  5
90
100
AcDbEntity
  8
2
  6
CONTINUOUS
 62
     0
100
AcDbLine
 10
520.600000000001
 20
99.5
 11
520.600000000001
 21
69.5
  0
LINE
  5
91
100
AcDbEntity
  8
2
  6
CONTINUOUS
 62
     0
100
AcDbLine
 10
521.100000000001
 20
93.5
 11
532.100000000001
 21
93.5
  0
LINE
  5
92
100
AcDbEntity
  8
2
  6
CONTINUOUS
 62
     0
100
AcDbLine
 10
532.100000000001
 20
90.5
 11
521.100000000001
 21
90.5
  0
LINE
  5
93
100
AcDbEntity
  8
2
  6
CONTINUOUS
 62
     0
100
AcDbLine
 10
532.100000000001
 20
93.5
 11
532.100000000001
 21
90.5
  0
LINE
  5
94
100
AcDbEntity
  8
2
  6
CONTINUOUS
 62
     0
100
AcDbLine
 10
521.100000000001
 20
90.5
 11
521.100000000001
 21
93.5
  0
LINE
  5
95
100
AcDbEntity
  8
2
  6
CONTINUOUS
 62
     0
100
AcDbLine
 10
508.600000000001
 20
90.7
 11
481.700000000001
 21
90.7
  0
ARC
  5
96
100
AcDbEntity
  8
2
  6
CONTINUOUS
 62
     0
100
AcDbCircle
 10
514.100000000001
 20
74.0
 40
5.50000000000011
100
AcDbArc
 50
180.0
 51
270.0
  0
LINE
  5
97
100
AcDbEntity
  8
2
  6
CONTINUOUS
 62
     0
100
AcDbLine
 10
508.600000000001
 20
74.0
 11
508.600000000001
 21
95.0
  0
LINE
  5
98
100
AcDbEntity
  8
2
  6
CONTINUOUS
 62
     0
100
AcDbLine
 10
520.600000000001
 20
68.5
 11
514.100000000001
 21
68.5
  0
ARC
  5
99
100
AcDbEntity
  8
2
  6
CONTINUOUS
 62
     0
100
AcDbCircle
 10
514.100000000001
 20
95.0
 40
5.50000000000011
100
AcDbArc
 50
90.0
 51
180.0
  0
LINE
  5
9A
100
AcDbEntity
  8
2
  6
CONTINUOUS
 62
     0
100
AcDbLine
 10
520.600000000001
 20
100.5
 11
514.100000000001
 21
100.5
  0
LINE
  5
9B
100
AcDbEntity
  8
2
  6
CONTINUOUS
 62
     0
100
AcDbLine
 10
531.600000000001
 20
99.5
 11
520.600000000001
 21
99.5
  0
ARC
  5
9C
100
AcDbEntity
  8
2
  6
CONTINUOUS
 62
     0
100
AcDbCircle
 10
531.600000000001
 20
98.5
 40
1.0
100
AcDbArc
 50
0.0
 51
90.0
  0
LINE
  5
9D
100
AcDbEntity
  8
2
  6
CONTINUOUS
 62
     0
100
AcDbLine
 10
532.600000000001
 20
70.5
 11
532.600000000001
 21
98.5
  0
ARC
  5
9E
100
AcDbEntity
  8
2
  6
CONTINUOUS
 62
     0
100
AcDbCircle
 10
531.600000000001
 20
70.5
 40
1.0
100
AcDbArc
 50
270.0
 51
0.0
  0
LINE
  5
9F
100
AcDbEntity
  8
2
  6
CONTINUOUS
 62
     0
100
AcDbLine
 10
520.600000000001
 20
69.5
 11
531.600000000001
 21
69.5
  0
LINE
  5
A0
100
AcDbEntity
  8
2
  6
CONTINUOUS
 62
     0
100
AcDbLine
 10
481.700000000001
 20
78.3
 11
508.600000000001
 21
78.3
  0
LINE
  5
A1
100
AcDbEntity
  8
7
  6
CENTER2
 62
    40
100
AcDbLine
 10
371.500000000001
 20
68.999999999999
 11
408.200000000001
 21
68.999999999999
  0
LINE
  5
A2
100
AcDbEntity
  8
6
  6
CENTER
 62
     0
100
AcDbLine
 10
-55.0
 20
0.0
 11
480.500000000001
 21
0.0
  0
LINE
  5
A4
100
AcDbEntity
  8
2
  6
CONTINUOUS
 62
     0
100
AcDbLine
 10
556.600000000001
 20
101.5
 11
556.600000000001
 21
67.5
  0
LINE
  5
A5
100
AcDbEntity
  8
2
  6
CONTINUOUS
 62
     0
100
AcDbLine
 10
552.600000000001
 20
72.0
 11
551.600000000001
 21
72.0
  0
LINE
  5
A6
100
AcDbEntity
  8
2
  6
CONTINUOUS
 62
     0
100
AcDbLine
 10
552.600000000001
 20
97.0
 11
551.600000000001
 21
97.0
  0
LINE
  5
A7
100
AcDbEntity
  8
2
  6
CONTINUOUS
 62
     0
100
AcDbLine
 10
551.600000000001
 20
68.0
 11
551.600000000001
 21
101.0
  0
LINE
  5
A8
100
AcDbEntity
  8
2
  6
CONTINUOUS
 62
     0
100
AcDbLine
 10
566.600000000001
 20
68.0
 11
566.600000000001
 21
101.0
  0
LINE
  5
A9
100
AcDbEntity
  8
2
  6
CONTINUOUS
 62
     0
100
AcDbLine
 10
556.600000000001
 20
68.0
 11
566.600000000001
 21
68.0
  0
LINE
  5
AA
100
AcDbEntity
  8
2
  6
CONTINUOUS
 62
     0
100
AcDbLine
 10
566.600000000001
 20
69.5
 11
556.600000000001
 21
69.5
  0
LINE
  5
AB
100
AcDbEntity
  8
2
  6
CONTINUOUS
 62
     0
100
AcDbLine
 10
556.600000000001
 20
71.0
 11
566.600000000001
 21
71.0
  0
LINE
  5
AC
100
AcDbEntity
  8
2
  6
CONTINUOUS
 62
     0
100
AcDbLine
 10
566.600000000001
 20
72.5
 11
556.600000000001
 21
72.5
  0
LINE
  5
AD
100
AcDbEntity
  8
2
  6
CONTINUOUS
 62
     0
100
AcDbLine
 10
556.600000000001
 20
74.0
 11
566.600000000001
 21
74.0
  0
LINE
  5
AE
100
AcDbEntity
  8
2
  6
CONTINUOUS
 62
     0
100
AcDbLine
 10
566.600000000001
 20
75.5
 11
556.600000000001
 21
75.5
  0
LINE
  5
AF
100
AcDbEntity
  8
2
  6
CONTINUOUS
 62
     0
100
AcDbLine
 10
556.600000000001
 20
77.0
 11
566.600000000001
 21
77.0
  0
LINE
  5
B0
100
AcDbEntity
  8
2
  6
CONTINUOUS
 62
     0
100
AcDbLine
 10
566.600000000001
 20
78.5
 11
556.600000000001
 21
78.5
  0
LINE
  5
B1
100
AcDbEntity
  8
2
  6
CONTINUOUS
 62
     0
100
AcDbLine
 10
556.600000000001
 20
80.0
 11
566.600000000001
 21
80.0
  0
LINE
  5
B2
100
AcDbEntity
  8
2
  6
CONTINUOUS
 62
     0
100
AcDbLine
 10
566.600000000001
 20
81.5
 11
556.600000000001
 21
81.5
  0
LINE
  5
B3
100
AcDbEntity
  8
2
  6
CONTINUOUS
 62
     0
100
AcDbLine
 10
556.600000000001
 20
83.0
 11
566.600000000001
 21
83.0
  0
LINE
  5
B4
100
AcDbEntity
  8
2
  6
CONTINUOUS
 62
     0
100
AcDbLine
 10
566.600000000001
 20
84.5
 11
556.600000000001
 21
84.5
  0
LINE
  5
B5
100
AcDbEntity
  8
2
  6
CONTINUOUS
 62
     0
100
AcDbLine
 10
556.600000000001
 20
86.0
 11
566.600000000001
 21
86.0
  0
LINE
  5
B6
100
AcDbEntity
  8
2
  6
CONTINUOUS
 62
     0
100
AcDbLine
 10
566.600000000001
 20
87.5
 11
556.600000000001
 21
87.5
  0
LINE
  5
B7
100
AcDbEntity
  8
2
  6
CONTINUOUS
 62
     0
100
AcDbLine
 10
556.600000000001
 20
89.0
 11
566.600000000001
 21
89.0
  0
LINE
  5
B8
100
AcDbEntity
  8
2
  6
CONTINUOUS
 62
     0
100
AcDbLine
 10
566.600000000001
 20
90.5
 11
556.600000000001
 21
90.5
  0
LINE
  5
B9
100
AcDbEntity
  8
2
  6
CONTINUOUS
 62
     0
100
AcDbLine
 10
556.600000000001
 20
92.0
 11
566.600000000001
 21
92.0
  0
LINE
  5
BA
100
AcDbEntity
  8
2
  6
CONTINUOUS
 62
     0
100
AcDbLine
 10
566.600000000001
 20
93.5
 11
556.600000000001
 21
93.5
  0
LINE
  5
BB
100
AcDbEntity
  8
2
  6
CONTINUOUS
 62
     0
100
AcDbLine
 10
556.600000000001
 20
95.0
 11
566.600000000001
 21
95.0
  0
LINE
  5
BC
100
AcDbEntity
  8
2
  6
CONTINUOUS
 62
     0
100
AcDbLine
 10
566.600000000001
 20
96.5
 11
556.600000000001
 21
96.5
  0
LINE
  5
BD
100
AcDbEntity
  8
2
  6
CONTINUOUS
 62
     0
100
AcDbLine
 10
556.600000000001
 20
98.0
 11
566.600000000001
 21
98.0
  0
LINE
  5
BE
100
AcDbEntity
  8
2
  6
CONTINUOUS
 62
     0
100
AcDbLine
 10
566.600000000001
 20
99.5
 11
556.600000000001
 21
99.5
  0
LINE
  5
BF
100
AcDbEntity
  8
2
  6
CONTINUOUS
 62
     0
100
AcDbLine
 10
556.600000000001
 20
101.0
 11
566.600000000001
 21
101.0
  0
LINE
  5
C0
100
AcDbEntity
  8
2
  6
CONTINUOUS
 62
     0
100
AcDbLine
 10
544.600000000001
 20
69.5
 11
551.600000000001
 21
69.5
  0
LINE
  5
C1
100
AcDbEntity
  8
2
  6
CONTINUOUS
 62
     0
100
AcDbLine
 10
551.600000000001
 20
71.0
 11
544.600000000001
 21
71.0
  0
LINE
  5
C2
100
AcDbEntity
  8
2
  6
CONTINUOUS
 62
     0
100
AcDbLine
 10
544.600000000001
 20
72.5
 11
551.600000000001
 21
72.5
  0
LINE
  5
C3
100
AcDbEntity
  8
2
  6
CONTINUOUS
 62
     0
100
AcDbLine
 10
551.600000000001
 20
74.0
 11
544.600000000001
 21
74.0
  0
LINE
  5
C4
100
AcDbEntity
  8
2
  6
CONTINUOUS
 62
     0
100
AcDbLine
 10
544.600000000001
 20
75.5
 11
551.600000000001
 21
75.5
  0
LINE
  5
C5
100
AcDbEntity
  8
2
  6
CONTINUOUS
 62
     0
100
AcDbLine
 10
551.600000000001
 20
77.0
 11
544.600000000001
 21
77.0
  0
LINE
  5
C6
100
AcDbEntity
  8
2
  6
CONTINUOUS
 62
     0
100
AcDbLine
 10
544.600000000001
 20
78.5
 11
551.600000000001
 21
78.5
  0
LINE
  5
C7
100
AcDbEntity
  8
2
  6
CONTINUOUS
 62
     0
100
AcDbLine
 10
551.600000000001
 20
80.0
 11
544.600000000001
 21
80.0
  0
LINE
  5
C8
100
AcDbEntity
  8
2
  6
CONTINUOUS
 62
     0
100
AcDbLine
 10
544.600000000001
 20
81.5
 11
551.600000000001
 21
81.5
  0
LINE
  5
C9
100
AcDbEntity
  8
2
  6
CONTINUOUS
 62
     0
100
AcDbLine
 10
551.600000000001
 20
83.0
 11
544.600000000001
 21
83.0
  0
LINE
  5
CA
100
AcDbEntity
  8
2
  6
CONTINUOUS
 62
     0
100
AcDbLine
 10
544.600000000001
 20
84.5
 11
551.600000000001
 21
84.5
  0
LINE
  5
CB
100
AcDbEntity
  8
2
  6
CONTINUOUS
 62
     0
100
AcDbLine
 10
551.600000000001
 20
86.0
 11
544.600000000001
 21
86.0
  0
LINE
  5
CC
100
AcDbEntity
  8
2
  6
CONTINUOUS
 62
     0
100
AcDbLine
 10
544.600000000001
 20
87.5
 11
551.600000000001
 21
87.5
  0
LINE
  5
CD
100
AcDbEntity
  8
2
  6
CONTINUOUS
 62
     0
100
AcDbLine
 10
551.600000000001
 20
89.0
 11
544.600000000001
 21
89.0
  0
LINE
  5
CE
100
AcDbEntity
  8
2
  6
CONTINUOUS
 62
     0
100
AcDbLine
 10
544.600000000001
 20
90.5
 11
551.600000000001
 21
90.5
  0
LINE
  5
CF
100
AcDbEntity
  8
2
  6
CONTINUOUS
 62
     0
100
AcDbLine
 10
551.600000000001
 20
92.0
 11
544.600000000001
 21
92.0
  0
LINE
  5
D0
100
AcDbEntity
  8
2
  6
CONTINUOUS
 62
     0
100
AcDbLine
 10
544.600000000001
 20
93.5
 11
551.600000000001
 21
93.5
  0
LINE
  5
D1
100
AcDbEntity
  8
2
  6
CONTINUOUS
 62
     0
100
AcDbLine
 10
551.600000000001
 20
95.0
 11
544.600000000001
 21
95.0
  0
LINE
  5
D2
100
AcDbEntity
  8
2
  6
CONTINUOUS
 62
     0
100
AcDbLine
 10
544.600000000001
 20
96.5
 11
551.600000000001
 21
96.5
  0
LINE
  5
D3
100
AcDbEntity
  8
2
  6
CONTINUOUS
 62
     0
100
AcDbLine
 10
551.600000000001
 20
98.0
 11
544.600000000001
 21
98.0
  0
LINE
  5
D4
100
AcDbEntity
  8
2
  6
CONTINUOUS
 62
     0
100
AcDbLine
 10
544.600000000001
 20
99.5
 11
551.600000000001
 21
99.5
  0
LINE
  5
D5
100
AcDbEntity
  8
2
  6
CONTINUOUS
 62
     0
100
AcDbLine
 10
544.100000000001
 20
76.0
 11
544.100000000001
 21
78.0
  0
LINE
  5
D6
100
AcDbEntity
  8
2
  6
CONTINUOUS
 62
     0
100
AcDbLine
 10
544.100000000001
 20
93.0
 11
544.100000000001
 21
91.0
  0
LINE
  5
D7
100
AcDbEntity
  8
2
  6
CONTINUOUS
 62
     0
100
AcDbLine
 10
551.600000000001
 20
101.0
 11
545.100000000001
 21
101.0
  0
LINE
  5
D8
100
AcDbEntity
  8
2
  6
CONTINUOUS
 62
     0
100
AcDbLine
 10
544.600000000001
 20
68.5
 11
544.600000000001
 21
100.5
  0
ARC
  5
D9
100
AcDbEntity
  8
2
  6
CONTINUOUS
 62
     0
100
AcDbCircle
 10
545.100000000001
 20
100.5
 40
0.499999999999943
100
AcDbArc
 50
90.0
 51
180.0
  0
LINE
  5
DA
100
AcDbEntity
  8
2
  6
CONTINUOUS
 62
     0
100
AcDbLine
 10
556.600000000001
 20
101.5
 11
553.100000000001
 21
101.5
  0
ARC
  5
DB
100
AcDbEntity
  8
2
  6
CONTINUOUS
 62
     0
100
AcDbCircle
 10
553.100000000001
 20
101.0
 40
0.499999999999943
100
AcDbArc
 50
90.0
 51
180.0
  0
LINE
  5
DC
100
AcDbEntity
  8
2
  6
CONTINUOUS
 62
     0
100
AcDbLine
 10
570.100000000001
 20
100.5
 11
566.600000000001
 21
100.5
  0
ARC
  5
DD
100
AcDbEntity
  8
2
  6
CONTINUOUS
 62
     0
100
AcDbCircle
 10
570.100000000001
 20
100.0
 40
0.499999999999943
100
AcDbArc
 50
0.0
 51
90.0
  0
LINE
  5
DE
100
AcDbEntity
  8
2
  6
CONTINUOUS
 62
     0
100
AcDbLine
 10
573.600000000001
 20
96.5
 11
570.600000000001
 21
96.5
  0
LINE
  5
DF
100
AcDbEntity
  8
2
  6
CONTINUOUS
 62
     0
100
AcDbLine
 10
551.600000000001
 20
68.0
 11
545.100000000001
 21
68.0
  0
ARC
  5
E0
100
AcDbEntity
  8
2
  6
CONTINUOUS
 62
     0
100
AcDbCircle
 10
545.100000000001
 20
68.5
 40
0.499999999999943
100
AcDbArc
 50
180.0
 51
270.0
  0
LINE
  5
E1
100
AcDbEntity
  8
2
  6
CONTINUOUS
 62
     0
100
AcDbLine
 10
553.100000000001
 20
67.5
 11
556.600000000001
 21
67.5
  0
ARC
  5
E2
100
AcDbEntity
  8
2
  6
CONTINUOUS
 62
     0
100
AcDbCircle
 10
553.100000000001
 20
68.0
 40
0.499999999999943
100
AcDbArc
 50
180.0
 51
270.0
  0
LINE
  5
E3
100
AcDbEntity
  8
2
  6
CONTINUOUS
 62
     0
100
AcDbLine
 10
552.600000000001
 20
101.0
 11
552.600000000001
 21
68.0
  0
LINE
  5
E4
100
AcDbEntity
  8
2
  6
CONTINUOUS
 62
     0
100
AcDbLine
 10
556.600000000001
 20
67.5
 11
566.100000000001
 21
67.5
  0
ARC
  5
E5
100
AcDbEntity
  8
2
  6
CONTINUOUS
 62
     0
100
AcDbCircle
 10
566.100000000001
 20
68.0
 40
0.499999999999943
100
AcDbArc
 50
270.0
 51
0.0
  0
ARC
  5
E6
100
AcDbEntity
  8
2
  6
CONTINUOUS
 62
     0
100
AcDbCircle
 10
570.100000000001
 20
69.0
 40
0.499999999999943
100
AcDbArc
 50
270.0
 51
0.0
  0
LINE
  5
E7
100
AcDbEntity
  8
2
  6
CONTINUOUS
 62
     0
100
AcDbLine
 10
566.600000000001
 20
68.5
 11
570.100000000001
 21
68.5
  0
LINE
  5
E8
100
AcDbEntity
  8
2
  6
CONTINUOUS
 62
     0
100
AcDbLine
 10
570.600000000001
 20
72.5
 11
573.600000000001
 21
72.5
  0
LINE
  5
E9
100
AcDbEntity
  8
2
  6
CONTINUOUS
 62
     0
100
AcDbLine
 10
573.600000000001
 20
72.5
 11
573.600000000001
 21
96.5
  0
LINE
  5
EA
100
AcDbEntity
  8
2
  6
CONTINUOUS
 62
     0
100
AcDbLine
 10
570.600000000001
 20
69.0
 11
570.600000000001
 21
100.0
  0
ARC
  5
EB
100
AcDbEntity
  8
2
  6
CONTINUOUS
 62
     0
100
AcDbCircle
 10
566.100000000001
 20
101.0
 40
0.499999999999943
100
AcDbArc
 50
0.0
 51
90.0
  0
LINE
  5
EC
100
AcDbEntity
  8
2
  6
CONTINUOUS
 62
     0
100
AcDbLine
 10
566.100000000001
 20
101.5
 11
556.600000000001
 21
101.5
  0
LINE
  5
ED
100
AcDbEntity
  8
2
  6
CONTINUOUS
 62
     0
100
AcDbLine
 10
183.0
 20
-44.000000000001
 11
183.0
 21
43.999999999999
  0
LINE
  5
EE
100
AcDbEntity
  8
7
  6
CENTER2
 62
    40
100
AcDbLine
 10
415.395457789771
 20
38.0
 11
383.731984020174
 21
38.0
  0
LINE
  5
EF
100
AcDbEntity
  8
7
  6
CENTER2
 62
    40
100
AcDbLine
 10
415.395457789771
 20
-38.0
 11
383.731984020174
 21
-38.0
  0
LINE
  5
F0
100
AcDbEntity
  8
7
  6
CENTER2
 62
    40
100
AcDbLine
 10
173.948004150401
 20
38.0
 11
241.388980317209
 21
38.0
  0
LINE
  5
F1
100
AcDbEntity
  8
7
  6
CENTER2
 62
    40
100
AcDbLine
 10
173.948004150401
 20
-38.0
 11
241.388980317209
 21
-38.0
  0
LINE
  5
F2
100
AcDbEntity
  8
2
  6
CONTINUOUS
 62
     0
100
AcDbLine
 10
183.0
 20
-44.000000000001
 11
190.0
 21
-44.000000000001
  0
LINE
  5
F3
100
AcDbEntity
  8
2
  6
CONTINUOUS
 62
     0
100
AcDbLine
 10
183.0
 20
43.999999999999
 11
190.0
 21
43.999999999999
  0
LINE
  5
F4
100
AcDbEntity
  8
2
  6
CONTINUOUS
 62
     0
100
AcDbLine
 10
215.0
 20
-44.000000000001
 11
215.0
 21
-41.000000000001
  0
LINE
  5
F5
100
AcDbEntity
  8
2
  6
CONTINUOUS
 62
     0
100
AcDbLine
 10
215.0
 20
-41.000000000001
 11
215.0
 21
-35.000000000001
  0
LINE
  5
F6
100
AcDbEntity
  8
2
  6
CONTINUOUS
 62
     0
100
AcDbLine
 10
215.0
 20
-35.000000000001
 11
215.0
 21
-28.000000000001
  0
LINE
  5
F7
100
AcDbEntity
  8
2
  6
CONTINUOUS
 62
     0
100
AcDbLine
 10
215.0
 20
-28.000000000001
 11
215.0
 21
27.999999999999
  0
LINE
  5
F8
100
AcDbEntity
  8
2
  6
CONTINUOUS
 62
     0
100
AcDbLine
 10
215.0
 20
27.999999999999
 11
215.0
 21
34.999999999999
  0
LINE
  5
F9
100
AcDbEntity
  8
2
  6
CONTINUOUS
 62
     0
100
AcDbLine
 10
215.0
 20
34.999999999999
 11
215.0
 21
40.999999999999
  0
LINE
  5
FA
100
AcDbEntity
  8
2
  6
CONTINUOUS
 62
     0
100
AcDbLine
 10
215.0
 20
40.999999999999
 11
215.0
 21
43.999999999999
  0
LINE
  5
FB
100
AcDbEntity
  8
2
  6
CONTINUOUS
 62
     0
100
AcDbLine
 10
227.0
 20
-44.000000000001
 11
227.0
 21
43.999999999999
  0
LINE
  5
FC
100
AcDbEntity
  8
2
  6
CONTINUOUS
 62
     0
100
AcDbLine
 10
227.0
 20
-12.500000000001
 11
227.0
 21
-9.50000000000102
  0
LINE
  5
FD
100
AcDbEntity
  8
2
  6
CONTINUOUS
 62
     0
100
AcDbLine
 10
227.0
 20
-9.50000000000102
 11
227.0
 21
-8.50000000000102
  0
LINE
  5
FE
100
AcDbEntity
  8
2
  6
CONTINUOUS
 62
     0
100
AcDbLine
 10
227.0
 20
-8.50000000000102
 11
227.0
 21
8.49999999999898
  0
LINE
  5
FF
100
AcDbEntity
  8
2
  6
CONTINUOUS
 62
     0
100
AcDbLine
 10
227.0
 20
8.49999999999898
 11
227.0
 21
9.49999999999898
  0
LINE
  5
100
100
AcDbEntity
  8
2
  6
CONTINUOUS
 62
     0
100
AcDbLine
 10
227.0
 20
9.49999999999898
 11
227.0
 21
12.499999999999
  0
LINE
  5
101
100
AcDbEntity
  8
2
  6
CONTINUOUS
 62
     0
100
AcDbLine
 10
227.0
 20
-44.000000000001
 11
190.0
 21
-44.000000000001
  0
LINE
  5
102
100
AcDbEntity
  8
2
  6
CONTINUOUS
 62
     0
100
AcDbLine
 10
227.0
 20
-27.000000000001
 11
227.0
 21
-13.000000000001
  0
LINE
  5
103
100
AcDbEntity
  8
2
  6
CONTINUOUS
 62
     0
100
AcDbLine
 10
227.0
 20
43.999999999999
 11
190.0
 21
43.999999999999
  0
LINE
  5
104
100
AcDbEntity
  8
2
  6
CONTINUOUS
 62
     0
100
AcDbLine
 10
227.0
 20
12.999999999999
 11
227.0
 21
26.999999999999
  0
ARC
  5
105
100
AcDbEntity
  8
2
  6
CONTINUOUS
 62
     0
100
AcDbCircle
 10
228.0
 20
31.999999999999
 40
1.0
100
AcDbArc
 50
180.0
 51
270.0
  0
ARC
  5
106
100
AcDbEntity
  8
2
  6
CONTINUOUS
 62
     0
100
AcDbCircle
 10
228.0
 20
-32.000000000001
 40
0.999999999999886
100
AcDbArc
 50
90.0
 51
180.0
  0
INSERT
  5
108
100
AcDbEntity
  8
2
  6
CONTINUOUS
 62
     0
100
AcDbBlockReference
  2
SUB2
 10
183.0
 20
38.0
 41
1.0
 42
1.0
 50
0.0
  0
INSERT
  5
116
100
AcDbEntity
  8
2
  6
CONTINUOUS
 62
     0
100
AcDbBlockReference
  2
SUB3
 10
183.0
 20
-38.0
 41
1.0
 42
1.0
 50
0.0
  0
INSERT
  5
124
100
AcDbEntity
  8
2
  6
CONTINUOUS
 62
     0
100
AcDbBlockReference
  2
SUB4
 10
227.0
 20
-38.0
 41
1.0
 42
1.0
 50
0.0
  0
INSERT
  5
132
100
AcDbEntity
  8
2
  6
CONTINUOUS
 62
     0
100
AcDbBlockReference
  2
SUB5
 10
227.0
 20
38.0
 41
1.0
 42
1.0
 50
0.0
  0
LINE
  5
13F
100
AcDbEntity
  8
2
  6
CONTINUOUS
 62
     0
100
AcDbLine
 10
190.0
 20
-44.000000000001
 11
190.0
 21
43.999999999999
  0
LINE
  5
140
100
AcDbEntity
  8
2
  6
CONTINUOUS
 62
     0
100
AcDbLine
 10
167.5
 20
58.799999999999
 11
167.5
 21
46.199999999999
  0
LINE
  5
141
100
AcDbEntity
  8
2
  6
CONTINUOUS
 62
     0
100
AcDbLine
 10
149.5
 20
46.199999999999
 11
167.5
 21
46.199999999999
  0
LINE
  5
142
100
AcDbEntity
  8
2
  6
CONTINUOUS
 62
     0
100
AcDbLine
 10
149.5
 20
58.799999999999
 11
167.5
 21
58.799999999999
  0
LINE
  5
143
100
AcDbEntity
  8
2
  6
CONTINUOUS
 62
     0
100
AcDbLine
 10
105.5
 20
41.499999999999
 11
100.7
 21
41.499999999999
  0
LINE
  5
144
100
AcDbEntity
  8
2
  6
CONTINUOUS
 62
     0
100
AcDbLine
 10
105.5
 20
41.499999999999
 11
105.5
 21
63.499999999999
  0
LINE
  5
145
100
AcDbEntity
  8
8
  6
CONTINUOUS
 62
     7
100
AcDbLine
 10
105.5
 20
42.041499999999
 11
104.5620944877
 21
41.499999999999
  0
LINE
  5
147
100
AcDbEntity
  8
2
  6
CONTINUOUS
 62
     0
100
AcDbLine
 10
105.5
 20
63.499999999999
 11
100.7
 21
63.499999999999
  0
LINE
  5
148
100
AcDbEntity
  8
8
  6
CONTINUOUS
 62
     7
100
AcDbLine
 10
105.5
 20
62.958499999999
 11
104.5620944877
 21
63.499999999999
  0
LINE
  5
149
100
AcDbEntity
  8
2
  6
CONTINUOUS
 62
     0
100
AcDbLine
 10
116.5
 20
49.999999999999
 11
106.5
 21
49.999999999999
  0
LINE
  5
14A
100
AcDbEntity
  8
2
  6
CONTINUOUS
 62
     0
100
AcDbLine
 10
106.5
 20
50.999999999999
 11
116.5
 21
50.999999999999
  0
LINE
  5
14B
100
AcDbEntity
  8
2
  6
CONTINUOUS
 62
     0
100
AcDbLine
 10
116.5
 20
51.999999999999
 11
106.5
 21
51.999999999999
  0
LINE
  5
14C
100
AcDbEntity
  8
2
  6
CONTINUOUS
 62
     0
100
AcDbLine
 10
106.5
 20
52.999999999999
 11
116.5
 21
52.999999999999
  0
LINE
  5
14D
100
AcDbEntity
  8
2
  6
CONTINUOUS
 62
     0
100
AcDbLine
 10
116.5
 20
53.999999999999
 11
106.5
 21
53.999999999999
  0
LINE
  5
14E
100
AcDbEntity
  8
2
  6
CONTINUOUS
 62
     0
100
AcDbLine
 10
106.5
 20
54.999999999999
 11
116.5
 21
54.999999999999
  0
LINE
  5
14F
100
AcDbEntity
  8
2
  6
CONTINUOUS
 62
     0
100
AcDbLine
 10
116.5
 20
55.999999999999
 11
106.5
 21
55.999999999999
  0
LINE
  5
150
100
AcDbEntity
  8
2
  6
CONTINUOUS
 62
     0
100
AcDbLine
 10
106.5
 20
56.999999999999
 11
116.5
 21
56.999999999999
  0
LINE
  5
151
100
AcDbEntity
  8
2
  6
CONTINUOUS
 62
     0
100
AcDbLine
 10
116.5
 20
57.999999999999
 11
106.5
 21
57.999999999999
  0
LINE
  5
152
100
AcDbEntity
  8
2
  6
CONTINUOUS
 62
     0
100
AcDbLine
 10
106.5
 20
58.999999999999
 11
116.5
 21
58.999999999999
  0
LINE
  5
153
100
AcDbEntity
  8
2
  6
CONTINUOUS
 62
     0
100
AcDbLine
 10
116.5
 20
59.999999999999
 11
106.5
 21
59.999999999999
  0
LINE
  5
154
100
AcDbEntity
  8
2
  6
CONTINUOUS
 62
     0
100
AcDbLine
 10
106.5
 20
60.999999999999
 11
116.5
 21
60.999999999999
  0
LINE
  5
155
100
AcDbEntity
  8
2
  6
CONTINUOUS
 62
     0
100
AcDbLine
 10
116.5
 20
61.999999999999
 11
106.5
 21
61.999999999999
  0
LINE
  5
156
100
AcDbEntity
  8
2
  6
CONTINUOUS
 62
     0
100
AcDbLine
 10
106.5
 20
62.999999999999
 11
116.5
 21
62.999999999999
  0
LINE
  5
157
100
AcDbEntity
  8
2
  6
CONTINUOUS
 62
     0
100
AcDbLine
 10
116.5
 20
63.999999999999
 11
106.5
 21
63.999999999999
  0
LINE
  5
158
100
AcDbEntity
  8
2
  6
CONTINUOUS
 62
     0
100
AcDbLine
 10
106.5
 20
64.999999999999
 11
116.5
 21
64.999999999999
  0
LINE
  5
159
100
AcDbEntity
  8
2
  6
CONTINUOUS
 62
     0
100
AcDbLine
 10
147.0
 20
60.199999999999
 11
145.0
 21
62.199999999999
  0
LINE
  5
15A
100
AcDbEntity
  8
2
  6
CONTINUOUS
 62
     0
100
AcDbLine
 10
145.0
 20
60.199999999999
 11
147.0
 21
62.199999999999
  0
CIRCLE
  5
15B
100
AcDbEntity
  8
2
  6
CONTINUOUS
 62
     0
100
AcDbCircle
 10
146.0
 20
61.199999999999
 40
2.75
  0
LINE
  5
15C
100
AcDbEntity
  8
2
  6
CONTINUOUS
 62
     0
100
AcDbLine
 10
147.0
 20
44.799999999999
 11
145.0
 21
42.799999999999
  0
LINE
  5
15D
100
AcDbEntity
  8
2
  6
CONTINUOUS
 62
     0
100
AcDbLine
 10
145.0
 20
44.799999999999
 11
147.0
 21
42.799999999999
  0
CIRCLE
  5
15E
100
AcDbEntity
  8
2
  6
CONTINUOUS
 62
     0
100
AcDbCircle
 10
146.0
 20
43.799999999999
 40
2.75
  0
LINE
  5
15F
100
AcDbEntity
  8
2
  6
CONTINUOUS
 62
     0
100
AcDbLine
 10
141.5
 20
42.499999999999
 11
141.5
 21
62.499999999999
  0
LINE
  5
160
100
AcDbEntity
  8
2
  6
CONTINUOUS
 62
     0
100
AcDbLine
 10
106.5
 20
39.499999999999
 11
106.5
 21
65.499999999999
  0
LINE
  5
161
100
AcDbEntity
  8
2
  6
CONTINUOUS
 62
     0
100
AcDbLine
 10
116.5
 20
65.499999999999
 11
116.5
 21
39.499999999999
  0
LINE
  5
162
100
AcDbEntity
  8
2
  6
CONTINUOUS
 62
     0
100
AcDbLine
 10
106.5
 20
39.999999999999
 11
116.5
 21
39.999999999999
  0
LINE
  5
163
100
AcDbEntity
  8
2
  6
CONTINUOUS
 62
     0
100
AcDbLine
 10
116.5
 20
40.999999999999
 11
106.5
 21
40.999999999999
  0
LINE
  5
164
100
AcDbEntity
  8
2
  6
CONTINUOUS
 62
     0
100
AcDbLine
 10
106.5
 20
41.999999999999
 11
116.5
 21
41.999999999999
  0
LINE
  5
165
100
AcDbEntity
  8
2
  6
CONTINUOUS
 62
     0
100
AcDbLine
 10
116.5
 20
42.999999999999
 11
106.5
 21
42.999999999999
  0
LINE
  5
166
100
AcDbEntity
  8
2
  6
CONTINUOUS
 62
     0
100
AcDbLine
 10
106.5
 20
43.999999999999
 11
116.5
 21
43.999999999999
  0
LINE
  5
167
100
AcDbEntity
  8
2
  6
CONTINUOUS
 62
     0
100
AcDbLine
 10
116.5
 20
48.999999999999
 11
106.5
 21
48.999999999999
  0
LINE
  5
168
100
AcDbEntity
  8
2
  6
CONTINUOUS
 62
     0
100
AcDbLine
 10
116.5
 20
47.999999999999
 11
106.5
 21
47.999999999999
  0
LINE
  5
169
100
AcDbEntity
  8
2
  6
CONTINUOUS
 62
     0
100
AcDbLine
 10
116.5
 20
46.999999999999
 11
106.5
 21
46.999999999999
  0
LINE
  5
16A
100
AcDbEntity
  8
2
  6
CONTINUOUS
 62
     0
100
AcDbLine
 10
116.5
 20
45.999999999999
 11
106.5
 21
45.999999999999
  0
LINE
  5
16B
100
AcDbEntity
  8
2
  6
CONTINUOUS
 62
     0
100
AcDbLine
 10
116.5
 20
44.999999999999
 11
106.5
 21
44.999999999999
  0
LINE
  5
16C
100
AcDbEntity
  8
2
  6
CONTINUOUS
 62
     0
100
AcDbLine
 10
149.5
 20
61.999999999999
 11
149.5
 21
42.999999999999
  0
ARC
  5
16D
100
AcDbEntity
  8
2
  6
CONTINUOUS
 62
     0
100
AcDbCircle
 10
147.5
 20
61.999999999999
 40
1.99999999999994
100
AcDbArc
 50
0.0
 51
90.0
  0
ARC
  5
16E
100
AcDbEntity
  8
2
  6
CONTINUOUS
 62
     0
100
AcDbCircle
 10
144.5
 20
61.999999999999
 40
1.99999999999994
100
AcDbArc
 50
90.0
 51
180.0
  0
LINE
  5
16F
100
AcDbEntity
  8
2
  6
CONTINUOUS
 62
     0
100
AcDbLine
 10
144.5
 20
63.999999999999
 11
147.5
 21
63.999999999999
  0
ARC
  5
170
100
AcDbEntity
  8
2
  6
CONTINUOUS
 62
     0
100
AcDbCircle
 10
141.416
 20
64.546999999999
 40
1.99999999999993
100
AcDbArc
 50
259.795999999989
 51
320.445000000019
  0
LINE
  5
171
100
AcDbEntity
  8
2
  6
CONTINUOUS
 62
     0
100
AcDbLine
 10
129.5
 20
64.299999999999
 11
141.5
 21
62.499999999999
  0
LINE
  5
172
100
AcDbEntity
  8
2
  6
CONTINUOUS
 62
     0
100
AcDbLine
 10
116.5
 20
64.999999999999
 11
119.5
 21
64.999999999999
  0
LINE
  5
173
100
AcDbEntity
  8
2
  6
CONTINUOUS
 62
     0
100
AcDbLine
 10
119.5
 20
64.999999999999
 11
119.5
 21
39.999999999999
  0
LINE
  5
174
100
AcDbEntity
  8
2
  6
CONTINUOUS
 62
     0
100
AcDbLine
 10
119.5
 20
64.299999999999
 11
129.5
 21
64.299999999999
  0
LINE
  5
175
100
AcDbEntity
  8
2
  6
CONTINUOUS
 62
     0
100
AcDbLine
 10
106.5
 20
65.499999999999
 11
116.5
 21
65.499999999999
  0
LINE
  5
176
100
AcDbEntity
  8
2
  6
CONTINUOUS
 62
     0
100
AcDbLine
 10
105.5
 20
64.999999999999
 11
106.5
 21
64.999999999999
  0
LINE
  5
177
100
AcDbEntity
  8
2
  6
CONTINUOUS
 62
     0
100
AcDbLine
 10
119.5
 20
40.699999999999
 11
129.5
 21
40.699999999999
  0
LINE
  5
178
100
AcDbEntity
  8
2
  6
CONTINUOUS
 62
     0
100
AcDbLine
 10
129.5
 20
40.699999999999
 11
141.5
 21
42.499999999999
  0
ARC
  5
179
100
AcDbEntity
  8
2
  6
CONTINUOUS
 62
     0
100
AcDbCircle
 10
141.416
 20
40.452999999999
 40
1.99999999999995
100
AcDbArc
 50
39.5549999999793
 51
100.20400000001
  0
ARC
  5
17A
100
AcDbEntity
  8
2
  6
CONTINUOUS
 62
     0
100
AcDbCircle
 10
147.5
 20
42.999999999999
 40
1.99999999999994
100
AcDbArc
 50
270.0
 51
0.0
  0
LINE
  5
17B
100
AcDbEntity
  8
2
  6
CONTINUOUS
 62
     0
100
AcDbLine
 10
147.5
 20
40.999999999999
 11
144.5
 21
40.999999999999
  0
ARC
  5
17C
100
AcDbEntity
  8
2
  6
CONTINUOUS
 62
     0
100
AcDbCircle
 10
144.5
 20
42.999999999999
 40
1.99999999999994
100
AcDbArc
 50
180.0
 51
270.0
  0
LINE
  5
17D
100
AcDbEntity
  8
2
  6
CONTINUOUS
 62
     0
100
AcDbLine
 10
142.5
 20
42.999999999999
 11
142.5
 21
61.999999999999
  0
LINE
  5
17E
100
AcDbEntity
  8
2
  6
CONTINUOUS
 62
     0
100
AcDbLine
 10
119.5
 20
39.999999999999
 11
116.5
 21
39.999999999999
  0
LINE
  5
17F
100
AcDbEntity
  8
2
  6
CONTINUOUS
 62
     0
100
AcDbLine
 10
116.5
 20
39.499999999999
 11
106.5
 21
39.499999999999
  0
LINE
  5
180
100
AcDbEntity
  8
2
  6
CONTINUOUS
 62
     0
100
AcDbLine
 10
106.5
 20
39.999999999999
 11
105.5
 21
39.999999999999
  0
LINE
  5
181
100
AcDbEntity
  8
2
  6
CONTINUOUS
 62
     0
100
AcDbLine
 10
105.5
 20
39.999999999999
 11
105.5
 21
64.999999999999
  0
LINE
  5
182
100
AcDbEntity
  8
2
  6
CONTINUOUS
 62
     0
100
AcDbLine
 10
100.7
 20
37.999999999999
 11
100.7
 21
66.999999999999
  0
LINE
  5
183
100
AcDbEntity
  8
2
  6
CONTINUOUS
 62
     0
100
AcDbLine
 10
100.7
 20
37.999999999999
 11
98.7
 21
37.999999999999
  0
LINE
  5
184
100
AcDbEntity
  8
2
  6
CONTINUOUS
 62
     0
100
AcDbLine
 10
55.2
 20
69.999999999999
 11
98.7
 21
69.999999999999
  0
LINE
  5
185
100
AcDbEntity
  8
2
  6
CONTINUOUS
 62
     0
100
AcDbLine
 10
98.7
 20
66.999999999999
 11
100.7
 21
66.999999999999
  0
LINE
  5
186
100
AcDbEntity
  8
2
  6
CONTINUOUS
 62
     0
100
AcDbLine
 10
98.7
 20
34.999999999999
 11
98.7
 21
69.999999999999
  0
LINE
  5
187
100
AcDbEntity
  8
2
  6
CONTINUOUS
 62
     0
100
AcDbLine
 10
95.2
 20
34.999999999999
 11
98.7
 21
34.999999999999
  0
LINE
  5
188
100
AcDbEntity
  8
8
  6
CONTINUOUS
 62
     7
100
AcDbLine
 10
55.8
 20
52.499999999999
 11
58.8
 21
52.499999999999
  0
LINE
  5
189
100
AcDbEntity
  8
7
  6
CENTER2
 62
    40
100
AcDbLine
 10
70.2
 20
31.499999999999
 11
70.2
 21
73.644507489582
  0
LINE
  5
18A
100
AcDbEntity
  8
7
  6
CENTER2
 62
    40
100
AcDbLine
 10
58.2
 20
31.499999999999
 11
58.2
 21
73.644507489582
  0
LINE
  5
18B
100
AcDbEntity
  8
2
  6
CONTINUOUS
 62
     0
100
AcDbLine
 10
95.2
 20
35.999999999999
 11
95.2
 21
42.549999999999
  0
LINE
  5
18C
100
AcDbEntity
  8
2
  6
CONTINUOUS
 62
     0
100
AcDbLine
 10
95.2
 20
62.449999999999
 11
95.2
 21
69.999999999999
  0
LINE
  5
18D
100
AcDbEntity
  8
2
  6
CONTINUOUS
 62
     0
100
AcDbLine
 10
45.2
 20
59.999999999999
 11
55.2
 21
69.999999999999
  0
LINE
  5
18E
100
AcDbEntity
  8
2
  6
CONTINUOUS
 62
     0
100
AcDbLine
 10
45.2
 20
30.000000476837
 11
45.2
 21
59.999999999999
  0
LINE
  5
18F
100
AcDbEntity
  8
2
  6
CONTINUOUS
 62
     0
100
AcDbLine
 10
95.2
 20
29.999999999999
 11
95.2
 21
69.999999999999
  0
LINE
  5
190
100
AcDbEntity
  8
7
  6
CENTER2
 62
    40
100
AcDbLine
 10
44.915303396506
 20
52.499999999999
 11
199.211538461538
 21
52.499999999999
  0
LINE
  5
191
100
AcDbEntity
  8
2
  6
CONTINUOUS
 62
     0
100
AcDbLine
 10
44.7
 20
30.0
 11
95.7
 21
30.0
  0
LINE
  5
192
100
AcDbEntity
  8
2
  6
CONTINUOUS
 62
     0
100
AcDbLine
 10
45.2
 20
35.999999999999
 11
95.2
 21
35.999999999999
  0
LINE
  5
193
100
AcDbEntity
  8
7
  6
CENTER2
 62
    40
100
AcDbLine
 10
-3.0
 20
-38.0
 11
23.7239590290371
 21
-38.0
  0
LINE
  5
194
100
AcDbEntity
  8
7
  6
CENTER2
 62
    40
100
AcDbLine
 10
103.514075372227
 20
-38.0
 11
134.742024950568
 21
-38.0
  0
LINE
  5
195
100
AcDbEntity
  8
2
  6
CONTINUOUS
 62
     0
100
AcDbLine
 10
-9.0
 20
23.5
 11
-9.0
 21
-23.5
  0
LINE
  5
196
100
AcDbEntity
  8
2
  6
CONTINUOUS
 62
     0
100
AcDbLine
 10
0.0
 20
32.5
 11
0.0
 21
24.0
  0
LINE
  5
197
100
AcDbEntity
  8
2
  6
CONTINUOUS
 62
     0
100
AcDbLine
 10
0.0
 20
24.0
 11
0.0
 21
24.5
  0
LINE
  5
198
100
AcDbEntity
  8
2
  6
CONTINUOUS
 62
     0
100
AcDbLine
 10
0.0
 20
24.5
 11
0.0
 21
-24.5
  0
LINE
  5
199
100
AcDbEntity
  8
2
  6
CONTINUOUS
 62
     0
100
AcDbLine
 10
0.0
 20
-24.5
 11
0.0
 21
-24.0
  0
LINE
  5
19A
100
AcDbEntity
  8
2
  6
CONTINUOUS
 62
     0
100
AcDbLine
 10
0.0
 20
-24.0
 11
0.0
 21
-44.499999999999
  0
LINE
  5
19B
100
AcDbEntity
  8
2
  6
CONTINUOUS
 62
     0
100
AcDbLine
 10
-8.5
 20
-24.0
 11
0.0
 21
-24.0
  0
LINE
  5
19C
100
AcDbEntity
  8
2
  6
CONTINUOUS
 62
     0
100
AcDbLine
 10
20.1
 20
-33.8000000000001
 11
108.6
 21
-33.8000000000001
  0
ARC
  5
19D
100
AcDbEntity
  8
2
  6
CONTINUOUS
 62
     0
100
AcDbCircle
 10
20.1
 20
-34.2
 40
0.400000000000006
100
AcDbArc
 50
90.0
 51
180.0
  0
LINE
  5
19E
100
AcDbEntity
  8
2
  6
CONTINUOUS
 62
     0
100
AcDbLine
 10
19.7
 20
32.5
 11
19.7
 21
-44.499999999999
  0
LINE
  5
19F
100
AcDbEntity
  8
2
  6
CONTINUOUS
 62
     0
100
AcDbLine
 10
7.70000000000005
 20
-44.499999999999
 11
7.70000000000005
 21
32.5
  0
LINE
  5
1A0
100
AcDbEntity
  8
2
  6
CONTINUOUS
 62
     0
100
AcDbLine
 10
-25.0
 20
-10.0
 11
-25.0
 21
10.0
  0
LINE
  5
1A1
100
AcDbEntity
  8
2
  6
CONTINUOUS
 62
     0
100
AcDbLine
 10
-45.0
 20
-7.94000000000005
 11
-26.5
 21
-7.94000000000005
  0
ARC
  5
1A2
100
AcDbEntity
  8
2
  6
CONTINUOUS
 62
     0
100
AcDbCircle
 10
-26.5
 20
-9.44000000000005
 40
1.5
100
AcDbArc
 50
0.0
 51
90.0
  0
LINE
  5
1A3
100
AcDbEntity
  8
2
  6
CONTINUOUS
 62
     0
100
AcDbLine
 10
-44.0
 20
-5.91323938294306
 11
-26.5
 21
-5.91323938294306
  0
ARC
  5
1A4
100
AcDbEntity
  8
2
  6
CONTINUOUS
 62
     0
100
AcDbCircle
 10
-37.405466666664
 20
0.0
 40
12.4054666666634
100
AcDbArc
 50
331.53225159524
 51
28.4677484047594
  0
LINE
  5
1A5
100
AcDbEntity
  8
2
  6
CONTINUOUS
 62
     0
100
AcDbLine
 10
-25.0
 20
-10.0
 11
-9.0
 21
-10.0
  0
LINE
  5
1A6
100
AcDbEntity
  8
2
  6
CONTINUOUS
 62
     0
100
AcDbLine
 10
125.0
 20
-31.0
 11
182.6
 21
-31.0
  0
ARC
  5
1A7
100
AcDbEntity
  8
2
  6
CONTINUOUS
 62
     0
100
AcDbCircle
 10
125.4
 20
-31.4000000000001
 40
0.399999999999999
100
AcDbArc
 50
90.0
 51
180.0
  0
LINE
  5
1A8
100
AcDbEntity
  8
2
  6
CONTINUOUS
 62
     0
100
AcDbLine
 10
118.0
 20
32.5
 11
118.0
 21
-44.499999999999
  0
ARC
  5
1A9
100
AcDbEntity
  8
2
  6
CONTINUOUS
 62
     0
100
AcDbCircle
 10
108.6
 20
-34.2
 40
0.399999999999999
100
AcDbArc
 50
0.0
 51
90.0
  0
LINE
  5
1AA
100
AcDbEntity
  8
2
  6
CONTINUOUS
 62
     0
100
AcDbLine
 10
109.0
 20
32.5
 11
109.0
 21
-44.499999999999
  0
LINE
  5
1AB
100
AcDbEntity
  8
2
  6
CONTINUOUS
 62
     0
100
AcDbLine
 10
-45.0
 20
-7.94000000000005
 11
-45.0
 21
7.93999999999994
  0
LINE
  5
1AC
100
AcDbEntity
  8
2
  6
CONTINUOUS
 62
     0
100
AcDbLine
 10
-44.0
 20
-7.94000000000005
 11
-44.0
 21
-5.91323938294306
  0
LINE
  5
1AD
100
AcDbEntity
  8
2
  6
CONTINUOUS
 62
     0
100
AcDbLine
 10
-44.0
 20
5.91323938294295
 11
-44.0
 21
7.93999999999994
  0
ARC
  5
1AE
100
AcDbEntity
  8
2
  6
CONTINUOUS
 62
     0
100
AcDbCircle
 10
-27.016800000005
 20
0.0
 40
17.9831999999951
100
AcDbArc
 50
160.802818049548
 51
199.197181950452
  0
CIRCLE
  5
1AF
100
AcDbEntity
  8
2
  6
CONTINUOUS
 62
     0
100
AcDbCircle
 10
-37.0
 20
0.0
 40
2.25
  0
INSERT
  5
1B1
100
AcDbEntity
  8
2
  6
CONTINUOUS
 62
     0
100
AcDbBlockReference
  2
SUB6
 10
125.0
 20
-38.0
 41
1.0
 42
1.0
 50
0.0
  0
LINE
  5
1BE
100
AcDbEntity
  8
2
  6
CONTINUOUS
 62
     0
100
AcDbLine
 10
-8.5
 20
24.0
 11
0.0
 21
24.0
  0
LINE
  5
1BF
100
AcDbEntity
  8
2
  6
CONTINUOUS
 62
     0
100
AcDbLine
 10
0.0
 20
32.5
 11
7.70000000000005
 21
32.5
  0
LINE
  5
1C0
100
AcDbEntity
  8
2
  6
CONTINUOUS
 62
     0
100
AcDbLine
 10
7.70000000000005
 20
32.5
 11
44.7
 21
32.5
  0
LINE
  5
1C1
100
AcDbEntity
  8
2
  6
CONTINUOUS
 62
     0
100
AcDbLine
 10
95.7
 20
32.5
 11
118.0
 21
32.5
  0
LINE
  5
1C2
100
AcDbEntity
  8
2
  6
CONTINUOUS
 62
     0
100
AcDbLine
 10
-45.0
 20
7.93999999999994
 11
-26.5
 21
7.93999999999994
  0
ARC
  5
1C3
100
AcDbEntity
  8
2
  6
CONTINUOUS
 62
     0
100
AcDbCircle
 10
-26.5
 20
9.43999999999994
 40
1.5
100
AcDbArc
 50
270.0
 51
0.0
  0
LINE
  5
1C4
100
AcDbEntity
  8
2
  6
CONTINUOUS
 62
     0
100
AcDbLine
 10
-44.0
 20
5.91323938294295
 11
-26.5
 21
5.91323938294295
  0
LINE
  5
1C5
100
AcDbEntity
  8
2
  6
CONTINUOUS
 62
     0
100
AcDbLine
 10
-25.0
 20
10.0
 11
-9.0
 21
10.0
  0
LINE
  5
1C6
100
AcDbEntity
  8
2
  6
CONTINUOUS
 62
     0
100
AcDbLine
 10
118.0
 20
32.5
 11
125.0
 21
32.5
  0
LINE
  5
1C7
100
AcDbEntity
  8
2
  6
CONTINUOUS
 62
     0
100
AcDbLine
 10
118.0
 20
32.5
 11
118.0
 21
31.0
  0
LINE
  5
1C8
100
AcDbEntity
  8
2
  6
CONTINUOUS
 62
     0
100
AcDbLine
 10
125.0
 20
31.0
 11
182.6
 21
31.0
  0
ARC
  5
1C9
100
AcDbEntity
  8
2
  6
CONTINUOUS
 62
     0
100
AcDbCircle
 10
125.4
 20
31.4
 40
0.4
100
AcDbArc
 50
180.0
 51
270.0
  0
LINE
  5
1CA
100
AcDbEntity
  8
2
  6
CONTINUOUS
 62
     0
100
AcDbLine
 10
182.6
 20
31.0
 11
183.0
 21
31.4
  0
ARC
  5
1CB
100
AcDbEntity
  8
2
  6
CONTINUOUS
 62
     0
100
AcDbCircle
 10
182.6
 20
-31.4000000000001
 40
0.399999999999999
100
AcDbArc
 50
0.0
 51
90.0
  0
LINE
  5
1CC
100
AcDbEntity
  8
2
  6
CONTINUOUS
 62
     0
100
AcDbLine
 10
95.7
 20
29.999999999999
 11
95.7
 21
32.5
  0
LINE
  5
1CD
100
AcDbEntity
  8
2
  6
CONTINUOUS
 62
     0
100
AcDbLine
 10
44.7
 20
30.000000476837
 11
44.7
 21
32.5
  0
LINE
  5
1CE
100
AcDbEntity
  8
7
  6
CENTER2
 62
    40
100
AcDbLine
 10
371.500000000001
 20
68.999999999999
 11
199.211538461538
 21
52.499999999999
  0
LINE
  5
1CF
100
AcDbEntity
  8
2
  6
CONTINUOUS
 62
     0
100
AcDbLine
 10
408.200000000001
 20
64.7
 11
371.944312257154
 21
64.7
  0
ARC
  5
1D0
100
AcDbEntity
  8
2
  6
CONTINUOUS
 62
     0
100
AcDbCircle
 10
371.944312257154
 20
59.7
 40
5.0
100
AcDbArc
 50
90.0
 51
95.4705107327588
  0
ARC
  5
1D1
100
AcDbEntity
  8
2
  6
CONTINUOUS
 62
     0
100
AcDbCircle
 10
371.944312257154
 20
59.7
 40
13.6
100
AcDbArc
 50
90.0
 51
95.4705107327593
  0
LINE
  5
1D2
100
AcDbEntity
  8
2
  6
CONTINUOUS
 62
     0
100
AcDbLine
 10
371.944312257154
 20
73.3
 11
408.200000000001
 21
73.3
  0
LINE
  5
1D3
100
AcDbEntity
  8
2
  6
CONTINUOUS
 62
     0
100
AcDbLine
 10
370.647777683309
 20
73.2380573975303
 11
199.243893327143
 21
56.8227730156138
  0
LINE
  5
1D4
100
AcDbEntity
  8
2
  6
CONTINUOUS
 62
     0
100
AcDbLine
 10
167.5
 20
56.8
 11
198.767226204406
 21
56.8
  0
ARC
  5
1D5
100
AcDbEntity
  8
2
  6
CONTINUOUS
 62
     0
100
AcDbCircle
 10
198.767226204406
 20
61.8
 40
5.00000000000001
100
AcDbArc
 50
270.0
 51
275.470510732759
  0
ARC
  5
1D6
100
AcDbEntity
  8
2
  6
CONTINUOUS
 62
     0
100
AcDbCircle
 10
198.767226204406
 20
61.8
 40
13.6
100
AcDbArc
 50
270.0
 51
275.470510732759
  0
LINE
  5
1D7
100
AcDbEntity
  8
2
  6
CONTINUOUS
 62
     0
100
AcDbLine
 10
371.467645134417
 20
64.6772269843862
 11
200.063760778251
 21
48.2619426024697
  0
LINE
  5
1D8
100
AcDbEntity
  8
2
  6
CONTINUOUS
 62
     0
100
AcDbLine
 10
198.767226204406
 20
48.2
 11
167.5
 21
48.2
  0
LINE
  5
1D9
100
AcDbEntity
  8
2
  6
CONTINUOUS
 62
     0
100
AcDbLine
 10
470.500000000001
 20
33.999999999999
 11
470.500000000001
 21
24.499999999999
  0
LINE
  5
1DA
100
AcDbEntity
  8
2
  6
CONTINUOUS
 62
     0
100
AcDbLine
 10
420.500000000001
 20
33.999999999999
 11
420.500000000001
 21
24.499999999999
  0
LINE
  5
1DB
100
AcDbEntity
  8
2
  6
CONTINUOUS
 62
     0
100
AcDbLine
 10
125.0
 20
-44.499999999999
 11
125.0
 21
32.5
  0
LINE
  5
1DC
100
AcDbEntity
  8
2
  6
CONTINUOUS
 62
     0
100
AcDbLine
 10
227.0
 20
42.849999999999
 11
190.0
 21
42.849999999999
  0
LINE
  5
1DD
100
AcDbEntity
  8
2
  6
CONTINUOUS
 62
     0
100
AcDbLine
 10
183.0
 20
42.849999999999
 11
190.0
 21
42.849999999999
  0
LINE
  5
1DE
100
AcDbEntity
  8
2
  6
CONTINUOUS
 62
     0
100
AcDbLine
 10
227.0
 20
-42.850000000001
 11
190.0
 21
-42.850000000001
  0
LINE
  5
1DF
100
AcDbEntity
  8
2
  6
CONTINUOUS
 62
     0
100
AcDbLine
 10
183.0
 20
-42.850000000001
 11
190.0
 21
-42.850000000001
  0
LINE
  5
1E0
100
AcDbEntity
  8
2
  6
CONTINUOUS
 62
     0
100
AcDbLine
 10
410.500000000001
 20
-42.850000000001
 11
404.000000000001
 21
-42.850000000001
  0
LINE
  5
1E1
100
AcDbEntity
  8
2
  6
CONTINUOUS
 62
     0
100
AcDbLine
 10
404.000000000001
 20
-42.850000000001
 11
396.000000000001
 21
-42.850000000001
  0
LINE
  5
1E2
100
AcDbEntity
  8
2
  6
CONTINUOUS
 62
     0
100
AcDbLine
 10
410.500000000001
 20
42.849999999999
 11
404.000000000001
 21
42.849999999999
  0
LINE
  5
1E3
100
AcDbEntity
  8
2
  6
CONTINUOUS
 62
     0
100
AcDbLine
 10
404.000000000001
 20
42.849999999999
 11
396.000000000001
 21
42.849999999999
  0
LINE
  5
1E4
100
AcDbEntity
  8
7
  6
CENTER2
 62
    40
100
AcDbLine
 10
-3.0
 20
18.9999999999999
 11
23.7239590290371
 21
18.9999999999999
  0
LINE
  5
1E5
100
AcDbEntity
  8
7
  6
CENTER2
 62
    40
100
AcDbLine
 10
103.514075372227
 20
18.9999999999999
 11
134.742024950568
 21
18.9999999999999
  0
INSERT
  5
1E7
100
AcDbEntity
  8
2
  6
CONTINUOUS
 62
     0
100
AcDbBlockReference
  2
SUB7
 10
125.0
 20
18.9999999999999
 41
1.0
 42
1.0
 50
0.0
  0
LINE
  5
1F4
100
AcDbEntity
  8
2
  6
CONTINUOUS
 62
     0
100
AcDbLine
 10
67.1999999999998
 20
65.199999999999
 11
73.1999999999998
 21
65.199999999999
  0
LINE
  5
1F5
100
AcDbEntity
  8
2
  6
CONTINUOUS
 62
     0
100
AcDbLine
 10
67.1999999999998
 20
65.199999999999
 11
67.1999999999998
 21
69.999999999999
  0
LINE
  5
1F6
100
AcDbEntity
  8
2
  6
CONTINUOUS
 62
     0
100
AcDbLine
 10
73.1999999999998
 20
65.199999999999
 11
73.1999999999998
 21
69.999999999999
  0
LINE
  5
1F7
100
AcDbEntity
  8
2
  6
CONTINUOUS
 62
     0
100
AcDbLine
 10
55.2
 20
65.199999999999
 11
61.1999999999998
 21
65.199999999999
  0
LINE
  5
1F8
100
AcDbEntity
  8
2
  6
CONTINUOUS
 62
     0
100
AcDbLine
 10
61.1999999999998
 20
65.199999999999
 11
61.1999999999998
 21
69.999999999999
  0
LINE
  5
1F9
100
AcDbEntity
  8
2
  6
CONTINUOUS
 62
     0
100
AcDbLine
 10
55.2
 20
65.199999999999
 11
55.2
 21
69.999999999999
  0
LINE
  5
1FA
100
AcDbEntity
  8
2
  6
CONTINUOUS
 62
     0
100
AcDbLine
 10
47.2
 20
35.999999999999
 11
47.2
 21
59.171572875253
  0
LINE
  5
1FB
100
AcDbEntity
  8
2
  6
CONTINUOUS
 62
     0
100
AcDbLine
 10
47.2
 20
59.171572875253
 11
55.2
 21
67.171572875253
  0
LINE
  5
1FC
100
AcDbEntity
  8
2
  6
CONTINUOUS
 62
     0
100
AcDbLine
 10
61.1999999999998
 20
67.999999999999
 11
67.1999999999998
 21
67.999999999999
  0
LINE
  5
1FD
100
AcDbEntity
  8
2
  6
CONTINUOUS
 62
     0
100
AcDbLine
 10
73.1999999999998
 20
67.999999999999
 11
95.1999999999998
 21
67.999999999999
  0
LINE
  5
1FE
100
AcDbEntity
  8
2
  6
CONTINUOUS
 62
     0
100
AcDbLine
 10
47.2
 20
59.171572875253
 11
45.2
 21
59.999999999999
  0
INSERT
  5
200
100
AcDbEntity
  8
2
  6
CONTINUOUS
 62
     0
100
AcDbBlockReference
  2
SUB8
 10
70.2
 20
65.199999999999
 41
1.0
 42
1.0
 50
0.0
  0
INSERT
  5
20E
100
AcDbEntity
  8
2
  6
CONTINUOUS
 62
     0
100
AcDbBlockReference
  2
SUB9
 10
58.2
 20
65.199999999999
 41
1.0
 42
1.0
 50
0.0
  0
LINE
  5
21B
100
AcDbEntity
  8
7
  6
CENTER2
 62
    40
100
AcDbLine
 10
-37.0
 20
-4.25
 11
-37.0
 21
4.25
  0
LINE
  5
21C
100
AcDbEntity
  8
2
  6
CONTINUOUS
 62
     0
100
AcDbLine
 10
95.2
 20
67.999999999999
 11
98.7
 21
67.999999999999
  0
LINE
  5
21D
100
AcDbEntity
  8
2
  6
CONTINUOUS
 62
     0
100
AcDbLine
 10
95.2
 20
36.999999999999
 11
98.7
 21
36.999999999999
  0
LINE
  5
21E
100
AcDbEntity
  8
2
  6
CONTINUOUS
 62
     0
100
AcDbLine
 10
46.7
 20
30.000000476837
 11
46.7
 21
35.999999999999
  0
LINE
  5
21F
100
AcDbEntity
  8
2
  6
CONTINUOUS
 62
     0
100
AcDbLine
 10
93.7
 20
29.999999999999
 11
93.7
 21
35.999999999999
  0
LINE
  5
220
100
AcDbEntity
  8
2
  6
CONTINUOUS
 62
     0
100
AcDbLine
 10
-9.0
 20
23.5
 11
-8.5
 21
24.0
  0
LINE
  5
221
100
AcDbEntity
  8
2
  6
CONTINUOUS
 62
     0
100
AcDbLine
 10
-9.0
 20
-23.5
 11
-8.5
 21
-24.0
  0
LINE
  5
222
100
AcDbEntity
  8
2
  6
CONTINUOUS
 62
     0
100
AcDbLine
 10
-8.5
 20
-24.0
 11
-8.5
 21
24.0
  0
MTEXT
  5
223
100
AcDbEntity
  8
4
  6
CONTINUOUS
 62
     2
100
AcDbMText
 10
286.01064652068
 20
-22.8924465923438
 40
3.5
 41
0.0
 11
1.0
 21
0.0
 71
     7
 72
     5
  7
STANDARD
  1
{\T1.60714;\W0.666667;UNR-G100-2500NT}
  0
LINE
  5
225
100
AcDbEntity
  8
2
  6
CONTINUOUS
 62
     0
100
AcDbLine
 10
0.5
 20
25.2720332436992
 11
7.20000000000005
 21
25.2720332436992
  0
LINE
  5
226
100
AcDbEntity
  8
2
  6
CONTINUOUS
 62
     0
100
AcDbLine
 10
0.5
 20
19.6461242224581
 11
7.20000000000005
 21
19.6461242224581
  0
LINE
  5
227
100
AcDbEntity
  8
2
  6
CONTINUOUS
 62
     0
100
AcDbLine
 10
0.5
 20
-44.999999999999
 11
7.20000000000005
 21
-44.999999999999
  0
LINE
  5
228
100
AcDbEntity
  8
2
  6
CONTINUOUS
 62
     0
100
AcDbLine
 10
0.5
 20
-44.8440704411421
 11
7.20000000000005
 21
-44.8440704411421
  0
LINE
  5
229
100
AcDbEntity
  8
2
  6
CONTINUOUS
 62
     0
100
AcDbLine
 10
7.20000000000005
 20
-45.0
 11
7.20000000000005
 21
-44.8440704411421
  0
LINE
  5
22A
100
AcDbEntity
  8
2
  6
CONTINUOUS
 62
     0
100
AcDbLine
 10
7.20000000000005
 20
19.6461242224581
 11
7.20000000000005
 21
25.2720332436992
  0
LINE
  5
22B
100
AcDbEntity
  8
2
  6
CONTINUOUS
 62
     0
100
AcDbLine
 10
0.0
 20
25.4385659949193
 11
0.5
 21
25.2720332436992
  0
LINE
  5
22C
100
AcDbEntity
  8
2
  6
CONTINUOUS
 62
     0
100
AcDbLine
 10
7.20000000000005
 20
25.2720332436992
 11
7.70000000000005
 21
25.4385659949193
  0
LINE
  5
22D
100
AcDbEntity
  8
2
  6
CONTINUOUS
 62
     0
100
AcDbLine
 10
7.20000000000005
 20
19.6461242224581
 11
7.70000000000005
 21
18.9010746869769
  0
LINE
  5
22E
100
AcDbEntity
  8
2
  6
CONTINUOUS
 62
     0
100
AcDbLine
 10
0.5
 20
19.6461242224581
 11
0.0
 21
18.9010746869769
  0
LINE
  5
22F
100
AcDbEntity
  8
2
  6
CONTINUOUS
 62
     0
100
AcDbLine
 10
0.5
 20
-45.0
 11
0.5
 21
-44.8440704411421
  0
LINE
  5
230
100
AcDbEntity
  8
2
  6
CONTINUOUS
 62
     0
100
AcDbLine
 10
0.5
 20
19.6461242224581
 11
0.5
 21
25.2720332436992
  0
LINE
  5
231
100
AcDbEntity
  8
2
  6
CONTINUOUS
 62
     0
100
AcDbLine
 10
0.5
 20
-45.0
 11
0.0
 21
-44.499999999999
  0
LINE
  5
232
100
AcDbEntity
  8
2
  6
CONTINUOUS
 62
     0
100
AcDbLine
 10
0.5
 20
-44.8440704411421
 11
0.0
 21
-44.3396406818937
  0
LINE
  5
233
100
AcDbEntity
  8
2
  6
CONTINUOUS
 62
     0
100
AcDbLine
 10
7.20000000000005
 20
-44.8440704411421
 11
7.70000000000005
 21
-44.3396406818937
  0
LINE
  5
234
100
AcDbEntity
  8
2
  6
CONTINUOUS
 62
     0
100
AcDbLine
 10
7.70000000000005
 20
-44.499999999999
 11
7.20000000000005
 21
-45.0
  0
LINE
  5
235
100
AcDbEntity
  8
2
  6
CONTINUOUS
 62
     0
100
AcDbLine
 10
7.70000000000005
 20
25.4385659949193
 11
8.20000000000005
 21
25.2720332436992
  0
LINE
  5
236
100
AcDbEntity
  8
2
  6
CONTINUOUS
 62
     0
100
AcDbLine
 10
8.20000000000005
 20
19.6461242224581
 11
7.70000000000005
 21
18.9010746869769
  0
LINE
  5
237
100
AcDbEntity
  8
2
  6
CONTINUOUS
 62
     0
100
AcDbLine
 10
8.20000000000005
 20
19.6461242224581
 11
19.2
 21
19.6461242224581
  0
LINE
  5
238
100
AcDbEntity
  8
2
  6
CONTINUOUS
 62
     0
100
AcDbLine
 10
8.20000000000005
 20
25.2720332436992
 11
19.2
 21
25.2720332436992
  0
LINE
  5
239
100
AcDbEntity
  8
2
  6
CONTINUOUS
 62
     0
100
AcDbLine
 10
8.20000000000005
 20
-45.0
 11
8.20000000000005
 21
-44.8440704411421
  0
LINE
  5
23A
100
AcDbEntity
  8
2
  6
CONTINUOUS
 62
     0
100
AcDbLine
 10
8.20000000000005
 20
19.6461242224581
 11
8.20000000000005
 21
25.2720332436992
  0
LINE
  5
23B
100
AcDbEntity
  8
2
  6
CONTINUOUS
 62
     0
100
AcDbLine
 10
8.20000000000005
 20
-45.0
 11
7.70000000000005
 21
-44.499999999999
  0
LINE
  5
23C
100
AcDbEntity
  8
2
  6
CONTINUOUS
 62
     0
100
AcDbLine
 10
8.20000000000005
 20
-44.8440704411421
 11
7.70000000000005
 21
-44.3396406818937
  0
LINE
  5
23D
100
AcDbEntity
  8
2
  6
CONTINUOUS
 62
     0
100
AcDbLine
 10
8.20000000000005
 20
-44.8440704411421
 11
19.2
 21
-44.8440704411421
  0
LINE
  5
23E
100
AcDbEntity
  8
2
  6
CONTINUOUS
 62
     0
100
AcDbLine
 10
8.20000000000005
 20
-44.999999999999
 11
19.2
 21
-44.999999999999
  0
LINE
  5
23F
100
AcDbEntity
  8
2
  6
CONTINUOUS
 62
     0
100
AcDbLine
 10
19.2
 20
-44.8440704411421
 11
19.7
 21
-44.3396406818937
  0
LINE
  5
240
100
AcDbEntity
  8
2
  6
CONTINUOUS
 62
     0
100
AcDbLine
 10
19.7
 20
-44.499999999999
 11
19.2
 21
-45.0
  0
LINE
  5
241
100
AcDbEntity
  8
2
  6
CONTINUOUS
 62
     0
100
AcDbLine
 10
19.2
 20
-45.0
 11
19.2
 21
-44.8440704411421
  0
LINE
  5
242
100
AcDbEntity
  8
2
  6
CONTINUOUS
 62
     0
100
AcDbLine
 10
19.2
 20
19.6461242224581
 11
19.2
 21
25.2720332436992
  0
LINE
  5
243
100
AcDbEntity
  8
2
  6
CONTINUOUS
 62
     0
100
AcDbLine
 10
19.2
 20
19.6461242224581
 11
19.7
 21
18.9010746869769
  0
LINE
  5
244
100
AcDbEntity
  8
2
  6
CONTINUOUS
 62
     0
100
AcDbLine
 10
19.2
 20
25.2720332436992
 11
19.7
 21
25.4385659949193
  0
LINE
  5
245
100
AcDbEntity
  8
2
  6
CONTINUOUS
 62
     0
100
AcDbLine
 10
109.0
 20
25.4385659949193
 11
109.5
 21
25.2720332436992
  0
LINE
  5
246
100
AcDbEntity
  8
2
  6
CONTINUOUS
 62
     0
100
AcDbLine
 10
109.5
 20
19.6461242224581
 11
109.0
 21
18.9010746869769
  0
LINE
  5
247
100
AcDbEntity
  8
2
  6
CONTINUOUS
 62
     0
100
AcDbLine
 10
109.5
 20
-45.0
 11
109.5
 21
-44.8440704411421
  0
LINE
  5
248
100
AcDbEntity
  8
2
  6
CONTINUOUS
 62
     0
100
AcDbLine
 10
109.5
 20
19.6461242224581
 11
109.5
 21
25.2720332436992
  0
LINE
  5
249
100
AcDbEntity
  8
2
  6
CONTINUOUS
 62
     0
100
AcDbLine
 10
117.5
 20
-45.0
 11
117.5
 21
-44.8440704411421
  0
LINE
  5
24A
100
AcDbEntity
  8
2
  6
CONTINUOUS
 62
     0
100
AcDbLine
 10
117.5
 20
19.6461242224581
 11
117.5
 21
25.2720332436992
  0
LINE
  5
24B
100
AcDbEntity
  8
2
  6
CONTINUOUS
 62
     0
100
AcDbLine
 10
117.5
 20
19.6461242224581
 11
118.0
 21
18.9010746869769
  0
LINE
  5
24C
100
AcDbEntity
  8
2
  6
CONTINUOUS
 62
     0
100
AcDbLine
 10
117.5
 20
25.2720332436992
 11
118.0
 21
25.4385659949193
  0
LINE
  5
24D
100
AcDbEntity
  8
2
  6
CONTINUOUS
 62
     0
100
AcDbLine
 10
109.5
 20
-45.0
 11
109.0
 21
-44.499999999999
  0
LINE
  5
24E
100
AcDbEntity
  8
2
  6
CONTINUOUS
 62
     0
100
AcDbLine
 10
109.5
 20
-44.8440704411421
 11
109.0
 21
-44.3396406818937
  0
LINE
  5
24F
100
AcDbEntity
  8
2
  6
CONTINUOUS
 62
     0
100
AcDbLine
 10
117.5
 20
-44.8440704411421
 11
118.0
 21
-44.3396406818937
  0
LINE
  5
250
100
AcDbEntity
  8
2
  6
CONTINUOUS
 62
     0
100
AcDbLine
 10
118.0
 20
-44.499999999999
 11
117.5
 21
-45.0
  0
LINE
  5
251
100
AcDbEntity
  8
2
  6
CONTINUOUS
 62
     0
100
AcDbLine
 10
124.5
 20
-44.8440704411421
 11
125.0
 21
-44.3396406818937
  0
LINE
  5
252
100
AcDbEntity
  8
2
  6
CONTINUOUS
 62
     0
100
AcDbLine
 10
125.0
 20
-44.499999999999
 11
124.5
 21
-45.0
  0
LINE
  5
253
100
AcDbEntity
  8
2
  6
CONTINUOUS
 62
     0
100
AcDbLine
 10
124.5
 20
-45.0
 11
124.5
 21
-44.8440704411421
  0
LINE
  5
254
100
AcDbEntity
  8
2
  6
CONTINUOUS
 62
     0
100
AcDbLine
 10
124.5
 20
19.6461242224581
 11
124.5
 21
25.2720332436992
  0
LINE
  5
255
100
AcDbEntity
  8
2
  6
CONTINUOUS
 62
     0
100
AcDbLine
 10
118.5
 20
-44.8440704411421
 11
118.0
 21
-44.3396406818937
  0
LINE
  5
256
100
AcDbEntity
  8
2
  6
CONTINUOUS
 62
     0
100
AcDbLine
 10
118.5
 20
-45.0
 11
118.0
 21
-44.499999999999
  0
LINE
  5
257
100
AcDbEntity
  8
2
  6
CONTINUOUS
 62
     0
100
AcDbLine
 10
118.5
 20
-45.0
 11
118.5
 21
-44.8440704411421
  0
LINE
  5
258
100
AcDbEntity
  8
2
  6
CONTINUOUS
 62
     0
100
AcDbLine
 10
118.5
 20
19.6461242224581
 11
118.5
 21
25.2720332436992
  0
LINE
  5
259
100
AcDbEntity
  8
2
  6
CONTINUOUS
 62
     0
100
AcDbLine
 10
109.5
 20
-44.8440704411421
 11
117.5
 21
-44.8440704411421
  0
LINE
  5
25A
100
AcDbEntity
  8
2
  6
CONTINUOUS
 62
     0
100
AcDbLine
 10
118.5
 20
-44.8440704411421
 11
124.5
 21
-44.8440704411421
  0
LINE
  5
25B
100
AcDbEntity
  8
2
  6
CONTINUOUS
 62
     0
100
AcDbLine
 10
109.5
 20
-44.999999999999
 11
117.5
 21
-44.999999999999
  0
LINE
  5
25C
100
AcDbEntity
  8
2
  6
CONTINUOUS
 62
     0
100
AcDbLine
 10
118.5
 20
-44.999999999999
 11
124.5
 21
-44.999999999999
  0
LINE
  5
25D
100
AcDbEntity
  8
2
  6
CONTINUOUS
 62
     0
100
AcDbLine
 10
124.5
 20
19.6461242224581
 11
125.0
 21
18.9010746869769
  0
LINE
  5
25E
100
AcDbEntity
  8
2
  6
CONTINUOUS
 62
     0
100
AcDbLine
 10
124.5
 20
25.2720332436992
 11
125.0
 21
25.4385659949193
  0
LINE
  5
25F
100
AcDbEntity
  8
2
  6
CONTINUOUS
 62
     0
100
AcDbLine
 10
118.5
 20
19.6461242224581
 11
118.0
 21
18.9010746869769
  0
LINE
  5
260
100
AcDbEntity
  8
2
  6
CONTINUOUS
 62
     0
100
AcDbLine
 10
118.0
 20
25.4385659949193
 11
118.5
 21
25.2720332436992
  0
LINE
  5
261
100
AcDbEntity
  8
2
  6
CONTINUOUS
 62
     0
100
AcDbLine
 10
109.5
 20
25.2720332436992
 11
117.5
 21
25.2720332436992
  0
LINE
  5
262
100
AcDbEntity
  8
2
  6
CONTINUOUS
 62
     0
100
AcDbLine
 10
118.5
 20
25.2720332436992
 11
124.5
 21
25.2720332436992
  0
LINE
  5
263
100
AcDbEntity
  8
2
  6
CONTINUOUS
 62
     0
100
AcDbLine
 10
109.5
 20
19.6461242224581
 11
117.5
 21
19.6461242224581
  0
LINE
  5
264
100
AcDbEntity
  8
2
  6
CONTINUOUS
 62
     0
100
AcDbLine
 10
118.5
 20
19.6461242224581
 11
124.5
 21
19.6461242224581
  0
ENDBLK
  5
265
100
AcDbEntity
  8
2
100
AcDbBlockEnd
  0
BLOCK
  5
109
100
AcDbEntity
  8
2
100
AcDbBlockBegin
  2
SUB2
 70
    64
 10
0.0
 20
0.0
  0
LINE
  5
10A
100
AcDbEntity
  8
2
  6
CONTINUOUS
 62
     0
100
AcDbLine
 10
0.0
 20
-5.0
 11
0.0
 21
5.0
  0
LINE
  5
10B
100
AcDbEntity
  8
2
  6
CONTINUOUS
 62
     0
100
AcDbLine
 10
-1.5
 20
-5.0
 11
-1.5
 21
5.0
  0
LINE
  5
10C
100
AcDbEntity
  8
2
  6
CONTINUOUS
 62
     0
100
AcDbLine
 10
-7.09999999999991
 20
5.0
 11
0.0
 21
5.0
  0
LINE
  5
10D
100
AcDbEntity
  8
2
  6
CONTINUOUS
 62
     0
100
AcDbLine
 10
-7.09999999999991
 20
-5.0
 11
0.0
 21
-5.0
  0
LINE
  5
10E
100
AcDbEntity
  8
2
  6
CONTINUOUS
 62
     0
100
AcDbLine
 10
-7.5
 20
-4.307179676972
 11
-7.5
 21
4.30717967697296
  0
LINE
  5
10F
100
AcDbEntity
  8
2
  6
CONTINUOUS
 62
     0
100
AcDbLine
 10
-7.09999999999991
 20
-5.0
 11
-7.09999999999991
 21
5.0
  0
LINE
  5
110
100
AcDbEntity
  8
2
  6
CONTINUOUS
 62
     0
100
AcDbLine
 10
-7.09999999999991
 20
-5.0
 11
-7.5
 21
-4.307179676972
  0
LINE
  5
111
100
AcDbEntity
  8
2
  6
CONTINUOUS
 62
     0
100
AcDbLine
 10
-7.09999999999991
 20
5.0
 11
-7.5
 21
4.30717967697296
  0
LINE
  5
112
100
AcDbEntity
  8
2
  6
CONTINUOUS
 62
     0
100
AcDbLine
 10
-1.5
 20
0.0
 11
0.0
 21
-2.08447098732
  0
LINE
  5
113
100
AcDbEntity
  8
2
  6
CONTINUOUS
 62
     0
100
AcDbLine
 10
0.0
 20
0.0
 11
-1.5
 21
2.06036782264698
  0
ENDBLK
  5
114
100
AcDbEntity
  8
2
100
AcDbBlockEnd
  0
BLOCK
  5
117
100
AcDbEntity
  8
2
100
AcDbBlockBegin
  2
SUB3
 70
    64
 10
0.0
 20
0.0
  0
LINE
  5
118
100
AcDbEntity
  8
2
  6
CONTINUOUS
 62
     0
100
AcDbLine
 10
0.0
 20
-5.0
 11
0.0
 21
5.0
  0
LINE
  5
119
100
AcDbEntity
  8
2
  6
CONTINUOUS
 62
     0
100
AcDbLine
 10
-1.5
 20
-5.0
 11
-1.5
 21
5.0
  0
LINE
  5
11A
100
AcDbEntity
  8
2
  6
CONTINUOUS
 62
     0
100
AcDbLine
 10
-7.09999999999991
 20
5.0
 11
0.0
 21
5.0
  0
LINE
  5
11B
100
AcDbEntity
  8
2
  6
CONTINUOUS
 62
     0
100
AcDbLine
 10
-7.09999999999991
 20
-5.0
 11
0.0
 21
-5.0
  0
LINE
  5
11C
100
AcDbEntity
  8
2
  6
CONTINUOUS
 62
     0
100
AcDbLine
 10
-7.5
 20
-4.307179676972
 11
-7.5
 21
4.30717967697296
  0
LINE
  5
11D
100
AcDbEntity
  8
2
  6
CONTINUOUS
 62
     0
100
AcDbLine
 10
-7.09999999999991
 20
-5.0
 11
-7.09999999999991
 21
5.0
  0
LINE
  5
11E
100
AcDbEntity
  8
2
  6
CONTINUOUS
 62
     0
100
AcDbLine
 10
-7.09999999999991
 20
-5.0
 11
-7.5
 21
-4.307179676972
  0
LINE
  5
11F
100
AcDbEntity
  8
2
  6
CONTINUOUS
 62
     0
100
AcDbLine
 10
-7.09999999999991
 20
5.0
 11
-7.5
 21
4.30717967697296
  0
LINE
  5
120
100
AcDbEntity
  8
2
  6
CONTINUOUS
 62
     0
100
AcDbLine
 10
-1.5
 20
0.0
 11
0.0
 21
-2.08447098732
  0
LINE
  5
121
100
AcDbEntity
  8
2
  6
CONTINUOUS
 62
     0
100
AcDbLine
 10
0.0
 20
0.0
 11
-1.5
 21
2.06036782264698
  0
ENDBLK
  5
122
100
AcDbEntity
  8
2
100
AcDbBlockEnd
  0
BLOCK
  5
125
100
AcDbEntity
  8
2
100
AcDbBlockBegin
  2
SUB4
 70
    64
 10
0.0
 20
0.0
  0
LINE
  5
126
100
AcDbEntity
  8
2
  6
CONTINUOUS
 62
     0
100
AcDbLine
 10
0.0
 20
-5.0
 11
0.0
 21
5.0
  0
LINE
  5
127
100
AcDbEntity
  8
2
  6
CONTINUOUS
 62
     0
100
AcDbLine
 10
1.5
 20
-5.0
 11
1.5
 21
5.0
  0
LINE
  5
128
100
AcDbEntity
  8
2
  6
CONTINUOUS
 62
     0
100
AcDbLine
 10
7.10000000000002
 20
5.0
 11
0.0
 21
5.0
  0
LINE
  5
129
100
AcDbEntity
  8
2
  6
CONTINUOUS
 62
     0
100
AcDbLine
 10
7.10000000000002
 20
-5.0
 11
0.0
 21
-5.0
  0
LINE
  5
12A
100
AcDbEntity
  8
2
  6
CONTINUOUS
 62
     0
100
AcDbLine
 10
7.5
 20
-4.307179676972
 11
7.5
 21
4.30717967697296
  0
LINE
  5
12B
100
AcDbEntity
  8
2
  6
CONTINUOUS
 62
     0
100
AcDbLine
 10
7.10000000000002
 20
-5.0
 11
7.10000000000002
 21
5.0
  0
LINE
  5
12C
100
AcDbEntity
  8
2
  6
CONTINUOUS
 62
     0
100
AcDbLine
 10
7.10000000000002
 20
-5.0
 11
7.5
 21
-4.307179676972
  0
LINE
  5
12D
100
AcDbEntity
  8
2
  6
CONTINUOUS
 62
     0
100
AcDbLine
 10
7.10000000000002
 20
5.0
 11
7.5
 21
4.30717967697296
  0
LINE
  5
12E
100
AcDbEntity
  8
2
  6
CONTINUOUS
 62
     0
100
AcDbLine
 10
1.5
 20
0.0
 11
0.0
 21
-2.08447098732
  0
LINE
  5
12F
100
AcDbEntity
  8
2
  6
CONTINUOUS
 62
     0
100
AcDbLine
 10
0.0
 20
0.0
 11
1.5
 21
2.06036782264698
  0
ENDBLK
  5
130
100
AcDbEntity
  8
2
100
AcDbBlockEnd
  0
BLOCK
  5
133
100
AcDbEntity
  8
2
100
AcDbBlockBegin
  2
SUB5
 70
    64
 10
0.0
 20
0.0
  0
LINE
  5
134
100
AcDbEntity
  8
2
  6
CONTINUOUS
 62
     0
100
AcDbLine
 10
0.0
 20
-5.0
 11
0.0
 21
5.0
  0
LINE
  5
135
100
AcDbEntity
  8
2
  6
CONTINUOUS
 62
     0
100
AcDbLine
 10
1.5
 20
-5.0
 11
1.5
 21
5.0
  0
LINE
  5
136
100
AcDbEntity
  8
2
  6
CONTINUOUS
 62
     0
100
AcDbLine
 10
7.10000000000002
 20
5.0
 11
0.0
 21
5.0
  0
LINE
  5
137
100
AcDbEntity
  8
2
  6
CONTINUOUS
 62
     0
100
AcDbLine
 10
7.10000000000002
 20
-5.0
 11
0.0
 21
-5.0
  0
LINE
  5
138
100
AcDbEntity
  8
2
  6
CONTINUOUS
 62
     0
100
AcDbLine
 10
7.5
 20
-4.307179676972
 11
7.5
 21
4.30717967697296
  0
LINE
  5
139
100
AcDbEntity
  8
2
  6
CONTINUOUS
 62
     0
100
AcDbLine
 10
7.10000000000002
 20
-5.0
 11
7.10000000000002
 21
5.0
  0
LINE
  5
13A
100
AcDbEntity
  8
2
  6
CONTINUOUS
 62
     0
100
AcDbLine
 10
7.10000000000002
 20
-5.0
 11
7.5
 21
-4.307179676972
  0
LINE
  5
13B
100
AcDbEntity
  8
2
  6
CONTINUOUS
 62
     0
100
AcDbLine
 10
7.10000000000002
 20
5.0
 11
7.5
 21
4.30717967697296
  0
LINE
  5
13C
100
AcDbEntity
  8
2
  6
CONTINUOUS
 62
     0
100
AcDbLine
 10
1.5
 20
0.0
 11
0.0
 21
-2.08447098732
  0
LINE
  5
13D
100
AcDbEntity
  8
2
  6
CONTINUOUS
 62
     0
100
AcDbLine
 10
0.0
 20
0.0
 11
1.5
 21
2.06036782264698
  0
ENDBLK
  5
13E
100
AcDbEntity
  8
2
100
AcDbBlockEnd
  0
BLOCK
  5
1B2
100
AcDbEntity
  8
2
100
AcDbBlockBegin
  2
SUB6
 70
    64
 10
0.0
 20
0.0
  0
LINE
  5
1B3
100
AcDbEntity
  8
2
  6
CONTINUOUS
 62
     0
100
AcDbLine
 10
0.0
 20
5.0
 11
0.0
 21
-5.0
  0
LINE
  5
1B4
100
AcDbEntity
  8
2
  6
CONTINUOUS
 62
     0
100
AcDbLine
 10
1.5
 20
5.0
 11
1.5
 21
-5.0
  0
LINE
  5
1B5
100
AcDbEntity
  8
2
  6
CONTINUOUS
 62
     0
100
AcDbLine
 10
7.10000000000002
 20
-5.0
 11
0.0
 21
-5.0
  0
LINE
  5
1B6
100
AcDbEntity
  8
2
  6
CONTINUOUS
 62
     0
100
AcDbLine
 10
7.10000000000002
 20
5.0
 11
0.0
 21
5.0
  0
LINE
  5
1B7
100
AcDbEntity
  8
2
  6
CONTINUOUS
 62
     0
100
AcDbLine
 10
7.5
 20
4.30717967697296
 11
7.5
 21
-4.30717967697205
  0
LINE
  5
1B8
100
AcDbEntity
  8
2
  6
CONTINUOUS
 62
     0
100
AcDbLine
 10
7.10000000000002
 20
5.0
 11
7.10000000000002
 21
-5.0
  0
LINE
  5
1B9
100
AcDbEntity
  8
2
  6
CONTINUOUS
 62
     0
100
AcDbLine
 10
7.10000000000002
 20
5.0
 11
7.5
 21
4.30717967697296
  0
LINE
  5
1BA
100
AcDbEntity
  8
2
  6
CONTINUOUS
 62
     0
100
AcDbLine
 10
7.10000000000002
 20
-5.0
 11
7.5
 21
-4.30717967697205
  0
LINE
  5
1BB
100
AcDbEntity
  8
2
  6
CONTINUOUS
 62
     0
100
AcDbLine
 10
1.5
 20
0.0
 11
0.0
 21
2.08447098731995
  0
LINE
  5
1BC
100
AcDbEntity
  8
2
  6
CONTINUOUS
 62
     0
100
AcDbLine
 10
0.0
 20
0.0
 11
1.5
 21
-2.06036782264709
  0
ENDBLK
  5
1BD
100
AcDbEntity
  8
2
100
AcDbBlockEnd
  0
BLOCK
  5
1E8
100
AcDbEntity
  8
2
100
AcDbBlockBegin
  2
SUB7
 70
    64
 10
0.0
 20
0.0
  0
LINE
  5
1E9
100
AcDbEntity
  8
2
  6
CONTINUOUS
 62
     0
100
AcDbLine
 10
0.0
 20
5.0
 11
0.0
 21
-5.0
  0
LINE
  5
1EA
100
AcDbEntity
  8
2
  6
CONTINUOUS
 62
     0
100
AcDbLine
 10
1.5
 20
5.0
 11
1.5
 21
-5.0
  0
LINE
  5
1EB
100
AcDbEntity
  8
2
  6
CONTINUOUS
 62
     0
100
AcDbLine
 10
7.10000000000002
 20
-5.0
 11
0.0
 21
-5.0
  0
LINE
  5
1EC
100
AcDbEntity
  8
2
  6
CONTINUOUS
 62
     0
100
AcDbLine
 10
7.10000000000002
 20
5.0
 11
0.0
 21
5.0
  0
LINE
  5
1ED
100
AcDbEntity
  8
2
  6
CONTINUOUS
 62
     0
100
AcDbLine
 10
7.5
 20
4.30717967697296
 11
7.5
 21
-4.30717967697205
  0
LINE
  5
1EE
100
AcDbEntity
  8
2
  6
CONTINUOUS
 62
     0
100
AcDbLine
 10
7.10000000000002
 20
5.0
 11
7.10000000000002
 21
-5.0
  0
LINE
  5
1EF
100
AcDbEntity
  8
2
  6
CONTINUOUS
 62
     0
100
AcDbLine
 10
7.10000000000002
 20
5.0
 11
7.5
 21
4.30717967697296
  0
LINE
  5
1F0
100
AcDbEntity
  8
2
  6
CONTINUOUS
 62
     0
100
AcDbLine
 10
7.10000000000002
 20
-5.0
 11
7.5
 21
-4.30717967697205
  0
LINE
  5
1F1
100
AcDbEntity
  8
2
  6
CONTINUOUS
 62
     0
100
AcDbLine
 10
1.5
 20
0.0
 11
0.0
 21
2.08447098731995
  0
LINE
  5
1F2
100
AcDbEntity
  8
2
  6
CONTINUOUS
 62
     0
100
AcDbLine
 10
0.0
 20
0.0
 11
1.5
 21
-2.06036782264709
  0
ENDBLK
  5
1F3
100
AcDbEntity
  8
2
100
AcDbBlockEnd
  0
BLOCK
  5
201
100
AcDbEntity
  8
2
100
AcDbBlockBegin
  2
SUB8
 70
    64
 10
0.0
 20
0.0
  0
LINE
  5
202
100
AcDbEntity
  8
2
  6
CONTINUOUS
 62
     0
100
AcDbLine
 10
-2.75
 20
0.0
 11
2.75
 21
0.0
  0
LINE
  5
203
100
AcDbEntity
  8
2
  6
CONTINUOUS
 62
     0
100
AcDbLine
 10
-2.75
 20
0.700000000000045
 11
2.75
 21
0.700000000000045
  0
LINE
  5
204
100
AcDbEntity
  8
2
  6
CONTINUOUS
 62
     0
100
AcDbLine
 10
2.75
 20
3.5
 11
2.75
 21
0.0
  0
LINE
  5
205
100
AcDbEntity
  8
2
  6
CONTINUOUS
 62
     0
100
AcDbLine
 10
-2.75
 20
3.5
 11
-2.75
 21
0.0
  0
LINE
  5
206
100
AcDbEntity
  8
2
  6
CONTINUOUS
 62
     0
100
AcDbLine
 10
-2.40358983848623
 20
3.70000000000005
 11
2.40358983848623
 21
3.70000000000005
  0
LINE
  5
207
100
AcDbEntity
  8
2
  6
CONTINUOUS
 62
     0
100
AcDbLine
 10
-2.75
 20
3.5
 11
2.75
 21
3.5
  0
LINE
  5
208
100
AcDbEntity
  8
2
  6
CONTINUOUS
 62
     0
100
AcDbLine
 10
2.75
 20
3.5
 11
2.40358983848623
 21
3.70000000000005
  0
LINE
  5
209
100
AcDbEntity
  8
2
  6
CONTINUOUS
 62
     0
100
AcDbLine
 10
-2.75
 20
3.5
 11
-2.40358983848623
 21
3.70000000000005
  0
LINE
  5
20A
100
AcDbEntity
  8
2
  6
CONTINUOUS
 62
     0
100
AcDbLine
 10
0.0
 20
0.700000000000045
 11
-0.885575294494629
 21
0.0
  0
LINE
  5
20B
100
AcDbEntity
  8
2
  6
CONTINUOUS
 62
     0
100
AcDbLine
 10
0.0
 20
0.0
 11
0.883089601993561
 21
0.700000000000045
  0
ENDBLK
  5
20C
100
AcDbEntity
  8
2
100
AcDbBlockEnd
  0
BLOCK
  5
20F
100
AcDbEntity
  8
2
100
AcDbBlockBegin
  2
SUB9
 70
    64
 10
0.0
 20
0.0
  0
LINE
  5
210
100
AcDbEntity
  8
2
  6
CONTINUOUS
 62
     0
100
AcDbLine
 10
-2.75
 20
0.0
 11
2.75
 21
0.0
  0
LINE
  5
211
100
AcDbEntity
  8
2
  6
CONTINUOUS
 62
     0
100
AcDbLine
 10
-2.75
 20
0.700000000000045
 11
2.75
 21
0.700000000000045
  0
LINE
  5
212
100
AcDbEntity
  8
2
  6
CONTINUOUS
 62
     0
100
AcDbLine
 10
2.75
 20
3.5
 11
2.75
 21
0.0
  0
LINE
  5
213
100
AcDbEntity
  8
2
  6
CONTINUOUS
 62
     0
100
AcDbLine
 10
-2.75
 20
3.5
 11
-2.75
 21
0.0
  0
LINE
  5
214
100
AcDbEntity
  8
2
  6
CONTINUOUS
 62
     0
100
AcDbLine
 10
-2.40358983848623
 20
3.70000000000005
 11
2.40358983848623
 21
3.70000000000005
  0
LINE
  5
215
100
AcDbEntity
  8
2
  6
CONTINUOUS
 62
     0
100
AcDbLine
 10
-2.75
 20
3.5
 11
2.75
 21
3.5
  0
LINE
  5
216
100
AcDbEntity
  8
2
  6
CONTINUOUS
 62
     0
100
AcDbLine
 10
2.75
 20
3.5
 11
2.40358983848623
 21
3.70000000000005
  0
LINE
  5
217
100
AcDbEntity
  8
2
  6
CONTINUOUS
 62
     0
100
AcDbLine
 10
-2.75
 20
3.5
 11
-2.40358983848623
 21
3.70000000000005
  0
LINE
  5
218
100
AcDbEntity
  8
2
  6
CONTINUOUS
 62
     0
100
AcDbLine
 10
0.0
 20
0.700000000000045
 11
-0.885575294494629
 21
0.0
  0
LINE
  5
219
100
AcDbEntity
  8
2
  6
CONTINUOUS
 62
     0
100
AcDbLine
 10
0.0
 20
0.0
 11
0.883089601993561
 21
0.700000000000045
  0
ENDBLK
  5
21A
100
AcDbEntity
  8
2
100
AcDbBlockEnd
  0
BLOCK
  5
268
100
AcDbEntity
  8
8
100
AcDbBlockBegin
  2
SUB10
 70
    64
 10
0.0
 20
0.0
  0
ARC
  5
269
100
AcDbEntity
  8
2
  6
CONTINUOUS
 62
     0
100
AcDbCircle
 10
468.500000000001
 20
29.0
 40
2.0
100
AcDbArc
 50
0.0
 51
90.0
  0
ARC
  5
26A
100
AcDbEntity
  8
2
  6
CONTINUOUS
 62
     0
100
AcDbCircle
 10
468.500000000001
 20
-29.0
 40
2.0
100
AcDbArc
 50
270.0
 51
0.0
  0
LINE
  5
26B
100
AcDbEntity
  8
2
  6
CONTINUOUS
 62
     0
100
AcDbLine
 10
420.500000000001
 20
17.5
 11
470.500000000001
 21
17.5
  0
LINE
  5
26C
100
AcDbEntity
  8
2
  6
CONTINUOUS
 62
     0
100
AcDbLine
 10
396.000000000001
 20
10.0
 11
410.500000000001
 21
10.0
  0
LINE
  5
26D
100
AcDbEntity
  8
2
  6
CONTINUOUS
 62
     0
100
AcDbLine
 10
396.000000000001
 20
-10.0
 11
410.500000000001
 21
-10.0
  0
INSERT
  5
26F
100
AcDbEntity
  8
2
  6
CONTINUOUS
 62
     0
100
AcDbBlockReference
  2
SUB11
 10
396.000000000001
 20
0.0
 41
1.0
 42
1.0
 50
0.0
  0
LINE
  5
27C
100
AcDbEntity
  8
7
  6
CENTER2
 62
    40
100
AcDbLine
 10
455.500000000001
 20
-11.929251675516
 11
455.500000000001
 21
12.374930273759
  0
LINE
  5
27D
100
AcDbEntity
  8
7
  6
CENTER2
 62
    40
100
AcDbLine
 10
432.5
 20
-11.929251675516
 11
432.5
 21
12.374930273759
  0
ARC
  5
27E
100
AcDbEntity
  8
2
  6
CONTINUOUS
 62
     0
100
AcDbCircle
 10
416.499999999998
 20
0.0
 40
20.299999999999
100
AcDbArc
 50
270.0
 51
0.0
  0
LINE
  5
27F
100
AcDbEntity
  8
2
  6
CONTINUOUS
 62
     0
100
AcDbLine
 10
416.499999999998
 20
-20.299999999999
 11
167.5
 21
-20.299999999999
  0
ARC
  5
280
100
AcDbEntity
  8
2
  6
CONTINUOUS
 62
     0
100
AcDbCircle
 10
416.499999999998
 20
0.0
 40
11.699999999999
100
AcDbArc
 50
270.0
 51
0.0
  0
LINE
  5
281
100
AcDbEntity
  8
2
  6
CONTINUOUS
 62
     0
100
AcDbLine
 10
167.5
 20
-11.699999999999
 11
416.499999999998
 21
-11.699999999999
  0
LINE
  5
282
100
AcDbEntity
  8
2
  6
CONTINUOUS
 62
     0
100
AcDbLine
 10
420.500000000001
 20
-10.994998863118
 11
420.500000000001
 21
17.5
  0
LINE
  5
283
100
AcDbEntity
  8
2
  6
CONTINUOUS
 62
     0
100
AcDbLine
 10
426.787856919686
 20
-17.5
 11
470.500000000001
 21
-17.5
  0
ARC
  5
284
100
AcDbEntity
  8
2
  6
CONTINUOUS
 62
     0
100
AcDbCircle
 10
432.5
 20
0.0
 40
8.20000000000005
100
AcDbArc
 50
0.0
 51
224.750819595107
  0
ARC
  5
285
100
AcDbEntity
  8
2
  6
CONTINUOUS
 62
     0
100
AcDbCircle
 10
432.5
 20
0.0
 40
8.19999999999999
100
AcDbArc
 50
289.791917046984
 51
0.0
  0
ARC
  5
286
100
AcDbEntity
  8
2
  6
CONTINUOUS
 62
     0
100
AcDbCircle
 10
432.5
 20
0.0
 40
4.29999999999995
100
AcDbArc
 50
0.0
 51
180.0
  0
LINE
  5
287
100
AcDbEntity
  8
2
  6
CONTINUOUS
 62
     0
100
AcDbLine
 10
410.500000000001
 20
-31.0
 11
410.500000000001
 21
-20.299999999999
  0
LINE
  5
288
100
AcDbEntity
  8
2
  6
CONTINUOUS
 62
     0
100
AcDbLine
 10
410.500000000001
 20
-11.699999999999
 11
410.500000000001
 21
31.0
  0
LINE
  5
289
100
AcDbEntity
  8
2
  6
CONTINUOUS
 62
     0
100
AcDbLine
 10
404.000000000001
 20
-31.0
 11
404.000000000001
 21
-20.299999999999
  0
LINE
  5
28A
100
AcDbEntity
  8
2
  6
CONTINUOUS
 62
     0
100
AcDbLine
 10
404.000000000001
 20
-11.699999999999
 11
404.000000000001
 21
31.0
  0
LINE
  5
28B
100
AcDbEntity
  8
2
  6
CONTINUOUS
 62
     0
100
AcDbLine
 10
396.000000000001
 20
-31.0
 11
396.000000000001
 21
-20.299999999999
  0
LINE
  5
28C
100
AcDbEntity
  8
2
  6
CONTINUOUS
 62
     0
100
AcDbLine
 10
396.000000000001
 20
-11.699999999999
 11
396.000000000001
 21
31.0
  0
ARC
  5
28D
100
AcDbEntity
  8
7
  6
CENTER2
 62
    40
100
AcDbCircle
 10
416.499999999998
 20
0.0
 40
15.999999999999
100
AcDbArc
 50
270.0
 51
0.0
  0
LINE
  5
28E
100
AcDbEntity
  8
7
  6
CENTER2
 62
    40
100
AcDbLine
 10
416.299999999998
 20
-16.0
 11
88.626048808838
 21
-16.0
  0
ARC
  5
28F
100
AcDbEntity
  8
2
  6
CONTINUOUS
 62
     0
100
AcDbCircle
 10
455.500000000001
 20
0.0
 40
6.20000000000005
100
AcDbArc
 50
90.0
 51
270.0
  0
ARC
  5
290
100
AcDbEntity
  8
2
  6
CONTINUOUS
 62
     0
100
AcDbCircle
 10
455.500000000001
 20
0.0
 40
11.3
100
AcDbArc
 50
33.2759930575036
 51
326.724006942496
  0
LINE
  5
291
100
AcDbEntity
  8
2
  6
CONTINUOUS
 62
     0
100
AcDbLine
 10
470.500000000001
 20
-29.0
 11
470.500000000001
 21
-6.20000000000005
  0
LINE
  5
292
100
AcDbEntity
  8
2
  6
CONTINUOUS
 62
     0
100
AcDbLine
 10
470.500000000001
 20
6.19999999999999
 11
470.500000000001
 21
29.0
  0
LINE
  5
293
100
AcDbEntity
  8
2
  6
CONTINUOUS
 62
     0
100
AcDbLine
 10
520.600000000001
 20
-15.0
 11
520.600000000001
 21
-16.0
  0
LINE
  5
294
100
AcDbEntity
  8
2
  6
CONTINUOUS
 62
     0
100
AcDbLine
 10
520.600000000001
 20
15.0
 11
520.600000000001
 21
16.0
  0
ARC
  5
295
100
AcDbEntity
  8
2
  6
CONTINUOUS
 62
     0
100
AcDbCircle
 10
514.100000000001
 20
-10.5
 40
5.50000000000011
100
AcDbArc
 50
270.0
 51
0.0
  0
LINE
  5
296
100
AcDbEntity
  8
2
  6
CONTINUOUS
 62
     0
100
AcDbLine
 10
519.600000000001
 20
-10.5
 11
519.600000000001
 21
10.5
  0
ARC
  5
297
100
AcDbEntity
  8
2
  6
CONTINUOUS
 62
     0
100
AcDbCircle
 10
514.100000000001
 20
10.5
 40
5.50000000000011
100
AcDbArc
 50
0.0
 51
90.0
  0
LINE
  5
298
100
AcDbEntity
  8
2
  6
CONTINUOUS
 62
     0
100
AcDbLine
 10
519.600000000001
 20
-7.5
 11
508.600000000001
 21
-7.5
  0
LINE
  5
299
100
AcDbEntity
  8
2
  6
CONTINUOUS
 62
     0
100
AcDbLine
 10
519.600000000001
 20
7.5
 11
508.600000000001
 21
7.5
  0
CIRCLE
  5
29A
100
AcDbEntity
  8
2
  6
CONTINUOUS
 62
     0
100
AcDbCircle
 10
514.100000000001
 20
-12.0
 40
1.5
  0
CIRCLE
  5
29B
100
AcDbEntity
  8
2
  6
CONTINUOUS
 62
     0
100
AcDbCircle
 10
514.100000000001
 20
12.0
 40
3.0
  0
LINE
  5
29C
100
AcDbEntity
  8
2
  6
CONTINUOUS
 62
     0
100
AcDbLine
 10
515.783000000001
 20
10.085
 11
513.283000000001
 21
14.415
  0
LINE
  5
29D
100
AcDbEntity
  8
2
  6
CONTINUOUS
 62
     0
100
AcDbLine
 10
513.283000000001
 20
14.415
 11
512.417000000001
 21
13.915
  0
LINE
  5
29E
100
AcDbEntity
  8
2
  6
CONTINUOUS
 62
     0
100
AcDbLine
 10
512.417000000001
 20
13.915
 11
514.917000000001
 21
9.58499999999998
  0
LINE
  5
29F
100
AcDbEntity
  8
2
  6
CONTINUOUS
 62
     0
100
AcDbLine
 10
514.917000000001
 20
9.58499999999998
 11
515.783000000001
 21
10.085
  0
LINE
  5
2A0
100
AcDbEntity
  8
2
  6
CONTINUOUS
 62
     0
100
AcDbLine
 10
535.100000000001
 20
-11.5
 11
535.100000000001
 21
11.5
  0
LINE
  5
2A1
100
AcDbEntity
  8
2
  6
CONTINUOUS
 62
     0
100
AcDbLine
 10
521.100000000001
 20
-9.0
 11
532.100000000001
 21
-9.0
  0
LINE
  5
2A2
100
AcDbEntity
  8
2
  6
CONTINUOUS
 62
     0
100
AcDbLine
 10
532.100000000001
 20
-6.0
 11
521.100000000001
 21
-6.0
  0
LINE
  5
2A3
100
AcDbEntity
  8
2
  6
CONTINUOUS
 62
     0
100
AcDbLine
 10
532.100000000001
 20
-9.0
 11
532.100000000001
 21
-6.0
  0
LINE
  5
2A4
100
AcDbEntity
  8
2
  6
CONTINUOUS
 62
     0
100
AcDbLine
 10
521.100000000001
 20
-6.0
 11
521.100000000001
 21
-9.0
  0
LINE
  5
2A5
100
AcDbEntity
  8
2
  6
CONTINUOUS
 62
     0
100
AcDbLine
 10
520.600000000001
 20
15.0
 11
520.600000000001
 21
-15.0
  0
LINE
  5
2A6
100
AcDbEntity
  8
2
  6
CONTINUOUS
 62
     0
100
AcDbLine
 10
521.100000000001
 20
9.0
 11
532.100000000001
 21
9.0
  0
LINE
  5
2A7
100
AcDbEntity
  8
2
  6
CONTINUOUS
 62
     0
100
AcDbLine
 10
532.100000000001
 20
6.0
 11
521.100000000001
 21
6.0
  0
LINE
  5
2A8
100
AcDbEntity
  8
2
  6
CONTINUOUS
 62
     0
100
AcDbLine
 10
532.100000000001
 20
9.0
 11
532.100000000001
 21
6.0
  0
LINE
  5
2A9
100
AcDbEntity
  8
2
  6
CONTINUOUS
 62
     0
100
AcDbLine
 10
521.100000000001
 20
6.0
 11
521.100000000001
 21
9.0
  0
LINE
  5
2AA
100
AcDbEntity
  8
2
  6
CONTINUOUS
 62
     0
100
AcDbLine
 10
544.100000000001
 20
-6.5
 11
536.100000000001
 21
-6.5
  0
ARC
  5
2AB
100
AcDbEntity
  8
2
  6
CONTINUOUS
 62
     0
100
AcDbCircle
 10
536.100000000001
 20
-7.5
 40
1.0
100
AcDbArc
 50
90.0
 51
180.0
  0
LINE
  5
2AC
100
AcDbEntity
  8
2
  6
CONTINUOUS
 62
     0
100
AcDbLine
 10
536.100000000001
 20
-8.5
 11
544.100000000001
 21
-8.5
  0
POINT
  5
2AD
100
AcDbEntity
  8
2
  6
CONTINUOUS
 62
     0
100
AcDbPoint
 10
535.100000000001
 20
-7.5
  0
ARC
  5
2AE
100
AcDbEntity
  8
2
  6
CONTINUOUS
 62
     0
100
AcDbCircle
 10
536.100000000001
 20
-7.5
 40
1.0
100
AcDbArc
 50
180.0
 51
270.0
  0
LINE
  5
2AF
100
AcDbEntity
  8
2
  6
CONTINUOUS
 62
     0
100
AcDbLine
 10
544.100000000001
 20
6.5
 11
536.100000000001
 21
6.5
  0
ARC
  5
2B0
100
AcDbEntity
  8
2
  6
CONTINUOUS
 62
     0
100
AcDbCircle
 10
536.100000000001
 20
7.5
 40
1.0
100
AcDbArc
 50
180.0
 51
270.0
  0
LINE
  5
2B1
100
AcDbEntity
  8
2
  6
CONTINUOUS
 62
     0
100
AcDbLine
 10
536.100000000001
 20
8.5
 11
544.100000000001
 21
8.5
  0
ARC
  5
2B2
100
AcDbEntity
  8
2
  6
CONTINUOUS
 62
     0
100
AcDbCircle
 10
536.100000000001
 20
7.5
 40
1.0
100
AcDbArc
 50
90.0
 51
180.0
  0
ARC
  5
2B3
100
AcDbEntity
  8
2
  6
CONTINUOUS
 62
     0
100
AcDbCircle
 10
514.100000000001
 20
-10.5
 40
5.50000000000011
100
AcDbArc
 50
180.0
 51
270.0
  0
LINE
  5
2B4
100
AcDbEntity
  8
2
  6
CONTINUOUS
 62
     0
100
AcDbLine
 10
508.600000000001
 20
-10.5
 11
508.600000000001
 21
10.5
  0
LINE
  5
2B5
100
AcDbEntity
  8
2
  6
CONTINUOUS
 62
     0
100
AcDbLine
 10
520.600000000001
 20
-16.0
 11
514.100000000001
 21
-16.0
  0
ARC
  5
2B6
100
AcDbEntity
  8
2
  6
CONTINUOUS
 62
     0
100
AcDbCircle
 10
514.100000000001
 20
10.5
 40
5.50000000000011
100
AcDbArc
 50
90.0
 51
180.0
  0
LINE
  5
2B7
100
AcDbEntity
  8
2
  6
CONTINUOUS
 62
     0
100
AcDbLine
 10
520.600000000001
 20
16.0
 11
514.100000000001
 21
16.0
  0
LINE
  5
2B8
100
AcDbEntity
  8
2
  6
CONTINUOUS
 62
     0
100
AcDbLine
 10
531.600000000001
 20
15.0
 11
520.600000000001
 21
15.0
  0
ARC
  5
2B9
100
AcDbEntity
  8
2
  6
CONTINUOUS
 62
     0
100
AcDbCircle
 10
531.600000000001
 20
14.0
 40
1.0
100
AcDbArc
 50
0.0
 51
90.0
  0
ARC
  5
2BA
100
AcDbEntity
  8
2
  6
CONTINUOUS
 62
     0
100
AcDbCircle
 10
537.100000000001
 20
11.5
 40
1.99999999999994
100
AcDbArc
 50
90.0
 51
180.0
  0
LINE
  5
2BB
100
AcDbEntity
  8
2
  6
CONTINUOUS
 62
     0
100
AcDbLine
 10
544.600000000001
 20
13.5
 11
537.100000000001
 21
13.5
  0
LINE
  5
2BC
100
AcDbEntity
  8
2
  6
CONTINUOUS
 62
     0
100
AcDbLine
 10
532.600000000001
 20
11.5
 11
535.100000000001
 21
11.5
  0
LINE
  5
2BD
100
AcDbEntity
  8
2
  6
CONTINUOUS
 62
     0
100
AcDbLine
 10
532.600000000001
 20
-14.0
 11
532.600000000001
 21
14.0
  0
ARC
  5
2BE
100
AcDbEntity
  8
2
  6
CONTINUOUS
 62
     0
100
AcDbCircle
 10
531.600000000001
 20
-14.0
 40
1.0
100
AcDbArc
 50
270.0
 51
0.0
  0
LINE
  5
2BF
100
AcDbEntity
  8
2
  6
CONTINUOUS
 62
     0
100
AcDbLine
 10
520.600000000001
 20
-15.0
 11
531.600000000001
 21
-15.0
  0
LINE
  5
2C0
100
AcDbEntity
  8
2
  6
CONTINUOUS
 62
     0
100
AcDbLine
 10
532.600000000001
 20
-11.5
 11
535.100000000001
 21
-11.5
  0
ARC
  5
2C1
100
AcDbEntity
  8
2
  6
CONTINUOUS
 62
     0
100
AcDbCircle
 10
537.100000000001
 20
-11.5
 40
1.99999999999994
100
AcDbArc
 50
180.0
 51
270.0
  0
LINE
  5
2C2
100
AcDbEntity
  8
2
  6
CONTINUOUS
 62
     0
100
AcDbLine
 10
544.600000000001
 20
-13.5
 11
537.100000000001
 21
-13.5
  0
LINE
  5
2C3
100
AcDbEntity
  8
2
  6
CONTINUOUS
 62
     0
100
AcDbLine
 10
508.600000000001
 20
6.19999999999999
 11
455.500000000001
 21
6.19999999999999
  0
LINE
  5
2C4
100
AcDbEntity
  8
2
  6
CONTINUOUS
 62
     0
100
AcDbLine
 10
455.500000000001
 20
-6.20000000000005
 11
508.600000000001
 21
-6.20000000000005
  0
LINE
  5
2C5
100
AcDbEntity
  8
2
  6
CONTINUOUS
 62
     0
100
AcDbLine
 10
132.5
 20
-31.0
 11
468.500000000001
 21
-31.0
  0
LINE
  5
2C6
100
AcDbEntity
  8
6
  6
CENTER
 62
     0
100
AcDbLine
 10
-55.0
 20
0.0
 11
583.600000000001
 21
0.0
  0
LINE
  5
2C7
100
AcDbEntity
  8
2
  6
CONTINUOUS
 62
     0
100
AcDbLine
 10
556.600000000001
 20
17.0
 11
556.600000000001
 21
-17.0
  0
LINE
  5
2C8
100
AcDbEntity
  8
2
  6
CONTINUOUS
 62
     0
100
AcDbLine
 10
552.600000000001
 20
-12.5
 11
551.600000000001
 21
-12.5
  0
LINE
  5
2C9
100
AcDbEntity
  8
2
  6
CONTINUOUS
 62
     0
100
AcDbLine
 10
552.600000000001
 20
12.5
 11
551.600000000001
 21
12.5
  0
LINE
  5
2CA
100
AcDbEntity
  8
2
  6
CONTINUOUS
 62
     0
100
AcDbLine
 10
551.600000000001
 20
-16.5
 11
551.600000000001
 21
16.5
  0
LINE
  5
2CB
100
AcDbEntity
  8
2
  6
CONTINUOUS
 62
     0
100
AcDbLine
 10
566.600000000001
 20
-16.5
 11
566.600000000001
 21
16.5
  0
LINE
  5
2CC
100
AcDbEntity
  8
2
  6
CONTINUOUS
 62
     0
100
AcDbLine
 10
556.600000000001
 20
-16.5
 11
566.600000000001
 21
-16.5
  0
LINE
  5
2CD
100
AcDbEntity
  8
2
  6
CONTINUOUS
 62
     0
100
AcDbLine
 10
566.600000000001
 20
-15.0
 11
556.600000000001
 21
-15.0
  0
LINE
  5
2CE
100
AcDbEntity
  8
2
  6
CONTINUOUS
 62
     0
100
AcDbLine
 10
556.600000000001
 20
-13.5
 11
566.600000000001
 21
-13.5
  0
LINE
  5
2CF
100
AcDbEntity
  8
2
  6
CONTINUOUS
 62
     0
100
AcDbLine
 10
566.600000000001
 20
-12.0
 11
556.600000000001
 21
-12.0
  0
LINE
  5
2D0
100
AcDbEntity
  8
2
  6
CONTINUOUS
 62
     0
100
AcDbLine
 10
556.600000000001
 20
-10.5
 11
566.600000000001
 21
-10.5
  0
LINE
  5
2D1
100
AcDbEntity
  8
2
  6
CONTINUOUS
 62
     0
100
AcDbLine
 10
566.600000000001
 20
-9.0
 11
556.600000000001
 21
-9.0
  0
LINE
  5
2D2
100
AcDbEntity
  8
2
  6
CONTINUOUS
 62
     0
100
AcDbLine
 10
556.600000000001
 20
-7.5
 11
566.600000000001
 21
-7.5
  0
LINE
  5
2D3
100
AcDbEntity
  8
2
  6
CONTINUOUS
 62
     0
100
AcDbLine
 10
566.600000000001
 20
-6.0
 11
556.600000000001
 21
-6.0
  0
LINE
  5
2D4
100
AcDbEntity
  8
2
  6
CONTINUOUS
 62
     0
100
AcDbLine
 10
556.600000000001
 20
-4.5
 11
566.600000000001
 21
-4.5
  0
LINE
  5
2D5
100
AcDbEntity
  8
2
  6
CONTINUOUS
 62
     0
100
AcDbLine
 10
566.600000000001
 20
-3.0
 11
556.600000000001
 21
-3.0
  0
LINE
  5
2D6
100
AcDbEntity
  8
2
  6
CONTINUOUS
 62
     0
100
AcDbLine
 10
556.600000000001
 20
-1.5
 11
566.600000000001
 21
-1.5
  0
LINE
  5
2D7
100
AcDbEntity
  8
2
  6
CONTINUOUS
 62
     0
100
AcDbLine
 10
566.600000000001
 20
0.0
 11
556.600000000001
 21
0.0
  0
LINE
  5
2D8
100
AcDbEntity
  8
2
  6
CONTINUOUS
 62
     0
100
AcDbLine
 10
556.600000000001
 20
1.5
 11
566.600000000001
 21
1.5
  0
LINE
  5
2D9
100
AcDbEntity
  8
2
  6
CONTINUOUS
 62
     0
100
AcDbLine
 10
566.600000000001
 20
3.0
 11
556.600000000001
 21
3.0
  0
LINE
  5
2DA
100
AcDbEntity
  8
2
  6
CONTINUOUS
 62
     0
100
AcDbLine
 10
556.600000000001
 20
4.5
 11
566.600000000001
 21
4.5
  0
LINE
  5
2DB
100
AcDbEntity
  8
2
  6
CONTINUOUS
 62
     0
100
AcDbLine
 10
566.600000000001
 20
6.0
 11
556.600000000001
 21
6.0
  0
LINE
  5
2DC
100
AcDbEntity
  8
2
  6
CONTINUOUS
 62
     0
100
AcDbLine
 10
556.600000000001
 20
7.5
 11
566.600000000001
 21
7.5
  0
LINE
  5
2DD
100
AcDbEntity
  8
2
  6
CONTINUOUS
 62
     0
100
AcDbLine
 10
566.600000000001
 20
9.0
 11
556.600000000001
 21
9.0
  0
LINE
  5
2DE
100
AcDbEntity
  8
2
  6
CONTINUOUS
 62
     0
100
AcDbLine
 10
556.600000000001
 20
10.5
 11
566.600000000001
 21
10.5
  0
LINE
  5
2DF
100
AcDbEntity
  8
2
  6
CONTINUOUS
 62
     0
100
AcDbLine
 10
566.600000000001
 20
12.0
 11
556.600000000001
 21
12.0
  0
LINE
  5
2E0
100
AcDbEntity
  8
2
  6
CONTINUOUS
 62
     0
100
AcDbLine
 10
556.600000000001
 20
13.5
 11
566.600000000001
 21
13.5
  0
LINE
  5
2E1
100
AcDbEntity
  8
2
  6
CONTINUOUS
 62
     0
100
AcDbLine
 10
566.600000000001
 20
15.0
 11
556.600000000001
 21
15.0
  0
LINE
  5
2E2
100
AcDbEntity
  8
2
  6
CONTINUOUS
 62
     0
100
AcDbLine
 10
556.600000000001
 20
16.5
 11
566.600000000001
 21
16.5
  0
LINE
  5
2E3
100
AcDbEntity
  8
2
  6
CONTINUOUS
 62
     0
100
AcDbLine
 10
544.600000000001
 20
-15.0
 11
551.600000000001
 21
-15.0
  0
LINE
  5
2E4
100
AcDbEntity
  8
2
  6
CONTINUOUS
 62
     0
100
AcDbLine
 10
551.600000000001
 20
-13.5
 11
544.600000000001
 21
-13.5
  0
LINE
  5
2E5
100
AcDbEntity
  8
2
  6
CONTINUOUS
 62
     0
100
AcDbLine
 10
544.600000000001
 20
-12.0
 11
551.600000000001
 21
-12.0
  0
LINE
  5
2E6
100
AcDbEntity
  8
2
  6
CONTINUOUS
 62
     0
100
AcDbLine
 10
551.600000000001
 20
-10.5
 11
544.600000000001
 21
-10.5
  0
LINE
  5
2E7
100
AcDbEntity
  8
2
  6
CONTINUOUS
 62
     0
100
AcDbLine
 10
544.600000000001
 20
-9.0
 11
551.600000000001
 21
-9.0
  0
LINE
  5
2E8
100
AcDbEntity
  8
2
  6
CONTINUOUS
 62
     0
100
AcDbLine
 10
551.600000000001
 20
-7.5
 11
544.600000000001
 21
-7.5
  0
LINE
  5
2E9
100
AcDbEntity
  8
2
  6
CONTINUOUS
 62
     0
100
AcDbLine
 10
544.600000000001
 20
-6.0
 11
551.600000000001
 21
-6.0
  0
LINE
  5
2EA
100
AcDbEntity
  8
2
  6
CONTINUOUS
 62
     0
100
AcDbLine
 10
551.600000000001
 20
-4.5
 11
544.600000000001
 21
-4.5
  0
LINE
  5
2EB
100
AcDbEntity
  8
2
  6
CONTINUOUS
 62
     0
100
AcDbLine
 10
544.600000000001
 20
-3.0
 11
551.600000000001
 21
-3.0
  0
LINE
  5
2EC
100
AcDbEntity
  8
2
  6
CONTINUOUS
 62
     0
100
AcDbLine
 10
551.600000000001
 20
-1.5
 11
544.600000000001
 21
-1.5
  0
LINE
  5
2ED
100
AcDbEntity
  8
2
  6
CONTINUOUS
 62
     0
100
AcDbLine
 10
544.600000000001
 20
0.0
 11
551.600000000001
 21
0.0
  0
LINE
  5
2EE
100
AcDbEntity
  8
2
  6
CONTINUOUS
 62
     0
100
AcDbLine
 10
551.600000000001
 20
1.5
 11
544.600000000001
 21
1.5
  0
LINE
  5
2EF
100
AcDbEntity
  8
2
  6
CONTINUOUS
 62
     0
100
AcDbLine
 10
544.600000000001
 20
3.0
 11
551.600000000001
 21
3.0
  0
LINE
  5
2F0
100
AcDbEntity
  8
2
  6
CONTINUOUS
 62
     0
100
AcDbLine
 10
551.600000000001
 20
4.5
 11
544.600000000001
 21
4.5
  0
LINE
  5
2F1
100
AcDbEntity
  8
2
  6
CONTINUOUS
 62
     0
100
AcDbLine
 10
544.600000000001
 20
6.0
 11
551.600000000001
 21
6.0
  0
LINE
  5
2F2
100
AcDbEntity
  8
2
  6
CONTINUOUS
 62
     0
100
AcDbLine
 10
551.600000000001
 20
7.5
 11
544.600000000001
 21
7.5
  0
LINE
  5
2F3
100
AcDbEntity
  8
2
  6
CONTINUOUS
 62
     0
100
AcDbLine
 10
544.600000000001
 20
9.0
 11
551.600000000001
 21
9.0
  0
LINE
  5
2F4
100
AcDbEntity
  8
2
  6
CONTINUOUS
 62
     0
100
AcDbLine
 10
551.600000000001
 20
10.5
 11
544.600000000001
 21
10.5
  0
LINE
  5
2F5
100
AcDbEntity
  8
2
  6
CONTINUOUS
 62
     0
100
AcDbLine
 10
544.600000000001
 20
12.0
 11
551.600000000001
 21
12.0
  0
LINE
  5
2F6
100
AcDbEntity
  8
2
  6
CONTINUOUS
 62
     0
100
AcDbLine
 10
551.600000000001
 20
13.5
 11
544.600000000001
 21
13.5
  0
LINE
  5
2F7
100
AcDbEntity
  8
2
  6
CONTINUOUS
 62
     0
100
AcDbLine
 10
544.600000000001
 20
15.0
 11
551.600000000001
 21
15.0
  0
LINE
  5
2F8
100
AcDbEntity
  8
2
  6
CONTINUOUS
 62
     0
100
AcDbLine
 10
544.100000000001
 20
-8.5
 11
544.100000000001
 21
-6.5
  0
LINE
  5
2F9
100
AcDbEntity
  8
2
  6
CONTINUOUS
 62
     0
100
AcDbLine
 10
544.100000000001
 20
8.5
 11
544.100000000001
 21
6.5
  0
LINE
  5
2FA
100
AcDbEntity
  8
2
  6
CONTINUOUS
 62
     0
100
AcDbLine
 10
551.600000000001
 20
16.5
 11
545.100000000001
 21
16.5
  0
LINE
  5
2FB
100
AcDbEntity
  8
2
  6
CONTINUOUS
 62
     0
100
AcDbLine
 10
544.600000000001
 20
-16.0
 11
544.600000000001
 21
16.0
  0
ARC
  5
2FC
100
AcDbEntity
  8
2
  6
CONTINUOUS
 62
     0
100
AcDbCircle
 10
545.100000000001
 20
16.0
 40
0.499999999999943
100
AcDbArc
 50
90.0
 51
180.0
  0
LINE
  5
2FD
100
AcDbEntity
  8
2
  6
CONTINUOUS
 62
     0
100
AcDbLine
 10
556.600000000001
 20
17.0
 11
553.100000000001
 21
17.0
  0
ARC
  5
2FE
100
AcDbEntity
  8
2
  6
CONTINUOUS
 62
     0
100
AcDbCircle
 10
553.100000000001
 20
16.5
 40
0.499999999999943
100
AcDbArc
 50
90.0
 51
180.0
  0
LINE
  5
2FF
100
AcDbEntity
  8
2
  6
CONTINUOUS
 62
     0
100
AcDbLine
 10
570.100000000001
 20
16.0
 11
566.600000000001
 21
16.0
  0
ARC
  5
300
100
AcDbEntity
  8
2
  6
CONTINUOUS
 62
     0
100
AcDbCircle
 10
570.100000000001
 20
15.5
 40
0.499999999999943
100
AcDbArc
 50
0.0
 51
90.0
  0
LINE
  5
301
100
AcDbEntity
  8
2
  6
CONTINUOUS
 62
     0
100
AcDbLine
 10
573.600000000001
 20
12.0
 11
570.600000000001
 21
12.0
  0
LINE
  5
302
100
AcDbEntity
  8
2
  6
CONTINUOUS
 62
     0
100
AcDbLine
 10
551.600000000001
 20
-16.5
 11
545.100000000001
 21
-16.5
  0
ARC
  5
303
100
AcDbEntity
  8
2
  6
CONTINUOUS
 62
     0
100
AcDbCircle
 10
545.100000000001
 20
-16.0
 40
0.499999999999943
100
AcDbArc
 50
180.0
 51
270.0
  0
LINE
  5
304
100
AcDbEntity
  8
2
  6
CONTINUOUS
 62
     0
100
AcDbLine
 10
553.100000000001
 20
-17.0
 11
556.600000000001
 21
-17.0
  0
ARC
  5
305
100
AcDbEntity
  8
2
  6
CONTINUOUS
 62
     0
100
AcDbCircle
 10
553.100000000001
 20
-16.5
 40
0.499999999999943
100
AcDbArc
 50
180.0
 51
270.0
  0
LINE
  5
306
100
AcDbEntity
  8
2
  6
CONTINUOUS
 62
     0
100
AcDbLine
 10
552.600000000001
 20
16.5
 11
552.600000000001
 21
-16.5
  0
LINE
  5
307
100
AcDbEntity
  8
2
  6
CONTINUOUS
 62
     0
100
AcDbLine
 10
556.600000000001
 20
-17.0
 11
566.100000000001
 21
-17.0
  0
ARC
  5
308
100
AcDbEntity
  8
2
  6
CONTINUOUS
 62
     0
100
AcDbCircle
 10
566.100000000001
 20
-16.5
 40
0.499999999999943
100
AcDbArc
 50
270.0
 51
0.0
  0
ARC
  5
309
100
AcDbEntity
  8
2
  6
CONTINUOUS
 62
     0
100
AcDbCircle
 10
570.100000000001
 20
-15.5
 40
0.499999999999943
100
AcDbArc
 50
270.0
 51
0.0
  0
LINE
  5
30A
100
AcDbEntity
  8
2
  6
CONTINUOUS
 62
     0
100
AcDbLine
 10
566.600000000001
 20
-16.0
 11
570.100000000001
 21
-16.0
  0
LINE
  5
30B
100
AcDbEntity
  8
2
  6
CONTINUOUS
 62
     0
100
AcDbLine
 10
570.600000000001
 20
-12.0
 11
573.600000000001
 21
-12.0
  0
LINE
  5
30C
100
AcDbEntity
  8
2
  6
CONTINUOUS
 62
     0
100
AcDbLine
 10
570.600000000001
 20
-15.5
 11
570.600000000001
 21
15.5
  0
ARC
  5
30D
100
AcDbEntity
  8
2
  6
CONTINUOUS
 62
     0
100
AcDbCircle
 10
566.100000000001
 20
16.5
 40
0.499999999999943
100
AcDbArc
 50
0.0
 51
90.0
  0
LINE
  5
30E
100
AcDbEntity
  8
2
  6
CONTINUOUS
 62
     0
100
AcDbLine
 10
566.100000000001
 20
17.0
 11
556.600000000001
 21
17.0
  0
LINE
  5
30F
100
AcDbEntity
  8
2
  6
CONTINUOUS
 62
     0
100
AcDbLine
 10
573.600000000001
 20
-12.0
 11
573.600000000001
 21
12.0
  0
LINE
  5
310
100
AcDbEntity
  8
2
  6
CONTINUOUS
 62
     0
100
AcDbLine
 10
183.0
 20
10.0
 11
227.0
 21
10.0
  0
LINE
  5
311
100
AcDbEntity
  8
2
  6
CONTINUOUS
 62
     0
100
AcDbLine
 10
183.0
 20
-10.0
 11
227.0
 21
-10.0
  0
INSERT
  5
313
100
AcDbEntity
  8
2
  6
CONTINUOUS
 62
     0
100
AcDbBlockReference
  2
SUB12
 10
183.0
 20
0.0
 41
1.0
 42
1.0
 50
0.0
  0
INSERT
  5
321
100
AcDbEntity
  8
2
  6
CONTINUOUS
 62
     0
100
AcDbBlockReference
  2
SUB13
 10
227.0
 20
0.0
 41
1.0
 42
1.0
 50
0.0
  0
LINE
  5
32E
100
AcDbEntity
  8
2
  6
CONTINUOUS
 62
     0
100
AcDbLine
 10
167.5
 20
-21.8
 11
149.5
 21
-21.8
  0
LINE
  5
32F
100
AcDbEntity
  8
2
  6
CONTINUOUS
 62
     0
100
AcDbLine
 10
167.5
 20
-10.2
 11
149.5
 21
-10.2
  0
LINE
  5
330
100
AcDbEntity
  8
2
  6
CONTINUOUS
 62
     0
100
AcDbLine
 10
167.5
 20
-10.2
 11
167.5
 21
-21.8
  0
LINE
  5
331
100
AcDbEntity
  8
7
  6
CENTER2
 62
    40
100
AcDbLine
 10
70.5
 20
-32.5
 11
70.5
 21
32.5
  0
LINE
  5
332
100
AcDbEntity
  8
7
  6
CENTER2
 62
    40
100
AcDbLine
 10
54.5
 20
28.5
 11
75.02341913661
 21
28.5
  0
LINE
  5
333
100
AcDbEntity
  8
2
  6
CONTINUOUS
 62
     0
100
AcDbLine
 10
61.5
 20
32.5
 11
61.5
 21
28.5
  0
LINE
  5
334
100
AcDbEntity
  8
2
  6
CONTINUOUS
 62
     0
100
AcDbLine
 10
61.5
 20
-28.5
 11
61.5
 21
-32.5
  0
LINE
  5
335
100
AcDbEntity
  8
7
  6
CENTER2
 62
    40
100
AcDbLine
 10
58.5
 20
-32.5
 11
58.5
 21
32.5
  0
LINE
  5
336
100
AcDbEntity
  8
7
  6
CENTER2
 62
    40
100
AcDbLine
 10
54.5
 20
-28.5
 11
75.02341913661
 21
-28.5
  0
ARC
  5
337
100
AcDbEntity
  8
2
  6
CONTINUOUS
 62
     0
100
AcDbCircle
 10
58.5
 20
-28.5
 40
3.0
100
AcDbArc
 50
0.0
 51
180.0
  0
ARC
  5
338
100
AcDbEntity
  8
2
  6
CONTINUOUS
 62
     0
100
AcDbCircle
 10
58.5
 20
28.5
 40
3.0
100
AcDbArc
 50
180.0
 51
0.0
  0
LINE
  5
339
100
AcDbEntity
  8
2
  6
CONTINUOUS
 62
     0
100
AcDbLine
 10
98.7
 20
30.5
 11
73.5
 21
30.5
  0
LINE
  5
33A
100
AcDbEntity
  8
2
  6
CONTINUOUS
 62
     0
100
AcDbLine
 10
67.5
 20
30.5
 11
61.5
 21
30.5
  0
LINE
  5
33B
100
AcDbEntity
  8
2
  6
CONTINUOUS
 62
     0
100
AcDbLine
 10
55.5
 20
30.5
 11
45.5
 21
30.5
  0
LINE
  5
33C
100
AcDbEntity
  8
2
  6
CONTINUOUS
 62
     0
100
AcDbLine
 10
98.7
 20
-30.5
 11
73.5
 21
-30.5
  0
LINE
  5
33D
100
AcDbEntity
  8
2
  6
CONTINUOUS
 62
     0
100
AcDbLine
 10
67.5
 20
-30.5
 11
61.5
 21
-30.5
  0
LINE
  5
33E
100
AcDbEntity
  8
2
  6
CONTINUOUS
 62
     0
100
AcDbLine
 10
55.5
 20
-30.5
 11
45.5
 21
-30.5
  0
LINE
  5
33F
100
AcDbEntity
  8
2
  6
CONTINUOUS
 62
     0
100
AcDbLine
 10
98.7
 20
32.5
 11
98.7
 21
-32.5
  0
LINE
  5
340
100
AcDbEntity
  8
2
  6
CONTINUOUS
 62
     0
100
AcDbLine
 10
45.5
 20
30.5
 11
45.5
 21
-30.5
  0
LINE
  5
341
100
AcDbEntity
  8
2
  6
CONTINUOUS
 62
     0
100
AcDbLine
 10
73.5
 20
32.5
 11
73.5
 21
28.5
  0
LINE
  5
342
100
AcDbEntity
  8
2
  6
CONTINUOUS
 62
     0
100
AcDbLine
 10
98.7
 20
32.5
 11
47.5
 21
32.5
  0
LINE
  5
343
100
AcDbEntity
  8
2
  6
CONTINUOUS
 62
     0
100
AcDbLine
 10
95.5
 20
32.5
 11
95.5
 21
-32.5
  0
LINE
  5
344
100
AcDbEntity
  8
2
  6
CONTINUOUS
 62
     0
100
AcDbLine
 10
73.5
 20
-32.5
 11
73.5
 21
-28.5
  0
LINE
  5
345
100
AcDbEntity
  8
2
  6
CONTINUOUS
 62
     0
100
AcDbLine
 10
98.7
 20
-32.5
 11
47.5
 21
-32.5
  0
LINE
  5
346
100
AcDbEntity
  8
2
  6
CONTINUOUS
 62
     0
100
AcDbLine
 10
67.5
 20
-32.5
 11
67.5
 21
-28.5
  0
ARC
  5
347
100
AcDbEntity
  8
2
  6
CONTINUOUS
 62
     0
100
AcDbCircle
 10
70.5
 20
-28.5
 40
3.0
100
AcDbArc
 50
0.0
 51
180.0
  0
ARC
  5
348
100
AcDbEntity
  8
2
  6
CONTINUOUS
 62
     0
100
AcDbCircle
 10
70.5
 20
28.5
 40
3.0
100
AcDbArc
 50
180.0
 51
0.0
  0
LINE
  5
349
100
AcDbEntity
  8
2
  6
CONTINUOUS
 62
     0
100
AcDbLine
 10
67.5
 20
32.5
 11
67.5
 21
28.5
  0
LINE
  5
34A
100
AcDbEntity
  8
2
  6
CONTINUOUS
 62
     0
100
AcDbLine
 10
47.5
 20
32.5
 11
45.5
 21
30.5
  0
LINE
  5
34B
100
AcDbEntity
  8
2
  6
CONTINUOUS
 62
     0
100
AcDbLine
 10
47.5
 20
-32.5
 11
45.5
 21
-30.5
  0
LINE
  5
34C
100
AcDbEntity
  8
2
  6
CONTINUOUS
 62
     0
100
AcDbLine
 10
105.5
 20
-27.0
 11
105.5
 21
-5.0
  0
LINE
  5
34D
100
AcDbEntity
  8
2
  6
CONTINUOUS
 62
     0
100
AcDbLine
 10
105.5
 20
-5.0
 11
104.4
 21
-5.0
  0
LINE
  5
34E
100
AcDbEntity
  8
8
  6
CONTINUOUS
 62
     7
100
AcDbLine
 10
105.5
 20
-5.54150000000004
 11
104.5620944877
 21
-5.0
  0
LINE
  5
34F
100
AcDbEntity
  8
2
  6
CONTINUOUS
 62
     0
100
AcDbLine
 10
106.5
 20
-13.5
 11
116.5
 21
-13.5
  0
LINE
  5
350
100
AcDbEntity
  8
2
  6
CONTINUOUS
 62
     0
100
AcDbLine
 10
116.5
 20
-12.5
 11
106.5
 21
-12.5
  0
LINE
  5
351
100
AcDbEntity
  8
2
  6
CONTINUOUS
 62
     0
100
AcDbLine
 10
106.5
 20
-11.5
 11
116.5
 21
-11.5
  0
LINE
  5
352
100
AcDbEntity
  8
2
  6
CONTINUOUS
 62
     0
100
AcDbLine
 10
116.5
 20
-10.5
 11
106.5
 21
-10.5
  0
LINE
  5
353
100
AcDbEntity
  8
2
  6
CONTINUOUS
 62
     0
100
AcDbLine
 10
106.5
 20
-9.5
 11
116.5
 21
-9.5
  0
LINE
  5
354
100
AcDbEntity
  8
2
  6
CONTINUOUS
 62
     0
100
AcDbLine
 10
116.5
 20
-8.5
 11
106.5
 21
-8.5
  0
LINE
  5
355
100
AcDbEntity
  8
2
  6
CONTINUOUS
 62
     0
100
AcDbLine
 10
106.5
 20
-7.5
 11
116.5
 21
-7.5
  0
LINE
  5
356
100
AcDbEntity
  8
2
  6
CONTINUOUS
 62
     0
100
AcDbLine
 10
116.5
 20
-6.5
 11
106.5
 21
-6.5
  0
LINE
  5
357
100
AcDbEntity
  8
2
  6
CONTINUOUS
 62
     0
100
AcDbLine
 10
106.5
 20
-5.5
 11
116.5
 21
-5.5
  0
LINE
  5
358
100
AcDbEntity
  8
2
  6
CONTINUOUS
 62
     0
100
AcDbLine
 10
116.5
 20
-4.5
 11
106.5
 21
-4.5
  0
LINE
  5
359
100
AcDbEntity
  8
2
  6
CONTINUOUS
 62
     0
100
AcDbLine
 10
106.5
 20
-3.5
 11
116.5
 21
-3.5
  0
LINE
  5
35A
100
AcDbEntity
  8
2
  6
CONTINUOUS
 62
     0
100
AcDbLine
 10
147.0
 20
-8.30000000000001
 11
145.0
 21
-6.30000000000001
  0
LINE
  5
35B
100
AcDbEntity
  8
2
  6
CONTINUOUS
 62
     0
100
AcDbLine
 10
145.0
 20
-8.30000000000001
 11
147.0
 21
-6.30000000000001
  0
CIRCLE
  5
35C
100
AcDbEntity
  8
2
  6
CONTINUOUS
 62
     0
100
AcDbCircle
 10
146.0
 20
-7.30000000000001
 40
2.75
  0
LINE
  5
35D
100
AcDbEntity
  8
2
  6
CONTINUOUS
 62
     0
100
AcDbLine
 10
141.5
 20
-26.0
 11
141.5
 21
-6.0
  0
LINE
  5
35E
100
AcDbEntity
  8
2
  6
CONTINUOUS
 62
     0
100
AcDbLine
 10
106.5
 20
-29.0
 11
106.5
 21
-3.0
  0
LINE
  5
35F
100
AcDbEntity
  8
2
  6
CONTINUOUS
 62
     0
100
AcDbLine
 10
116.5
 20
-3.0
 11
116.5
 21
-29.0
  0
LINE
  5
360
100
AcDbEntity
  8
2
  6
CONTINUOUS
 62
     0
100
AcDbLine
 10
149.5
 20
-6.5
 11
149.5
 21
-25.5
  0
ARC
  5
361
100
AcDbEntity
  8
2
  6
CONTINUOUS
 62
     0
100
AcDbCircle
 10
147.5
 20
-6.5
 40
1.99999999999994
100
AcDbArc
 50
0.0
 51
90.0
  0
ARC
  5
362
100
AcDbEntity
  8
2
  6
CONTINUOUS
 62
     0
100
AcDbCircle
 10
144.5
 20
-6.5
 40
1.99999999999994
100
AcDbArc
 50
90.0
 51
180.0
  0
LINE
  5
363
100
AcDbEntity
  8
2
  6
CONTINUOUS
 62
     0
100
AcDbLine
 10
144.5
 20
-4.5
 11
147.5
 21
-4.5
  0
ARC
  5
364
100
AcDbEntity
  8
2
  6
CONTINUOUS
 62
     0
100
AcDbCircle
 10
141.416
 20
-3.95300000000003
 40
1.99999999999993
100
AcDbArc
 50
259.79599999999
 51
320.445000000021
  0
LINE
  5
365
100
AcDbEntity
  8
2
  6
CONTINUOUS
 62
     0
100
AcDbLine
 10
129.5
 20
-4.20000000000005
 11
141.5
 21
-6.0
  0
LINE
  5
366
100
AcDbEntity
  8
2
  6
CONTINUOUS
 62
     0
100
AcDbLine
 10
116.5
 20
-3.5
 11
118.5
 21
-3.5
  0
LINE
  5
367
100
AcDbEntity
  8
2
  6
CONTINUOUS
 62
     0
100
AcDbLine
 10
118.5
 20
-3.5
 11
118.5
 21
-28.5
  0
LINE
  5
368
100
AcDbEntity
  8
2
  6
CONTINUOUS
 62
     0
100
AcDbLine
 10
118.5
 20
-4.20000000000005
 11
129.5
 21
-4.20000000000005
  0
LINE
  5
369
100
AcDbEntity
  8
2
  6
CONTINUOUS
 62
     0
100
AcDbLine
 10
106.5
 20
-3.0
 11
116.5
 21
-3.0
  0
LINE
  5
36A
100
AcDbEntity
  8
2
  6
CONTINUOUS
 62
     0
100
AcDbLine
 10
105.5
 20
-3.5
 11
106.5
 21
-3.5
  0
LINE
  5
36B
100
AcDbEntity
  8
2
  6
CONTINUOUS
 62
     0
100
AcDbLine
 10
142.5
 20
-25.5
 11
142.5
 21
-6.5
  0
LINE
  5
36C
100
AcDbEntity
  8
2
  6
CONTINUOUS
 62
     0
100
AcDbLine
 10
105.5
 20
-28.5
 11
105.5
 21
-3.5
  0
LINE
  5
36D
100
AcDbEntity
  8
2
  6
CONTINUOUS
 62
     0
100
AcDbLine
 10
100.7
 20
-30.5
 11
100.7
 21
-1.5
  0
LINE
  5
36E
100
AcDbEntity
  8
2
  6
CONTINUOUS
 62
     0
100
AcDbLine
 10
98.7
 20
-1.5
 11
100.7
 21
-1.5
  0
LINE
  5
36F
100
AcDbEntity
  8
2
  6
CONTINUOUS
 62
     0
100
AcDbLine
 10
105.5
 20
-27.0
 11
104.4
 21
-27.0
  0
LINE
  5
370
100
AcDbEntity
  8
8
  6
CONTINUOUS
 62
     7
100
AcDbLine
 10
105.5
 20
-26.4585
 11
104.5620944877
 21
-27.0
  0
LINE
  5
371
100
AcDbEntity
  8
2
  6
CONTINUOUS
 62
     0
100
AcDbLine
 10
116.5
 20
-18.5
 11
106.5
 21
-18.5
  0
LINE
  5
372
100
AcDbEntity
  8
2
  6
CONTINUOUS
 62
     0
100
AcDbLine
 10
147.0
 20
-23.7
 11
145.0
 21
-25.7
  0
LINE
  5
373
100
AcDbEntity
  8
2
  6
CONTINUOUS
 62
     0
100
AcDbLine
 10
145.0
 20
-23.7
 11
147.0
 21
-25.7
  0
CIRCLE
  5
374
100
AcDbEntity
  8
2
  6
CONTINUOUS
 62
     0
100
AcDbCircle
 10
146.0
 20
-24.7
 40
2.75
  0
LINE
  5
375
100
AcDbEntity
  8
2
  6
CONTINUOUS
 62
     0
100
AcDbLine
 10
106.5
 20
-28.5
 11
116.5
 21
-28.5
  0
LINE
  5
376
100
AcDbEntity
  8
2
  6
CONTINUOUS
 62
     0
100
AcDbLine
 10
116.5
 20
-27.5
 11
106.5
 21
-27.5
  0
LINE
  5
377
100
AcDbEntity
  8
2
  6
CONTINUOUS
 62
     0
100
AcDbLine
 10
106.5
 20
-26.5
 11
116.5
 21
-26.5
  0
LINE
  5
378
100
AcDbEntity
  8
2
  6
CONTINUOUS
 62
     0
100
AcDbLine
 10
116.5
 20
-25.5
 11
106.5
 21
-25.5
  0
LINE
  5
379
100
AcDbEntity
  8
2
  6
CONTINUOUS
 62
     0
100
AcDbLine
 10
106.5
 20
-24.5
 11
116.5
 21
-24.5
  0
LINE
  5
37A
100
AcDbEntity
  8
2
  6
CONTINUOUS
 62
     0
100
AcDbLine
 10
116.5
 20
-19.5
 11
106.5
 21
-19.5
  0
LINE
  5
37B
100
AcDbEntity
  8
2
  6
CONTINUOUS
 62
     0
100
AcDbLine
 10
116.5
 20
-20.5
 11
106.5
 21
-20.5
  0
LINE
  5
37C
100
AcDbEntity
  8
2
  6
CONTINUOUS
 62
     0
100
AcDbLine
 10
116.5
 20
-21.5
 11
106.5
 21
-21.5
  0
LINE
  5
37D
100
AcDbEntity
  8
2
  6
CONTINUOUS
 62
     0
100
AcDbLine
 10
116.5
 20
-22.5
 11
106.5
 21
-22.5
  0
LINE
  5
37E
100
AcDbEntity
  8
2
  6
CONTINUOUS
 62
     0
100
AcDbLine
 10
116.5
 20
-23.5
 11
106.5
 21
-23.5
  0
LINE
  5
37F
100
AcDbEntity
  8
2
  6
CONTINUOUS
 62
     0
100
AcDbLine
 10
118.5
 20
-27.8
 11
129.5
 21
-27.8
  0
LINE
  5
380
100
AcDbEntity
  8
2
  6
CONTINUOUS
 62
     0
100
AcDbLine
 10
129.5
 20
-27.8
 11
141.5
 21
-26.0
  0
ARC
  5
381
100
AcDbEntity
  8
2
  6
CONTINUOUS
 62
     0
100
AcDbCircle
 10
141.416
 20
-28.047
 40
1.99999999999995
100
AcDbArc
 50
39.5549999999793
 51
100.20400000001
  0
ARC
  5
382
100
AcDbEntity
  8
2
  6
CONTINUOUS
 62
     0
100
AcDbCircle
 10
147.5
 20
-25.5
 40
1.99999999999994
100
AcDbArc
 50
270.0
 51
0.0
  0
LINE
  5
383
100
AcDbEntity
  8
2
  6
CONTINUOUS
 62
     0
100
AcDbLine
 10
147.5
 20
-27.5
 11
144.5
 21
-27.5
  0
ARC
  5
384
100
AcDbEntity
  8
2
  6
CONTINUOUS
 62
     0
100
AcDbCircle
 10
144.5
 20
-25.5
 40
1.99999999999994
100
AcDbArc
 50
180.0
 51
270.0
  0
LINE
  5
385
100
AcDbEntity
  8
2
  6
CONTINUOUS
 62
     0
100
AcDbLine
 10
118.5
 20
-28.5
 11
116.5
 21
-28.5
  0
LINE
  5
386
100
AcDbEntity
  8
2
  6
CONTINUOUS
 62
     0
100
AcDbLine
 10
116.5
 20
-29.0
 11
106.5
 21
-29.0
  0
LINE
  5
387
100
AcDbEntity
  8
2
  6
CONTINUOUS
 62
     0
100
AcDbLine
 10
106.5
 20
-28.5
 11
105.5
 21
-28.5
  0
LINE
  5
388
100
AcDbEntity
  8
2
  6
CONTINUOUS
 62
     0
100
AcDbLine
 10
100.7
 20
-30.5
 11
98.7
 21
-30.5
  0
LINE
  5
389
100
AcDbEntity
  8
2
  6
CONTINUOUS
 62
     0
100
AcDbLine
 10
106.5
 20
-17.5
 11
116.5
 21
-17.5
  0
LINE
  5
38A
100
AcDbEntity
  8
2
  6
CONTINUOUS
 62
     0
100
AcDbLine
 10
116.5
 20
-16.5
 11
106.5
 21
-16.5
  0
LINE
  5
38B
100
AcDbEntity
  8
2
  6
CONTINUOUS
 62
     0
100
AcDbLine
 10
106.5
 20
-15.5
 11
116.5
 21
-15.5
  0
LINE
  5
38C
100
AcDbEntity
  8
2
  6
CONTINUOUS
 62
     0
100
AcDbLine
 10
116.5
 20
-14.5
 11
106.5
 21
-14.5
  0
INSERT
  5
38E
100
AcDbEntity
  8
2
  6
CONTINUOUS
 62
     0
100
AcDbBlockReference
  2
SUB14
 10
70.5
 20
28.5
 41
1.0
 42
1.0
 50
0.0
  0
INSERT
  5
395
100
AcDbEntity
  8
2
  6
CONTINUOUS
 62
     0
100
AcDbBlockReference
  2
SUB15
 10
58.5
 20
28.5
 41
1.0
 42
1.0
 50
0.0
  0
INSERT
  5
39C
100
AcDbEntity
  8
2
  6
CONTINUOUS
 62
     0
100
AcDbBlockReference
  2
SUB16
 10
58.5
 20
-28.5
 41
1.0
 42
1.0
 50
0.0
  0
INSERT
  5
3A3
100
AcDbEntity
  8
2
  6
CONTINUOUS
 62
     0
100
AcDbBlockReference
  2
SUB17
 10
70.5
 20
-28.5
 41
1.0
 42
1.0
 50
0.0
  0
LINE
  5
3A9
100
AcDbEntity
  8
7
  6
CENTER2
 62
    40
100
AcDbLine
 10
104.905499512286
 20
-4.5
 11
88.626048808838
 21
-4.5
  0
LINE
  5
3AA
100
AcDbEntity
  8
7
  6
CENTER2
 62
    40
100
AcDbLine
 10
104.905499512286
 20
-27.5
 11
88.626048808838
 21
-27.5
  0
INSERT
  5
3AC
100
AcDbEntity
  8
7
  6
CENTER2
 62
    40
100
AcDbBlockReference
  2
SUB18
 10
100.7
 20
-27.5
 41
1.0
 42
1.0
 50
0.0
  0
INSERT
  5
3BA
100
AcDbEntity
  8
7
  6
CENTER2
 62
    40
100
AcDbBlockReference
  2
SUB19
 10
100.7
 20
-4.5
 41
1.0
 42
1.0
 50
0.0
  0
LINE
  5
3C7
100
AcDbEntity
  8
2
  6
CONTINUOUS
 62
     0
100
AcDbLine
 10
100.7
 20
-1.5
 11
100.7
 21
30.5
  0
LINE
  5
3C8
100
AcDbEntity
  8
2
  6
CONTINUOUS
 62
     0
100
AcDbLine
 10
98.7
 20
30.5
 11
100.7
 21
30.5
  0
INSERT
  5
3CA
100
AcDbEntity
  8
7
  6
CENTER2
 62
    40
100
AcDbBlockReference
  2
SUB20
 10
100.7
 20
27.5
 41
1.0
 42
1.0
 50
0.0
  0
LINE
  5
3D7
100
AcDbEntity
  8
7
  6
CENTER2
 62
    40
100
AcDbLine
 10
104.905499512286
 20
27.5
 11
88.626048808838
 21
27.5
  0
INSERT
  5
3D9
100
AcDbEntity
  8
7
  6
CENTER2
 62
    40
100
AcDbBlockReference
  2
SUB21
 10
100.7
 20
1.5
 41
1.0
 42
1.0
 50
0.0
  0
LINE
  5
3E6
100
AcDbEntity
  8
7
  6
CENTER2
 62
    40
100
AcDbLine
 10
104.905499512286
 20
1.5
 11
88.626048808838
 21
1.5
  0
LINE
  5
3E7
100
AcDbEntity
  8
2
  6
CONTINUOUS
 62
     0
100
AcDbLine
 10
105.5
 20
-28.141016151377
 11
104.4
 21
-28.141016151377
  0
LINE
  5
3E8
100
AcDbEntity
  8
2
  6
CONTINUOUS
 62
     0
100
AcDbLine
 10
55.5
 20
32.5
 11
55.5
 21
-32.5
  0
LINE
  5
3E9
100
AcDbEntity
  8
2
  6
CONTINUOUS
 62
     0
100
AcDbLine
 10
118.0
 20
-40.685301287778
 11
118.0
 21
-28.5
  0
LINE
  5
3EA
100
AcDbEntity
  8
2
  6
CONTINUOUS
 62
     0
100
AcDbLine
 10
118.0
 20
-3.5
 11
118.0
 21
40.685301287778
  0
LINE
  5
3EB
100
AcDbEntity
  8
7
  6
CENTER2
 62
    40
100
AcDbLine
 10
107.460605284438
 20
-32.9089653438086
 11
135.009571824907
 21
-32.9089653438086
  0
INSERT
  5
3ED
100
AcDbEntity
  8
7
  6
CENTER2
 62
    40
100
AcDbBlockReference
  2
SUB22
 10
125.0
 20
-32.9089653438086
 41
1.0
 42
1.0
 50
0.0
  0
LINE
  5
3FA
100
AcDbEntity
  8
2
  6
CONTINUOUS
 62
     0
100
AcDbLine
 10
117.5
 20
36.295459894983
 11
117.5
 21
41.185301287778
  0
LINE
  5
3FB
100
AcDbEntity
  8
2
  6
CONTINUOUS
 62
     0
100
AcDbLine
 10
109.5
 20
36.295459894983
 11
109.5
 21
41.185301287778
  0
LINE
  5
3FC
100
AcDbEntity
  8
2
  6
CONTINUOUS
 62
     0
100
AcDbLine
 10
117.5
 20
36.295459894983
 11
118.0
 21
35.579129754216
  0
LINE
  5
3FD
100
AcDbEntity
  8
2
  6
CONTINUOUS
 62
     0
100
AcDbLine
 10
109.5
 20
36.295459894983
 11
109.0
 21
35.579129754216
  0
LINE
  5
3FE
100
AcDbEntity
  8
2
  6
CONTINUOUS
 62
     0
100
AcDbLine
 10
118.5
 20
36.2954598949825
 11
124.5
 21
36.2954598949825
  0
LINE
  5
3FF
100
AcDbEntity
  8
2
  6
CONTINUOUS
 62
     0
100
AcDbLine
 10
118.5
 20
41.1853012877775
 11
124.5
 21
41.1853012877775
  0
LINE
  5
400
100
AcDbEntity
  8
7
  6
CENTER2
 62
    40
100
AcDbLine
 10
107.460605284438
 20
32.9089653438083
 11
135.009571824907
 21
32.9089653438083
  0
INSERT
  5
402
100
AcDbEntity
  8
7
  6
CENTER2
 62
    40
100
AcDbBlockReference
  2
SUB23
 10
125.0
 20
32.9089653438083
 41
1.0
 42
1.0
 50
0.0
  0
LINE
  5
40F
100
AcDbEntity
  8
7
  6
CENTER2
 62
    40
100
AcDbLine
 10
-7.42607492950415
 20
-32.9089653438086
 11
25.8099309337864
 21
-32.9089653438086
  0
LINE
  5
410
100
AcDbEntity
  8
7
  6
CENTER2
 62
    40
100
AcDbLine
 10
-7.42607492950415
 20
32.9089653438086
 11
25.8099309337864
 21
32.9089653438086
  0
LINE
  5
411
100
AcDbEntity
  8
2
  6
CONTINUOUS
 62
     0
100
AcDbLine
 10
109.5
 20
41.185301287778
 11
109.0
 21
40.685301287778
  0
LINE
  5
412
100
AcDbEntity
  8
2
  6
CONTINUOUS
 62
     0
100
AcDbLine
 10
117.5
 20
41.185301287778
 11
118.0
 21
40.685301287778
  0
LINE
  5
413
100
AcDbEntity
  8
2
  6
CONTINUOUS
 62
     0
100
AcDbLine
 10
109.5
 20
41.185301287778
 11
117.5
 21
41.185301287778
  0
LINE
  5
414
100
AcDbEntity
  8
2
  6
CONTINUOUS
 62
     0
100
AcDbLine
 10
109.5
 20
36.295459894983
 11
117.5
 21
36.295459894983
  0
LINE
  5
415
100
AcDbEntity
  8
2
  6
CONTINUOUS
 62
     0
100
AcDbLine
 10
124.5
 20
41.185301287778
 11
125.0
 21
40.685301287778
  0
LINE
  5
416
100
AcDbEntity
  8
2
  6
CONTINUOUS
 62
     0
100
AcDbLine
 10
124.5
 20
36.295459894983
 11
124.5
 21
41.185301287778
  0
LINE
  5
417
100
AcDbEntity
  8
2
  6
CONTINUOUS
 62
     0
100
AcDbLine
 10
124.5
 20
36.295459894983
 11
125.0
 21
35.579129754216
  0
LINE
  5
418
100
AcDbEntity
  8
2
  6
CONTINUOUS
 62
     0
100
AcDbLine
 10
118.5
 20
36.295459894983
 11
118.5
 21
41.185301287778
  0
LINE
  5
419
100
AcDbEntity
  8
2
  6
CONTINUOUS
 62
     0
100
AcDbLine
 10
118.5
 20
41.185301287778
 11
118.0
 21
40.685301287778
  0
LINE
  5
41A
100
AcDbEntity
  8
2
  6
CONTINUOUS
 62
     0
100
AcDbLine
 10
118.5
 20
36.295459894983
 11
118.0
 21
35.579129754216
  0
LINE
  5
41B
100
AcDbEntity
  8
2
  6
CONTINUOUS
 62
     0
100
AcDbLine
 10
117.5
 20
-36.295459894983
 11
118.0
 21
-35.579129754216
  0
LINE
  5
41C
100
AcDbEntity
  8
2
  6
CONTINUOUS
 62
     0
100
AcDbLine
 10
109.5
 20
-36.295459894983
 11
109.0
 21
-35.579129754216
  0
LINE
  5
41D
100
AcDbEntity
  8
2
  6
CONTINUOUS
 62
     0
100
AcDbLine
 10
117.5
 20
-41.185301287778
 11
118.0
 21
-40.685301287778
  0
LINE
  5
41E
100
AcDbEntity
  8
2
  6
CONTINUOUS
 62
     0
100
AcDbLine
 10
109.5
 20
-41.185301287778
 11
109.0
 21
-40.685301287778
  0
LINE
  5
41F
100
AcDbEntity
  8
2
  6
CONTINUOUS
 62
     0
100
AcDbLine
 10
117.5
 20
-36.295459894983
 11
117.5
 21
-41.185301287778
  0
LINE
  5
420
100
AcDbEntity
  8
2
  6
CONTINUOUS
 62
     0
100
AcDbLine
 10
109.5
 20
-36.295459894983
 11
109.5
 21
-41.185301287778
  0
LINE
  5
421
100
AcDbEntity
  8
2
  6
CONTINUOUS
 62
     0
100
AcDbLine
 10
109.5
 20
-41.185301287778
 11
117.5
 21
-41.185301287778
  0
LINE
  5
422
100
AcDbEntity
  8
2
  6
CONTINUOUS
 62
     0
100
AcDbLine
 10
109.5
 20
-36.295459894983
 11
117.5
 21
-36.295459894983
  0
LINE
  5
423
100
AcDbEntity
  8
2
  6
CONTINUOUS
 62
     0
100
AcDbLine
 10
118.5
 20
-36.295459894983
 11
118.5
 21
-41.185301287778
  0
LINE
  5
424
100
AcDbEntity
  8
2
  6
CONTINUOUS
 62
     0
100
AcDbLine
 10
118.5
 20
-41.185301287778
 11
118.0
 21
-40.685301287778
  0
LINE
  5
425
100
AcDbEntity
  8
2
  6
CONTINUOUS
 62
     0
100
AcDbLine
 10
118.5
 20
-36.295459894983
 11
118.0
 21
-35.579129754216
  0
LINE
  5
426
100
AcDbEntity
  8
2
  6
CONTINUOUS
 62
     0
100
AcDbLine
 10
118.5
 20
-36.2954598949825
 11
124.5
 21
-36.2954598949825
  0
LINE
  5
427
100
AcDbEntity
  8
2
  6
CONTINUOUS
 62
     0
100
AcDbLine
 10
118.5
 20
-41.1853012877775
 11
124.5
 21
-41.1853012877775
  0
LINE
  5
428
100
AcDbEntity
  8
2
  6
CONTINUOUS
 62
     0
100
AcDbLine
 10
124.5
 20
-36.295459894983
 11
125.0
 21
-35.579129754216
  0
LINE
  5
429
100
AcDbEntity
  8
2
  6
CONTINUOUS
 62
     0
100
AcDbLine
 10
124.5
 20
-36.295459894983
 11
124.5
 21
-41.185301287778
  0
LINE
  5
42A
100
AcDbEntity
  8
2
  6
CONTINUOUS
 62
     0
100
AcDbLine
 10
124.5
 20
-41.185301287778
 11
125.0
 21
-40.685301287778
  0
LINE
  5
42B
100
AcDbEntity
  8
2
  6
CONTINUOUS
 62
     0
100
AcDbLine
 10
20.0000000000001
 20
-40.685301287778
 11
20.0000000000001
 21
40.685301287778
  0
LINE
  5
42C
100
AcDbEntity
  8
2
  6
CONTINUOUS
 62
     0
100
AcDbLine
 10
8.00000000000004
 20
-40.685301287778
 11
8.00000000000004
 21
40.685301287778
  0
LINE
  5
42D
100
AcDbEntity
  8
2
  6
CONTINUOUS
 62
     0
100
AcDbLine
 10
0.0
 20
-40.685301287778
 11
0.0
 21
40.685301287778
  0
LINE
  5
42E
100
AcDbEntity
  8
2
  6
CONTINUOUS
 62
     0
100
AcDbLine
 10
-9.0
 20
-23.5
 11
-9.0
 21
23.5
  0
LINE
  5
42F
100
AcDbEntity
  8
2
  6
CONTINUOUS
 62
     0
100
AcDbLine
 10
0.5
 20
36.295459894983
 11
0.0
 21
35.579129754216
  0
LINE
  5
430
100
AcDbEntity
  8
2
  6
CONTINUOUS
 62
     0
100
AcDbLine
 10
0.5
 20
41.185301287778
 11
0.0
 21
40.685301287778
  0
LINE
  5
431
100
AcDbEntity
  8
2
  6
CONTINUOUS
 62
     0
100
AcDbLine
 10
0.5
 20
36.295459894983
 11
0.5
 21
41.185301287778
  0
LINE
  5
432
100
AcDbEntity
  8
2
  6
CONTINUOUS
 62
     0
100
AcDbLine
 10
0.5
 20
41.185301287778
 11
7.50000000000004
 21
41.185301287778
  0
LINE
  5
433
100
AcDbEntity
  8
2
  6
CONTINUOUS
 62
     0
100
AcDbLine
 10
0.5
 20
36.295459894983
 11
7.50000000000004
 21
36.295459894983
  0
LINE
  5
434
100
AcDbEntity
  8
2
  6
CONTINUOUS
 62
     0
100
AcDbLine
 10
0.5
 20
-36.295459894983
 11
0.0
 21
-35.579129754216
  0
LINE
  5
435
100
AcDbEntity
  8
2
  6
CONTINUOUS
 62
     0
100
AcDbLine
 10
0.5
 20
-41.185301287778
 11
0.0
 21
-40.685301287778
  0
LINE
  5
436
100
AcDbEntity
  8
2
  6
CONTINUOUS
 62
     0
100
AcDbLine
 10
0.5
 20
-36.295459894983
 11
0.5
 21
-41.185301287778
  0
LINE
  5
437
100
AcDbEntity
  8
2
  6
CONTINUOUS
 62
     0
100
AcDbLine
 10
0.5
 20
-41.185301287778
 11
7.50000000000004
 21
-41.185301287778
  0
LINE
  5
438
100
AcDbEntity
  8
2
  6
CONTINUOUS
 62
     0
100
AcDbLine
 10
0.5
 20
-36.295459894983
 11
7.50000000000004
 21
-36.295459894983
  0
LINE
  5
439
100
AcDbEntity
  8
2
  6
CONTINUOUS
 62
     0
100
AcDbLine
 10
8.50000000000004
 20
36.295459894983
 11
8.50000000000004
 21
41.185301287778
  0
LINE
  5
43A
100
AcDbEntity
  8
2
  6
CONTINUOUS
 62
     0
100
AcDbLine
 10
8.50000000000004
 20
41.185301287778
 11
8.00000000000004
 21
40.685301287778
  0
LINE
  5
43B
100
AcDbEntity
  8
2
  6
CONTINUOUS
 62
     0
100
AcDbLine
 10
8.50000000000004
 20
36.295459894983
 11
8.00000000000004
 21
35.579129754216
  0
LINE
  5
43C
100
AcDbEntity
  8
2
  6
CONTINUOUS
 62
     0
100
AcDbLine
 10
8.50000000000004
 20
36.2954598949825
 11
19.5000000000001
 21
36.2954598949825
  0
LINE
  5
43D
100
AcDbEntity
  8
2
  6
CONTINUOUS
 62
     0
100
AcDbLine
 10
8.50000000000004
 20
41.1853012877775
 11
19.5000000000001
 21
41.1853012877775
  0
LINE
  5
43E
100
AcDbEntity
  8
2
  6
CONTINUOUS
 62
     0
100
AcDbLine
 10
7.50000000000004
 20
41.185301287778
 11
8.00000000000004
 21
40.685301287778
  0
LINE
  5
43F
100
AcDbEntity
  8
2
  6
CONTINUOUS
 62
     0
100
AcDbLine
 10
7.50000000000004
 20
36.295459894983
 11
7.50000000000004
 21
41.185301287778
  0
LINE
  5
440
100
AcDbEntity
  8
2
  6
CONTINUOUS
 62
     0
100
AcDbLine
 10
7.50000000000004
 20
36.295459894983
 11
8.00000000000004
 21
35.579129754216
  0
LINE
  5
441
100
AcDbEntity
  8
2
  6
CONTINUOUS
 62
     0
100
AcDbLine
 10
8.50000000000004
 20
-36.2954598949825
 11
19.5000000000001
 21
-36.2954598949825
  0
LINE
  5
442
100
AcDbEntity
  8
2
  6
CONTINUOUS
 62
     0
100
AcDbLine
 10
8.50000000000004
 20
-41.1853012877775
 11
19.5000000000001
 21
-41.1853012877775
  0
LINE
  5
443
100
AcDbEntity
  8
2
  6
CONTINUOUS
 62
     0
100
AcDbLine
 10
8.50000000000004
 20
-36.295459894983
 11
8.50000000000004
 21
-41.185301287778
  0
LINE
  5
444
100
AcDbEntity
  8
2
  6
CONTINUOUS
 62
     0
100
AcDbLine
 10
8.50000000000004
 20
-41.185301287778
 11
8.00000000000004
 21
-40.685301287778
  0
LINE
  5
445
100
AcDbEntity
  8
2
  6
CONTINUOUS
 62
     0
100
AcDbLine
 10
8.50000000000004
 20
-36.295459894983
 11
8.00000000000004
 21
-35.579129754216
  0
LINE
  5
446
100
AcDbEntity
  8
2
  6
CONTINUOUS
 62
     0
100
AcDbLine
 10
7.50000000000004
 20
-36.295459894983
 11
7.50000000000004
 21
-41.185301287778
  0
LINE
  5
447
100
AcDbEntity
  8
2
  6
CONTINUOUS
 62
     0
100
AcDbLine
 10
7.50000000000004
 20
-36.295459894983
 11
8.00000000000004
 21
-35.579129754216
  0
LINE
  5
448
100
AcDbEntity
  8
2
  6
CONTINUOUS
 62
     0
100
AcDbLine
 10
7.50000000000004
 20
-41.185301287778
 11
8.00000000000004
 21
-40.685301287778
  0
LINE
  5
449
100
AcDbEntity
  8
2
  6
CONTINUOUS
 62
     0
100
AcDbLine
 10
19.5000000000001
 20
41.185301287778
 11
20.0000000000001
 21
40.685301287778
  0
LINE
  5
44A
100
AcDbEntity
  8
2
  6
CONTINUOUS
 62
     0
100
AcDbLine
 10
19.5000000000001
 20
36.295459894983
 11
19.5000000000001
 21
41.185301287778
  0
LINE
  5
44B
100
AcDbEntity
  8
2
  6
CONTINUOUS
 62
     0
100
AcDbLine
 10
19.5000000000001
 20
36.295459894983
 11
20.0000000000001
 21
35.579129754216
  0
LINE
  5
44C
100
AcDbEntity
  8
2
  6
CONTINUOUS
 62
     0
100
AcDbLine
 10
19.5000000000001
 20
-36.295459894983
 11
20.0000000000001
 21
-35.579129754216
  0
LINE
  5
44D
100
AcDbEntity
  8
2
  6
CONTINUOUS
 62
     0
100
AcDbLine
 10
19.5000000000001
 20
-36.295459894983
 11
19.5000000000001
 21
-41.185301287778
  0
LINE
  5
44E
100
AcDbEntity
  8
2
  6
CONTINUOUS
 62
     0
100
AcDbLine
 10
19.5000000000001
 20
-41.185301287778
 11
20.0000000000001
 21
-40.685301287778
  0
LINE
  5
44F
100
AcDbEntity
  8
2
  6
CONTINUOUS
 62
     0
100
AcDbLine
 10
45.0
 20
-15.57
 11
45.0
 21
15.57
  0
LINE
  5
450
100
AcDbEntity
  8
2
  6
CONTINUOUS
 62
     0
100
AcDbLine
 10
45.0
 20
-15.57
 11
45.5
 21
-15.57
  0
LINE
  5
451
100
AcDbEntity
  8
2
  6
CONTINUOUS
 62
     0
100
AcDbLine
 10
45.0
 20
15.5700000000001
 11
45.5
 21
15.57
  0
LINE
  5
452
100
AcDbEntity
  8
2
  6
CONTINUOUS
 62
     0
100
AcDbLine
 10
-8.5
 20
24.0
 11
0.0
 21
24.0
  0
LINE
  5
453
100
AcDbEntity
  8
2
  6
CONTINUOUS
 62
     0
100
AcDbLine
 10
-8.5
 20
-24.0
 11
0.0
 21
-24.0
  0
LINE
  5
454
100
AcDbEntity
  8
2
  6
CONTINUOUS
 62
     0
100
AcDbLine
 10
-8.5
 20
24.0
 11
-9.0
 21
23.5
  0
LINE
  5
455
100
AcDbEntity
  8
2
  6
CONTINUOUS
 62
     0
100
AcDbLine
 10
-9.0
 20
-23.5
 11
-8.5
 21
-24.0
  0
LINE
  5
456
100
AcDbEntity
  8
2
  6
CONTINUOUS
 62
     0
100
AcDbLine
 10
-8.5
 20
24.0
 11
-8.5
 21
-24.0
  0
LINE
  5
457
100
AcDbEntity
  8
2
  6
CONTINUOUS
 62
     0
100
AcDbLine
 10
-25.0
 20
10.0
 11
-9.0
 21
10.0
  0
LINE
  5
458
100
AcDbEntity
  8
2
  6
CONTINUOUS
 62
     0
100
AcDbLine
 10
-25.0
 20
-10.0
 11
-25.0
 21
10.0
  0
LINE
  5
459
100
AcDbEntity
  8
2
  6
CONTINUOUS
 62
     0
100
AcDbLine
 10
-45.0
 20
7.93999999999994
 11
-26.5
 21
7.93999999999994
  0
ARC
  5
45A
100
AcDbEntity
  8
2
  6
CONTINUOUS
 62
     0
100
AcDbCircle
 10
-26.5
 20
9.43999999999994
 40
1.5
100
AcDbArc
 50
270.0
 51
0.0
  0
LINE
  5
45B
100
AcDbEntity
  8
2
  6
CONTINUOUS
 62
     0
100
AcDbLine
 10
-44.0
 20
5.91323938294295
 11
-26.5
 21
5.91323938294295
  0
ARC
  5
45C
100
AcDbEntity
  8
2
  6
CONTINUOUS
 62
     0
100
AcDbCircle
 10
-37.405466666664
 20
0.0
 40
12.4054666666634
100
AcDbArc
 50
331.53225159524
 51
28.4677484047594
  0
LINE
  5
45D
100
AcDbEntity
  8
2
  6
CONTINUOUS
 62
     0
100
AcDbLine
 10
-45.0
 20
-7.94000000000005
 11
-26.5
 21
-7.94000000000005
  0
ARC
  5
45E
100
AcDbEntity
  8
2
  6
CONTINUOUS
 62
     0
100
AcDbCircle
 10
-26.5
 20
-9.44000000000005
 40
1.5
100
AcDbArc
 50
0.0
 51
90.0
  0
LINE
  5
45F
100
AcDbEntity
  8
2
  6
CONTINUOUS
 62
     0
100
AcDbLine
 10
-44.0
 20
-5.91323938294306
 11
-26.5
 21
-5.91323938294306
  0
LINE
  5
460
100
AcDbEntity
  8
2
  6
CONTINUOUS
 62
     0
100
AcDbLine
 10
-45.0
 20
-7.94000000000005
 11
-45.0
 21
7.93999999999994
  0
LINE
  5
461
100
AcDbEntity
  8
2
  6
CONTINUOUS
 62
     0
100
AcDbLine
 10
-44.0
 20
-7.94000000000005
 11
-44.0
 21
-5.91323938294306
  0
LINE
  5
462
100
AcDbEntity
  8
2
  6
CONTINUOUS
 62
     0
100
AcDbLine
 10
-44.0
 20
5.91323938294295
 11
-44.0
 21
7.93999999999994
  0
ARC
  5
463
100
AcDbEntity
  8
2
  6
CONTINUOUS
 62
     0
100
AcDbCircle
 10
-27.016800000005
 20
0.0
 40
17.9831999999951
100
AcDbArc
 50
160.802818049548
 51
199.197181950452
  0
LINE
  5
464
100
AcDbEntity
  8
2
  6
CONTINUOUS
 62
     0
100
AcDbLine
 10
-25.0
 20
-10.0
 11
-9.0
 21
-10.0
  0
LINE
  5
465
100
AcDbEntity
  8
2
  6
CONTINUOUS
 62
     0
100
AcDbLine
 10
20.0000000000001
 20
-33.0
 11
109.0
 21
-33.0
  0
LINE
  5
466
100
AcDbEntity
  8
2
  6
CONTINUOUS
 62
     0
100
AcDbLine
 10
20.0000000000001
 20
33.0
 11
109.0
 21
33.0
  0
ARC
  5
467
100
AcDbEntity
  8
7
  6
CENTER2
 62
    40
100
AcDbCircle
 10
395.109930085058
 20
21.5
 40
33.0
100
AcDbArc
 50
90.0
 51
150.0
  0
LINE
  5
468
100
AcDbEntity
  8
7
  6
CENTER2
 62
    40
100
AcDbLine
 10
395.109930085058
 20
54.5
 11
573.400000000001
 21
54.5
  0
LINE
  5
469
100
AcDbEntity
  8
2
  6
CONTINUOUS
 62
     0
100
AcDbLine
 10
395.109930085058
 20
50.0
 11
573.400000000001
 21
50.0
  0
LINE
  5
46A
100
AcDbEntity
  8
2
  6
CONTINUOUS
 62
     0
100
AcDbLine
 10
573.400000000001
 20
59.0
 11
395.109930085058
 21
59.0
  0
ARC
  5
46B
100
AcDbEntity
  8
2
  6
CONTINUOUS
 62
     0
100
AcDbCircle
 10
395.109930085058
 20
21.5
 40
37.5
100
AcDbArc
 50
90.0
 51
150.0
  0
ARC
  5
46C
100
AcDbEntity
  8
2
  6
CONTINUOUS
 62
     0
100
AcDbCircle
 10
395.109930085058
 20
21.5
 40
28.5
100
AcDbArc
 50
90.0
 51
149.999999999999
  0
ARC
  5
46D
100
AcDbEntity
  8
2
  6
CONTINUOUS
 62
     0
100
AcDbCircle
 10
325.827897782303
 20
61.5
 40
42.5
100
AcDbArc
 50
270.0
 51
330.0
  0
ARC
  5
46E
100
AcDbEntity
  8
7
  6
CENTER2
 62
    40
100
AcDbCircle
 10
325.827897782303
 20
61.5
 40
47.0
100
AcDbArc
 50
270.0
 51
330.0
  0
ARC
  5
46F
100
AcDbEntity
  8
2
  6
CONTINUOUS
 62
     0
100
AcDbCircle
 10
325.827897782303
 20
61.5
 40
51.5
100
AcDbArc
 50
270.0
 51
330.0
  0
LINE
  5
470
100
AcDbEntity
  8
2
  6
CONTINUOUS
 62
     0
100
AcDbLine
 10
325.827897782303
 20
19.0
 11
155.5
 21
19.0
  0
LINE
  5
471
100
AcDbEntity
  8
2
  6
CONTINUOUS
 62
     0
100
AcDbLine
 10
155.5
 20
10.0
 11
325.827897782303
 21
10.0
  0
LINE
  5
472
100
AcDbEntity
  8
2
  6
CONTINUOUS
 62
     0
100
AcDbLine
 10
153.0
 20
22.2
 11
151.0
 21
24.2
  0
LINE
  5
473
100
AcDbEntity
  8
2
  6
CONTINUOUS
 62
     0
100
AcDbLine
 10
151.0
 20
22.2
 11
153.0
 21
24.2
  0
CIRCLE
  5
474
100
AcDbEntity
  8
2
  6
CONTINUOUS
 62
     0
100
AcDbCircle
 10
152.0
 20
23.2
 40
2.75
  0
LINE
  5
475
100
AcDbEntity
  8
2
  6
CONTINUOUS
 62
     0
100
AcDbLine
 10
147.5
 20
24.5
 11
147.5
 21
4.5
  0
LINE
  5
476
100
AcDbEntity
  8
2
  6
CONTINUOUS
 62
     0
100
AcDbLine
 10
155.5
 20
5.0
 11
155.5
 21
24.0
  0
ARC
  5
477
100
AcDbEntity
  8
2
  6
CONTINUOUS
 62
     0
100
AcDbCircle
 10
147.416
 20
26.547
 40
1.99999999999995
100
AcDbArc
 50
259.795999999989
 51
320.445000000004
  0
ARC
  5
478
100
AcDbEntity
  8
2
  6
CONTINUOUS
 62
     0
100
AcDbCircle
 10
153.5
 20
24.0
 40
1.99999999999994
100
AcDbArc
 50
0.0
 51
90.0
  0
LINE
  5
479
100
AcDbEntity
  8
2
  6
CONTINUOUS
 62
     0
100
AcDbLine
 10
153.5
 20
26.0
 11
150.5
 21
26.0
  0
ARC
  5
47A
100
AcDbEntity
  8
2
  6
CONTINUOUS
 62
     0
100
AcDbCircle
 10
150.5
 20
24.0
 40
1.99999999999994
100
AcDbArc
 50
90.0
 51
180.0
  0
LINE
  5
47B
100
AcDbEntity
  8
2
  6
CONTINUOUS
 62
     0
100
AcDbLine
 10
148.5
 20
24.0
 11
148.5
 21
5.0
  0
LINE
  5
47C
100
AcDbEntity
  8
2
  6
CONTINUOUS
 62
     0
100
AcDbLine
 10
147.5
 20
24.5
 11
130.5
 21
27.3000000000001
  0
LINE
  5
47D
100
AcDbEntity
  8
2
  6
CONTINUOUS
 62
     0
100
AcDbLine
 10
153.0
 20
6.80000000000007
 11
151.0
 21
4.80000000000007
  0
LINE
  5
47E
100
AcDbEntity
  8
2
  6
CONTINUOUS
 62
     0
100
AcDbLine
 10
151.0
 20
6.80000000000007
 11
153.0
 21
4.80000000000007
  0
CIRCLE
  5
47F
100
AcDbEntity
  8
2
  6
CONTINUOUS
 62
     0
100
AcDbCircle
 10
152.0
 20
5.80000000000007
 40
2.75
  0
ARC
  5
480
100
AcDbEntity
  8
2
  6
CONTINUOUS
 62
     0
100
AcDbCircle
 10
153.5
 20
5.0
 40
1.99999999999994
100
AcDbArc
 50
270.0
 51
0.0
  0
ARC
  5
481
100
AcDbEntity
  8
2
  6
CONTINUOUS
 62
     0
100
AcDbCircle
 10
150.5
 20
5.0
 40
1.99999999999994
100
AcDbArc
 50
180.0
 51
270.0
  0
LINE
  5
482
100
AcDbEntity
  8
2
  6
CONTINUOUS
 62
     0
100
AcDbLine
 10
150.5
 20
3.0
 11
153.5
 21
3.0
  0
ARC
  5
483
100
AcDbEntity
  8
2
  6
CONTINUOUS
 62
     0
100
AcDbCircle
 10
147.416
 20
2.45300000000009
 40
1.99999999999993
100
AcDbArc
 50
39.5549999999957
 51
100.204000000011
  0
LINE
  5
484
100
AcDbEntity
  8
2
  6
CONTINUOUS
 62
     0
100
AcDbLine
 10
147.061693100593
 20
4.42136648544704
 11
130.5
 21
1.70000000000005
  0
LINE
  5
485
100
AcDbEntity
  8
2
  6
CONTINUOUS
 62
     0
100
AcDbLine
 10
120.5
 20
27.3000000000001
 11
130.5
 21
27.3000000000001
  0
LINE
  5
486
100
AcDbEntity
  8
2
  6
CONTINUOUS
 62
     0
100
AcDbLine
 10
120.5
 20
1.0
 11
120.5
 21
28.0
  0
LINE
  5
487
100
AcDbEntity
  8
2
  6
CONTINUOUS
 62
     0
100
AcDbLine
 10
117.5
 20
-0.0999999999999091
 11
117.5
 21
29.1
  0
LINE
  5
488
100
AcDbEntity
  8
2
  6
CONTINUOUS
 62
     0
100
AcDbLine
 10
117.5
 20
21.0
 11
107.5
 21
21.0
  0
LINE
  5
489
100
AcDbEntity
  8
2
  6
CONTINUOUS
 62
     0
100
AcDbLine
 10
117.5
 20
20.0
 11
107.5
 21
20.0
  0
LINE
  5
48A
100
AcDbEntity
  8
2
  6
CONTINUOUS
 62
     0
100
AcDbLine
 10
117.5
 20
19.0
 11
107.5
 21
19.0
  0
LINE
  5
48B
100
AcDbEntity
  8
2
  6
CONTINUOUS
 62
     0
100
AcDbLine
 10
117.5
 20
18.0
 11
107.5
 21
18.0
  0
LINE
  5
48C
100
AcDbEntity
  8
2
  6
CONTINUOUS
 62
     0
100
AcDbLine
 10
117.5
 20
17.0
 11
107.5
 21
17.0
  0
LINE
  5
48D
100
AcDbEntity
  8
2
  6
CONTINUOUS
 62
     0
100
AcDbLine
 10
117.5
 20
15.0
 11
107.5
 21
15.0
  0
LINE
  5
48E
100
AcDbEntity
  8
2
  6
CONTINUOUS
 62
     0
100
AcDbLine
 10
117.5
 20
16.0
 11
107.5
 21
16.0
  0
LINE
  5
48F
100
AcDbEntity
  8
2
  6
CONTINUOUS
 62
     0
100
AcDbLine
 10
107.5
 20
29.1
 11
107.5
 21
-0.0999999999999091
  0
LINE
  5
490
100
AcDbEntity
  8
2
  6
CONTINUOUS
 62
     0
100
AcDbLine
 10
117.5
 20
7.0
 11
107.5
 21
7.0
  0
LINE
  5
491
100
AcDbEntity
  8
2
  6
CONTINUOUS
 62
     0
100
AcDbLine
 10
107.5
 20
6.0
 11
117.5
 21
6.0
  0
LINE
  5
492
100
AcDbEntity
  8
2
  6
CONTINUOUS
 62
     0
100
AcDbLine
 10
117.5
 20
5.0
 11
107.5
 21
5.0
  0
LINE
  5
493
100
AcDbEntity
  8
2
  6
CONTINUOUS
 62
     0
100
AcDbLine
 10
107.5
 20
4.0
 11
117.5
 21
4.0
  0
LINE
  5
494
100
AcDbEntity
  8
2
  6
CONTINUOUS
 62
     0
100
AcDbLine
 10
107.5
 20
10.0
 11
117.5
 21
10.0
  0
LINE
  5
495
100
AcDbEntity
  8
2
  6
CONTINUOUS
 62
     0
100
AcDbLine
 10
117.5
 20
9.0
 11
107.5
 21
9.0
  0
LINE
  5
496
100
AcDbEntity
  8
2
  6
CONTINUOUS
 62
     0
100
AcDbLine
 10
107.5
 20
8.0
 11
117.5
 21
8.0
  0
LINE
  5
497
100
AcDbEntity
  8
2
  6
CONTINUOUS
 62
     0
100
AcDbLine
 10
117.5
 20
11.0
 11
107.5
 21
11.0
  0
LINE
  5
498
100
AcDbEntity
  8
2
  6
CONTINUOUS
 62
     0
100
AcDbLine
 10
117.5
 20
12.0
 11
107.5
 21
12.0
  0
LINE
  5
499
100
AcDbEntity
  8
2
  6
CONTINUOUS
 62
     0
100
AcDbLine
 10
117.5
 20
13.0
 11
107.5
 21
13.0
  0
LINE
  5
49A
100
AcDbEntity
  8
2
  6
CONTINUOUS
 62
     0
100
AcDbLine
 10
117.5
 20
14.0
 11
107.5
 21
14.0
  0
LINE
  5
49B
100
AcDbEntity
  8
2
  6
CONTINUOUS
 62
     0
100
AcDbLine
 10
120.5
 20
1.70000000000005
 11
130.5
 21
1.70000000000005
  0
LINE
  5
49C
100
AcDbEntity
  8
2
  6
CONTINUOUS
 62
     0
100
AcDbLine
 10
117.5
 20
3.0
 11
107.5
 21
3.0
  0
LINE
  5
49D
100
AcDbEntity
  8
2
  6
CONTINUOUS
 62
     0
100
AcDbLine
 10
117.5
 20
2.0
 11
107.5
 21
2.0
  0
LINE
  5
49E
100
AcDbEntity
  8
2
  6
CONTINUOUS
 62
     0
100
AcDbLine
 10
104.5
 20
1.0
 11
107.5
 21
1.0
  0
LINE
  5
49F
100
AcDbEntity
  8
2
  6
CONTINUOUS
 62
     0
100
AcDbLine
 10
107.5
 20
1.0
 11
117.5
 21
1.0
  0
LINE
  5
4A0
100
AcDbEntity
  8
2
  6
CONTINUOUS
 62
     0
100
AcDbLine
 10
117.5
 20
1.0
 11
120.5
 21
1.0
  0
LINE
  5
4A1
100
AcDbEntity
  8
2
  6
CONTINUOUS
 62
     0
100
AcDbLine
 10
107.5
 20
0.5
 11
117.5
 21
0.5
  0
LINE
  5
4A2
100
AcDbEntity
  8
2
  6
CONTINUOUS
 62
     0
100
AcDbLine
 10
107.5
 20
-0.0999999999999091
 11
117.5
 21
-0.0999999999999091
  0
LINE
  5
4A3
100
AcDbEntity
  8
2
  6
CONTINUOUS
 62
     0
100
AcDbLine
 10
107.5
 20
27.0
 11
117.5
 21
27.0
  0
LINE
  5
4A4
100
AcDbEntity
  8
2
  6
CONTINUOUS
 62
     0
100
AcDbLine
 10
117.5
 20
26.0
 11
107.5
 21
26.0
  0
LINE
  5
4A5
100
AcDbEntity
  8
2
  6
CONTINUOUS
 62
     0
100
AcDbLine
 10
107.5
 20
25.0
 11
117.5
 21
25.0
  0
LINE
  5
4A6
100
AcDbEntity
  8
2
  6
CONTINUOUS
 62
     0
100
AcDbLine
 10
117.5
 20
24.0
 11
107.5
 21
24.0
  0
LINE
  5
4A7
100
AcDbEntity
  8
2
  6
CONTINUOUS
 62
     0
100
AcDbLine
 10
107.5
 20
23.0
 11
117.5
 21
23.0
  0
LINE
  5
4A8
100
AcDbEntity
  8
2
  6
CONTINUOUS
 62
     0
100
AcDbLine
 10
117.5
 20
22.0
 11
107.5
 21
22.0
  0
LINE
  5
4A9
100
AcDbEntity
  8
2
  6
CONTINUOUS
 62
     0
100
AcDbLine
 10
120.5
 20
28.0
 11
117.5
 21
28.0
  0
LINE
  5
4AA
100
AcDbEntity
  8
2
  6
CONTINUOUS
 62
     0
100
AcDbLine
 10
117.5
 20
28.5
 11
107.5
 21
28.5
  0
LINE
  5
4AB
100
AcDbEntity
  8
2
  6
CONTINUOUS
 62
     0
100
AcDbLine
 10
104.5
 20
28.0
 11
117.5
 21
28.0
  0
LINE
  5
4AC
100
AcDbEntity
  8
2
  6
CONTINUOUS
 62
     0
100
AcDbLine
 10
107.5
 20
29.1
 11
117.5
 21
29.1
  0
LINE
  5
4AD
100
AcDbEntity
  8
2
  6
CONTINUOUS
 62
     0
100
AcDbLine
 10
104.5
 20
28.0
 11
104.5
 21
1.0
  0
LINE
  5
4AE
100
AcDbEntity
  8
2
  6
CONTINUOUS
 62
     0
100
AcDbLine
 10
132.5
 20
31.0
 11
355.4251949562
 21
31.0
  0
LINE
  5
4AF
100
AcDbEntity
  8
2
  6
CONTINUOUS
 62
     0
100
AcDbLine
 10
367.324885624796
 20
31.0
 11
468.500000000001
 21
31.0
  0
LINE
  5
4B0
100
AcDbEntity
  8
2
  6
CONTINUOUS
 62
     0
100
AcDbLine
 10
227.0
 20
-31.0
 11
227.0
 21
-20.299999999999
  0
LINE
  5
4B1
100
AcDbEntity
  8
2
  6
CONTINUOUS
 62
     0
100
AcDbLine
 10
227.0
 20
-11.699999999999
 11
227.0
 21
10.0
  0
LINE
  5
4B2
100
AcDbEntity
  8
2
  6
CONTINUOUS
 62
     0
100
AcDbLine
 10
227.0
 20
19.0
 11
227.0
 21
31.0
  0
LINE
  5
4B3
100
AcDbEntity
  8
2
  6
CONTINUOUS
 62
     0
100
AcDbLine
 10
215.0
 20
-31.0
 11
215.0
 21
-20.299999999999
  0
LINE
  5
4B4
100
AcDbEntity
  8
2
  6
CONTINUOUS
 62
     0
100
AcDbLine
 10
215.0
 20
-11.699999999999
 11
215.0
 21
10.0
  0
LINE
  5
4B5
100
AcDbEntity
  8
2
  6
CONTINUOUS
 62
     0
100
AcDbLine
 10
215.0
 20
19.0
 11
215.0
 21
31.0
  0
LINE
  5
4B6
100
AcDbEntity
  8
2
  6
CONTINUOUS
 62
     0
100
AcDbLine
 10
190.0
 20
-31.0
 11
190.0
 21
-20.299999999999
  0
LINE
  5
4B7
100
AcDbEntity
  8
2
  6
CONTINUOUS
 62
     0
100
AcDbLine
 10
190.0
 20
-11.699999999999
 11
190.0
 21
10.0
  0
LINE
  5
4B8
100
AcDbEntity
  8
2
  6
CONTINUOUS
 62
     0
100
AcDbLine
 10
190.0
 20
19.0
 11
190.0
 21
31.0
  0
LINE
  5
4B9
100
AcDbEntity
  8
2
  6
CONTINUOUS
 62
     0
100
AcDbLine
 10
183.0
 20
-31.0
 11
183.0
 21
-20.299999999999
  0
LINE
  5
4BA
100
AcDbEntity
  8
2
  6
CONTINUOUS
 62
     0
100
AcDbLine
 10
183.0
 20
-11.699999999999
 11
183.0
 21
10.0
  0
LINE
  5
4BB
100
AcDbEntity
  8
2
  6
CONTINUOUS
 62
     0
100
AcDbLine
 10
183.0
 20
19.0
 11
183.0
 21
31.0
  0
LINE
  5
4BC
100
AcDbEntity
  8
2
  6
CONTINUOUS
 62
     0
100
AcDbLine
 10
125.0
 20
-40.685301287778
 11
125.0
 21
-27.8
  0
LINE
  5
4BD
100
AcDbEntity
  8
2
  6
CONTINUOUS
 62
     0
100
AcDbLine
 10
125.0
 20
-4.20000000000005
 11
125.0
 21
1.70000000000005
  0
LINE
  5
4BE
100
AcDbEntity
  8
2
  6
CONTINUOUS
 62
     0
100
AcDbLine
 10
125.0
 20
27.3000000000001
 11
125.0
 21
40.685301287778
  0
LINE
  5
4BF
100
AcDbEntity
  8
2
  6
CONTINUOUS
 62
     0
100
AcDbLine
 10
109.0
 20
-40.685301287778
 11
109.0
 21
-29.0
  0
LINE
  5
4C0
100
AcDbEntity
  8
2
  6
CONTINUOUS
 62
     0
100
AcDbLine
 10
109.0
 20
-3.0
 11
109.0
 21
-0.0999999999999091
  0
LINE
  5
4C1
100
AcDbEntity
  8
2
  6
CONTINUOUS
 62
     0
100
AcDbLine
 10
109.0
 20
29.1
 11
109.0
 21
40.685301287778
  0
LINE
  5
4C2
100
AcDbEntity
  8
2
  6
CONTINUOUS
 62
     0
100
AcDbLine
 10
118.0
 20
-40.685301287778
 11
118.0
 21
-28.5
  0
LINE
  5
4C3
100
AcDbEntity
  8
2
  6
CONTINUOUS
 62
     0
100
AcDbLine
 10
118.0
 20
-3.5
 11
118.0
 21
1.0
  0
LINE
  5
4C4
100
AcDbEntity
  8
2
  6
CONTINUOUS
 62
     0
100
AcDbLine
 10
118.0
 20
28.0
 11
118.0
 21
40.685301287778
  0
LINE
  5
4C5
100
AcDbEntity
  8
7
  6
CENTER2
 62
    40
100
AcDbLine
 10
89.826048808838
 20
14.5
 11
325.827897782303
 21
14.5
  0
ENDBLK
  5
4C6
100
AcDbEntity
  8
7
100
AcDbBlockEnd
  0
BLOCK
  5
270
100
AcDbEntity
  8
2
100
AcDbBlockBegin
  2
SUB11
 70
    64
 10
0.0
 20
0.0
  0
LINE
  5
271
100
AcDbEntity
  8
2
  6
CONTINUOUS
 62
     0
100
AcDbLine
 10
0.0
 20
-5.0
 11
0.0
 21
5.0
  0
LINE
  5
272
100
AcDbEntity
  8
2
  6
CONTINUOUS
 62
     0
100
AcDbLine
 10
-1.5
 20
-5.0
 11
-1.5
 21
5.0
  0
LINE
  5
273
100
AcDbEntity
  8
2
  6
CONTINUOUS
 62
     0
100
AcDbLine
 10
-7.10000000000002
 20
5.0
 11
0.0
 21
5.0
  0
LINE
  5
274
100
AcDbEntity
  8
2
  6
CONTINUOUS
 62
     0
100
AcDbLine
 10
-7.10000000000002
 20
-5.0
 11
0.0
 21
-5.0
  0
LINE
  5
275
100
AcDbEntity
  8
2
  6
CONTINUOUS
 62
     0
100
AcDbLine
 10
-7.5
 20
-4.307179676972
 11
-7.5
 21
4.30717967697296
  0
LINE
  5
276
100
AcDbEntity
  8
2
  6
CONTINUOUS
 62
     0
100
AcDbLine
 10
-7.10000000000002
 20
-5.0
 11
-7.10000000000002
 21
5.0
  0
LINE
  5
277
100
AcDbEntity
  8
2
  6
CONTINUOUS
 62
     0
100
AcDbLine
 10
-7.10000000000002
 20
-5.0
 11
-7.5
 21
-4.307179676972
  0
LINE
  5
278
100
AcDbEntity
  8
2
  6
CONTINUOUS
 62
     0
100
AcDbLine
 10
-7.10000000000002
 20
5.0
 11
-7.5
 21
4.30717967697296
  0
LINE
  5
279
100
AcDbEntity
  8
2
  6
CONTINUOUS
 62
     0
100
AcDbLine
 10
-1.5
 20
0.0
 11
0.0
 21
-2.08447098732
  0
LINE
  5
27A
100
AcDbEntity
  8
2
  6
CONTINUOUS
 62
     0
100
AcDbLine
 10
0.0
 20
0.0
 11
-1.5
 21
2.06036782264698
  0
ENDBLK
  5
27B
100
AcDbEntity
  8
2
100
AcDbBlockEnd
  0
BLOCK
  5
314
100
AcDbEntity
  8
2
100
AcDbBlockBegin
  2
SUB12
 70
    64
 10
0.0
 20
0.0
  0
LINE
  5
315
100
AcDbEntity
  8
2
  6
CONTINUOUS
 62
     0
100
AcDbLine
 10
0.0
 20
-5.0
 11
0.0
 21
5.0
  0
LINE
  5
316
100
AcDbEntity
  8
2
  6
CONTINUOUS
 62
     0
100
AcDbLine
 10
-1.5
 20
-5.0
 11
-1.5
 21
5.0
  0
LINE
  5
317
100
AcDbEntity
  8
2
  6
CONTINUOUS
 62
     0
100
AcDbLine
 10
-7.09999999999991
 20
5.0
 11
0.0
 21
5.0
  0
LINE
  5
318
100
AcDbEntity
  8
2
  6
CONTINUOUS
 62
     0
100
AcDbLine
 10
-7.09999999999991
 20
-5.0
 11
0.0
 21
-5.0
  0
LINE
  5
319
100
AcDbEntity
  8
2
  6
CONTINUOUS
 62
     0
100
AcDbLine
 10
-7.5
 20
-4.307179676972
 11
-7.5
 21
4.30717967697296
  0
LINE
  5
31A
100
AcDbEntity
  8
2
  6
CONTINUOUS
 62
     0
100
AcDbLine
 10
-7.09999999999991
 20
-5.0
 11
-7.09999999999991
 21
5.0
  0
LINE
  5
31B
100
AcDbEntity
  8
2
  6
CONTINUOUS
 62
     0
100
AcDbLine
 10
-7.09999999999991
 20
-5.0
 11
-7.5
 21
-4.307179676972
  0
LINE
  5
31C
100
AcDbEntity
  8
2
  6
CONTINUOUS
 62
     0
100
AcDbLine
 10
-7.09999999999991
 20
5.0
 11
-7.5
 21
4.30717967697296
  0
LINE
  5
31D
100
AcDbEntity
  8
2
  6
CONTINUOUS
 62
     0
100
AcDbLine
 10
-1.5
 20
0.0
 11
0.0
 21
-2.08447098732
  0
LINE
  5
31E
100
AcDbEntity
  8
2
  6
CONTINUOUS
 62
     0
100
AcDbLine
 10
0.0
 20
0.0
 11
-1.5
 21
2.06036782264698
  0
ENDBLK
  5
31F
100
AcDbEntity
  8
2
100
AcDbBlockEnd
  0
BLOCK
  5
322
100
AcDbEntity
  8
2
100
AcDbBlockBegin
  2
SUB13
 70
    64
 10
0.0
 20
0.0
  0
LINE
  5
323
100
AcDbEntity
  8
2
  6
CONTINUOUS
 62
     0
100
AcDbLine
 10
0.0
 20
-5.0
 11
0.0
 21
5.0
  0
LINE
  5
324
100
AcDbEntity
  8
2
  6
CONTINUOUS
 62
     0
100
AcDbLine
 10
1.5
 20
-5.0
 11
1.5
 21
5.0
  0
LINE
  5
325
100
AcDbEntity
  8
2
  6
CONTINUOUS
 62
     0
100
AcDbLine
 10
7.10000000000002
 20
5.0
 11
0.0
 21
5.0
  0
LINE
  5
326
100
AcDbEntity
  8
2
  6
CONTINUOUS
 62
     0
100
AcDbLine
 10
7.10000000000002
 20
-5.0
 11
0.0
 21
-5.0
  0
LINE
  5
327
100
AcDbEntity
  8
2
  6
CONTINUOUS
 62
     0
100
AcDbLine
 10
7.5
 20
-4.307179676972
 11
7.5
 21
4.30717967697296
  0
LINE
  5
328
100
AcDbEntity
  8
2
  6
CONTINUOUS
 62
     0
100
AcDbLine
 10
7.10000000000002
 20
-5.0
 11
7.10000000000002
 21
5.0
  0
LINE
  5
329
100
AcDbEntity
  8
2
  6
CONTINUOUS
 62
     0
100
AcDbLine
 10
7.10000000000002
 20
-5.0
 11
7.5
 21
-4.307179676972
  0
LINE
  5
32A
100
AcDbEntity
  8
2
  6
CONTINUOUS
 62
     0
100
AcDbLine
 10
7.10000000000002
 20
5.0
 11
7.5
 21
4.30717967697296
  0
LINE
  5
32B
100
AcDbEntity
  8
2
  6
CONTINUOUS
 62
     0
100
AcDbLine
 10
1.5
 20
0.0
 11
0.0
 21
-2.08447098732
  0
LINE
  5
32C
100
AcDbEntity
  8
2
  6
CONTINUOUS
 62
     0
100
AcDbLine
 10
0.0
 20
0.0
 11
1.5
 21
2.06036782264698
  0
ENDBLK
  5
32D
100
AcDbEntity
  8
2
100
AcDbBlockEnd
  0
BLOCK
  5
38F
100
AcDbEntity
  8
2
100
AcDbBlockBegin
  2
SUB14
 70
    64
 10
0.0
 20
0.0
  0
CIRCLE
  5
390
100
AcDbEntity
  8
2
  6
CONTINUOUS
 62
     0
100
AcDbCircle
 10
0.0
 20
0.0
 40
2.75
  0
CIRCLE
  5
391
100
AcDbEntity
  8
2
  6
CONTINUOUS
 62
     0
100
AcDbCircle
 10
0.0
 20
0.0
 40
2.41
  0
LWPOLYLINE
  5
392
100
AcDbEntity
  8
2
  6
CONTINUOUS
 62
     0
100
AcDbPolyline
 90
        6
 70
     1
 43
0.0
 10
1.44337567297396
 20
0.0
 10
0.721687836486979
 20
1.25
 10
-0.721687836487035
 20
1.25
 10
-1.44337567297401
 20
0.0
 10
-0.721687836487035
 20
-1.25
 10
0.721687836486979
 20
-1.25
  0
ENDBLK
  5
393
100
AcDbEntity
  8
2
100
AcDbBlockEnd
  0
BLOCK
  5
396
100
AcDbEntity
  8
2
100
AcDbBlockBegin
  2
SUB15
 70
    64
 10
0.0
 20
0.0
  0
CIRCLE
  5
397
100
AcDbEntity
  8
2
  6
CONTINUOUS
 62
     0
100
AcDbCircle
 10
0.0
 20
0.0
 40
2.75
  0
CIRCLE
  5
398
100
AcDbEntity
  8
2
  6
CONTINUOUS
 62
     0
100
AcDbCircle
 10
0.0
 20
0.0
 40
2.41
  0
LWPOLYLINE
  5
399
100
AcDbEntity
  8
2
  6
CONTINUOUS
 62
     0
100
AcDbPolyline
 90
        6
 70
     1
 43
0.0
 10
1.44337567297396
 20
0.0
 10
0.721687836486979
 20
1.25
 10
-0.721687836487035
 20
1.25
 10
-1.44337567297401
 20
0.0
 10
-0.721687836487035
 20
-1.25
 10
0.721687836486979
 20
-1.25
  0
ENDBLK
  5
39A
100
AcDbEntity
  8
2
100
AcDbBlockEnd
  0
BLOCK
  5
39D
100
AcDbEntity
  8
2
100
AcDbBlockBegin
  2
SUB16
 70
    64
 10
0.0
 20
0.0
  0
CIRCLE
  5
39E
100
AcDbEntity
  8
2
  6
CONTINUOUS
 62
     0
100
AcDbCircle
 10
0.0
 20
0.0
 40
2.75
  0
CIRCLE
  5
39F
100
AcDbEntity
  8
2
  6
CONTINUOUS
 62
     0
100
AcDbCircle
 10
0.0
 20
0.0
 40
2.41
  0
LWPOLYLINE
  5
3A0
100
AcDbEntity
  8
2
  6
CONTINUOUS
 62
     0
100
AcDbPolyline
 90
        6
 70
     1
 43
0.0
 10
1.44337567297396
 20
0.0
 10
0.721687836486979
 20
1.25
 10
-0.721687836487035
 20
1.25
 10
-1.44337567297401
 20
0.0
 10
-0.721687836487035
 20
-1.25
 10
0.721687836486979
 20
-1.25
  0
ENDBLK
  5
3A1
100
AcDbEntity
  8
2
100
AcDbBlockEnd
  0
BLOCK
  5
3A4
100
AcDbEntity
  8
2
100
AcDbBlockBegin
  2
SUB17
 70
    64
 10
0.0
 20
0.0
  0
CIRCLE
  5
3A5
100
AcDbEntity
  8
2
  6
CONTINUOUS
 62
     0
100
AcDbCircle
 10
0.0
 20
0.0
 40
2.75
  0
CIRCLE
  5
3A6
100
AcDbEntity
  8
2
  6
CONTINUOUS
 62
     0
100
AcDbCircle
 10
0.0
 20
0.0
 40
2.41
  0
LWPOLYLINE
  5
3A7
100
AcDbEntity
  8
2
  6
CONTINUOUS
 62
     0
100
AcDbPolyline
 90
        6
 70
     1
 43
0.0
 10
1.44337567297396
 20
0.0
 10
0.721687836486979
 20
1.25
 10
-0.721687836487035
 20
1.25
 10
-1.44337567297401
 20
0.0
 10
-0.721687836487035
 20
-1.25
 10
0.721687836486979
 20
-1.25
  0
ENDBLK
  5
3A8
100
AcDbEntity
  8
2
100
AcDbBlockEnd
  0
BLOCK
  5
3AD
100
AcDbEntity
  8
7
100
AcDbBlockBegin
  2
SUB18
 70
    64
 10
0.0
 20
0.0
  0
LINE
  5
3AE
100
AcDbEntity
  8
2
  6
CONTINUOUS
 62
     0
100
AcDbLine
 10
0.0
 20
-2.75
 11
0.0
 21
2.75
  0
LINE
  5
3AF
100
AcDbEntity
  8
2
  6
CONTINUOUS
 62
     0
100
AcDbLine
 10
0.699999999999989
 20
-2.75
 11
0.699999999999989
 21
2.75
  0
LINE
  5
3B0
100
AcDbEntity
  8
2
  6
CONTINUOUS
 62
     0
100
AcDbLine
 10
3.5
 20
2.75
 11
0.0
 21
2.75
  0
LINE
  5
3B1
100
AcDbEntity
  8
2
  6
CONTINUOUS
 62
     0
100
AcDbLine
 10
3.5
 20
-2.75
 11
0.0
 21
-2.75
  0
LINE
  5
3B2
100
AcDbEntity
  8
2
  6
CONTINUOUS
 62
     0
100
AcDbLine
 10
3.69999999999999
 20
-2.40358983848603
 11
3.69999999999999
 21
2.40358983848597
  0
LINE
  5
3B3
100
AcDbEntity
  8
2
  6
CONTINUOUS
 62
     0
100
AcDbLine
 10
3.5
 20
-2.75
 11
3.5
 21
2.75
  0
LINE
  5
3B4
100
AcDbEntity
  8
2
  6
CONTINUOUS
 62
     0
100
AcDbLine
 10
3.5
 20
2.75
 11
3.69999999999999
 21
2.40358983848597
  0
LINE
  5
3B5
100
AcDbEntity
  8
2
  6
CONTINUOUS
 62
     0
100
AcDbLine
 10
3.5
 20
-2.75
 11
3.69999999999999
 21
-2.40358983848603
  0
LINE
  5
3B6
100
AcDbEntity
  8
2
  6
CONTINUOUS
 62
     0
100
AcDbLine
 10
0.699999999999989
 20
0.0
 11
0.0
 21
-0.885575294495027
  0
LINE
  5
3B7
100
AcDbEntity
  8
2
  6
CONTINUOUS
 62
     0
100
AcDbLine
 10
0.0
 20
0.0
 11
0.699999999999989
 21
0.883089601993959
  0
ENDBLK
  5
3B8
100
AcDbEntity
  8
2
100
AcDbBlockEnd
  0
BLOCK
  5
3BB
100
AcDbEntity
  8
7
100
AcDbBlockBegin
  2
SUB19
 70
    64
 10
0.0
 20
0.0
  0
LINE
  5
3BC
100
AcDbEntity
  8
2
  6
CONTINUOUS
 62
     0
100
AcDbLine
 10
0.0
 20
-2.75
 11
0.0
 21
2.75
  0
LINE
  5
3BD
100
AcDbEntity
  8
2
  6
CONTINUOUS
 62
     0
100
AcDbLine
 10
0.699999999999989
 20
-2.75
 11
0.699999999999989
 21
2.75
  0
LINE
  5
3BE
100
AcDbEntity
  8
2
  6
CONTINUOUS
 62
     0
100
AcDbLine
 10
3.5
 20
2.75
 11
0.0
 21
2.75
  0
LINE
  5
3BF
100
AcDbEntity
  8
2
  6
CONTINUOUS
 62
     0
100
AcDbLine
 10
3.5
 20
-2.75
 11
0.0
 21
-2.75
  0
LINE
  5
3C0
100
AcDbEntity
  8
2
  6
CONTINUOUS
 62
     0
100
AcDbLine
 10
3.69999999999999
 20
-2.40358983848603
 11
3.69999999999999
 21
2.40358983848597
  0
LINE
  5
3C1
100
AcDbEntity
  8
2
  6
CONTINUOUS
 62
     0
100
AcDbLine
 10
3.5
 20
-2.75
 11
3.5
 21
2.75
  0
LINE
  5
3C2
100
AcDbEntity
  8
2
  6
CONTINUOUS
 62
     0
100
AcDbLine
 10
3.5
 20
2.75
 11
3.69999999999999
 21
2.40358983848597
  0
LINE
  5
3C3
100
AcDbEntity
  8
2
  6
CONTINUOUS
 62
     0
100
AcDbLine
 10
3.5
 20
-2.75
 11
3.69999999999999
 21
-2.40358983848603
  0
LINE
  5
3C4
100
AcDbEntity
  8
2
  6
CONTINUOUS
 62
     0
100
AcDbLine
 10
0.699999999999989
 20
0.0
 11
0.0
 21
-0.885575294495027
  0
LINE
  5
3C5
100
AcDbEntity
  8
2
  6
CONTINUOUS
 62
     0
100
AcDbLine
 10
0.0
 20
0.0
 11
0.699999999999989
 21
0.883089601993959
  0
ENDBLK
  5
3C6
100
AcDbEntity
  8
2
100
AcDbBlockEnd
  0
BLOCK
  5
3CB
100
AcDbEntity
  8
7
100
AcDbBlockBegin
  2
SUB20
 70
    64
 10
0.0
 20
0.0
  0
LINE
  5
3CC
100
AcDbEntity
  8
2
  6
CONTINUOUS
 62
     0
100
AcDbLine
 10
0.0
 20
-2.75
 11
0.0
 21
2.75
  0
LINE
  5
3CD
100
AcDbEntity
  8
2
  6
CONTINUOUS
 62
     0
100
AcDbLine
 10
0.699999999999989
 20
-2.75
 11
0.699999999999989
 21
2.75
  0
LINE
  5
3CE
100
AcDbEntity
  8
2
  6
CONTINUOUS
 62
     0
100
AcDbLine
 10
3.5
 20
2.75
 11
0.0
 21
2.75
  0
LINE
  5
3CF
100
AcDbEntity
  8
2
  6
CONTINUOUS
 62
     0
100
AcDbLine
 10
3.5
 20
-2.75
 11
0.0
 21
-2.75
  0
LINE
  5
3D0
100
AcDbEntity
  8
2
  6
CONTINUOUS
 62
     0
100
AcDbLine
 10
3.69999999999999
 20
-2.40358983848603
 11
3.69999999999999
 21
2.40358983848597
  0
LINE
  5
3D1
100
AcDbEntity
  8
2
  6
CONTINUOUS
 62
     0
100
AcDbLine
 10
3.5
 20
-2.75
 11
3.5
 21
2.75
  0
LINE
  5
3D2
100
AcDbEntity
  8
2
  6
CONTINUOUS
 62
     0
100
AcDbLine
 10
3.5
 20
2.75
 11
3.69999999999999
 21
2.40358983848597
  0
LINE
  5
3D3
100
AcDbEntity
  8
2
  6
CONTINUOUS
 62
     0
100
AcDbLine
 10
3.5
 20
-2.75
 11
3.69999999999999
 21
-2.40358983848603
  0
LINE
  5
3D4
100
AcDbEntity
  8
2
  6
CONTINUOUS
 62
     0
100
AcDbLine
 10
0.699999999999989
 20
0.0
 11
0.0
 21
-0.885575294495027
  0
LINE
  5
3D5
100
AcDbEntity
  8
2
  6
CONTINUOUS
 62
     0
100
AcDbLine
 10
0.0
 20
0.0
 11
0.699999999999989
 21
0.883089601993959
  0
ENDBLK
  5
3D6
100
AcDbEntity
  8
2
100
AcDbBlockEnd
  0
BLOCK
  5
3DA
100
AcDbEntity
  8
7
100
AcDbBlockBegin
  2
SUB21
 70
    64
 10
0.0
 20
0.0
  0
LINE
  5
3DB
100
AcDbEntity
  8
2
  6
CONTINUOUS
 62
     0
100
AcDbLine
 10
0.0
 20
-2.75
 11
0.0
 21
2.75
  0
LINE
  5
3DC
100
AcDbEntity
  8
2
  6
CONTINUOUS
 62
     0
100
AcDbLine
 10
0.699999999999989
 20
-2.75
 11
0.699999999999989
 21
2.75
  0
LINE
  5
3DD
100
AcDbEntity
  8
2
  6
CONTINUOUS
 62
     0
100
AcDbLine
 10
3.5
 20
2.75
 11
0.0
 21
2.75
  0
LINE
  5
3DE
100
AcDbEntity
  8
2
  6
CONTINUOUS
 62
     0
100
AcDbLine
 10
3.5
 20
-2.75
 11
0.0
 21
-2.75
  0
LINE
  5
3DF
100
AcDbEntity
  8
2
  6
CONTINUOUS
 62
     0
100
AcDbLine
 10
3.69999999999999
 20
-2.40358983848603
 11
3.69999999999999
 21
2.40358983848597
  0
LINE
  5
3E0
100
AcDbEntity
  8
2
  6
CONTINUOUS
 62
     0
100
AcDbLine
 10
3.5
 20
-2.75
 11
3.5
 21
2.75
  0
LINE
  5
3E1
100
AcDbEntity
  8
2
  6
CONTINUOUS
 62
     0
100
AcDbLine
 10
3.5
 20
2.75
 11
3.69999999999999
 21
2.40358983848597
  0
LINE
  5
3E2
100
AcDbEntity
  8
2
  6
CONTINUOUS
 62
     0
100
AcDbLine
 10
3.5
 20
-2.75
 11
3.69999999999999
 21
-2.40358983848603
  0
LINE
  5
3E3
100
AcDbEntity
  8
2
  6
CONTINUOUS
 62
     0
100
AcDbLine
 10
0.699999999999989
 20
0.0
 11
0.0
 21
-0.885575294495027
  0
LINE
  5
3E4
100
AcDbEntity
  8
2
  6
CONTINUOUS
 62
     0
100
AcDbLine
 10
0.0
 20
0.0
 11
0.699999999999989
 21
0.883089601993959
  0
ENDBLK
  5
3E5
100
AcDbEntity
  8
2
100
AcDbBlockEnd
  0
BLOCK
  5
3EE
100
AcDbEntity
  8
7
100
AcDbBlockBegin
  2
SUB22
 70
    64
 10
0.0
 20
0.0
  0
LINE
  5
3EF
100
AcDbEntity
  8
2
  6
CONTINUOUS
 62
     0
100
AcDbLine
 10
0.0
 20
-5.0
 11
0.0
 21
5.0
  0
LINE
  5
3F0
100
AcDbEntity
  8
2
  6
CONTINUOUS
 62
     0
100
AcDbLine
 10
1.5
 20
-5.0
 11
1.5
 21
5.0
  0
LINE
  5
3F1
100
AcDbEntity
  8
2
  6
CONTINUOUS
 62
     0
100
AcDbLine
 10
7.09999999999997
 20
5.0
 11
0.0
 21
5.0
  0
LINE
  5
3F2
100
AcDbEntity
  8
2
  6
CONTINUOUS
 62
     0
100
AcDbLine
 10
7.09999999999997
 20
-5.0
 11
0.0
 21
-5.0
  0
LINE
  5
3F3
100
AcDbEntity
  8
2
  6
CONTINUOUS
 62
     0
100
AcDbLine
 10
7.5
 20
-4.30717967697251
 11
7.5
 21
4.30717967697251
  0
LINE
  5
3F4
100
AcDbEntity
  8
2
  6
CONTINUOUS
 62
     0
100
AcDbLine
 10
7.09999999999997
 20
-5.0
 11
7.09999999999997
 21
5.0
  0
LINE
  5
3F5
100
AcDbEntity
  8
2
  6
CONTINUOUS
 62
     0
100
AcDbLine
 10
7.09999999999997
 20
-5.0
 11
7.5
 21
-4.30717967697251
  0
LINE
  5
3F6
100
AcDbEntity
  8
2
  6
CONTINUOUS
 62
     0
100
AcDbLine
 10
7.09999999999997
 20
5.0
 11
7.5
 21
4.30717967697251
  0
LINE
  5
3F7
100
AcDbEntity
  8
2
  6
CONTINUOUS
 62
     0
100
AcDbLine
 10
1.5
 20
0.0
 11
0.0
 21
-2.08447098731995
  0
LINE
  5
3F8
100
AcDbEntity
  8
2
  6
CONTINUOUS
 62
     0
100
AcDbLine
 10
0.0
 20
0.0
 11
1.5
 21
2.06036782264709
  0
ENDBLK
  5
3F9
100
AcDbEntity
  8
2
100
AcDbBlockEnd
  0
BLOCK
  5
403
100
AcDbEntity
  8
7
100
AcDbBlockBegin
  2
SUB23
 70
    64
 10
0.0
 20
0.0
  0
LINE
  5
404
100
AcDbEntity
  8
2
  6
CONTINUOUS
 62
     0
100
AcDbLine
 10
0.0
 20
-5.0
 11
0.0
 21
5.0
  0
LINE
  5
405
100
AcDbEntity
  8
2
  6
CONTINUOUS
 62
     0
100
AcDbLine
 10
1.5
 20
-5.0
 11
1.5
 21
5.0
  0
LINE
  5
406
100
AcDbEntity
  8
2
  6
CONTINUOUS
 62
     0
100
AcDbLine
 10
7.09999999999997
 20
5.0
 11
0.0
 21
5.0
  0
LINE
  5
407
100
AcDbEntity
  8
2
  6
CONTINUOUS
 62
     0
100
AcDbLine
 10
7.09999999999997
 20
-5.0
 11
0.0
 21
-5.0
  0
LINE
  5
408
100
AcDbEntity
  8
2
  6
CONTINUOUS
 62
     0
100
AcDbLine
 10
7.5
 20
-4.3071796769724
 11
7.5
 21
4.3071796769724
  0
LINE
  5
409
100
AcDbEntity
  8
2
  6
CONTINUOUS
 62
     0
100
AcDbLine
 10
7.09999999999997
 20
-5.0
 11
7.09999999999997
 21
5.0
  0
LINE
  5
40A
100
AcDbEntity
  8
2
  6
CONTINUOUS
 62
     0
100
AcDbLine
 10
7.09999999999997
 20
-5.0
 11
7.5
 21
-4.3071796769724
  0
LINE
  5
40B
100
AcDbEntity
  8
2
  6
CONTINUOUS
 62
     0
100
AcDbLine
 10
7.09999999999997
 20
5.0
 11
7.5
 21
4.3071796769724
  0
LINE
  5
40C
100
AcDbEntity
  8
2
  6
CONTINUOUS
 62
     0
100
AcDbLine
 10
1.5
 20
0.0
 11
0.0
 21
-2.08447098731995
  0
LINE
  5
40D
100
AcDbEntity
  8
2
  6
CONTINUOUS
 62
     0
100
AcDbLine
 10
0.0
 20
0.0
 11
1.5
 21
2.06036782264709
  0
ENDBLK
  5
40E
100
AcDbEntity
  8
2
100
AcDbBlockEnd
  0
BLOCK
  5
501
100
AcDbEntity
  8
2
100
AcDbBlockBegin
  2
SUB24
 70
    64
 10
0.0
 20
0.0
  0
LINE
  5
502
100
AcDbEntity
  8
2
  6
CONTINUOUS
 62
     0
100
AcDbLine
 10
2.75
 20
0.0
 11
-2.75
 21
0.0
  0
LINE
  5
503
100
AcDbEntity
  8
2
  6
CONTINUOUS
 62
     0
100
AcDbLine
 10
2.75
 20
-0.699999999999989
 11
-2.75
 21
-0.699999999999989
  0
LINE
  5
504
100
AcDbEntity
  8
2
  6
CONTINUOUS
 62
     0
100
AcDbLine
 10
-2.75
 20
-3.5
 11
-2.75
 21
0.0
  0
LINE
  5
505
100
AcDbEntity
  8
2
  6
CONTINUOUS
 62
     0
100
AcDbLine
 10
2.75
 20
-3.5
 11
2.75
 21
0.0
  0
LINE
  5
506
100
AcDbEntity
  8
2
  6
CONTINUOUS
 62
     0
100
AcDbLine
 10
2.40358983848603
 20
-3.69999999999999
 11
-2.40358983848603
 21
-3.69999999999999
  0
LINE
  5
507
100
AcDbEntity
  8
2
  6
CONTINUOUS
 62
     0
100
AcDbLine
 10
2.75
 20
-3.5
 11
-2.75
 21
-3.5
  0
LINE
  5
508
100
AcDbEntity
  8
2
  6
CONTINUOUS
 62
     0
100
AcDbLine
 10
-2.75
 20
-3.5
 11
-2.40358983848603
 21
-3.69999999999999
  0
LINE
  5
509
100
AcDbEntity
  8
2
  6
CONTINUOUS
 62
     0
100
AcDbLine
 10
2.75
 20
-3.5
 11
2.40358983848603
 21
-3.69999999999999
  0
LINE
  5
50A
100
AcDbEntity
  8
2
  6
CONTINUOUS
 62
     0
100
AcDbLine
 10
0.0
 20
-0.699999999999989
 11
0.88557529449497
 21
0.0
  0
LINE
  5
50B
100
AcDbEntity
  8
2
  6
CONTINUOUS
 62
     0
100
AcDbLine
 10
0.0
 20
0.0
 11
-0.883089601994016
 21
-0.699999999999989
  0
ENDBLK
  5
50C
100
AcDbEntity
  8
2
100
AcDbBlockEnd
  0
BLOCK
  5
50F
100
AcDbEntity
  8
2
100
AcDbBlockBegin
  2
SUB25
 70
    64
 10
0.0
 20
0.0
  0
LINE
  5
510
100
AcDbEntity
  8
2
  6
CONTINUOUS
 62
     0
100
AcDbLine
 10
-1.375
 20
2.38156986040721
 11
1.375
 21
-2.38156986040721
  0
LINE
  5
511
100
AcDbEntity
  8
2
  6
CONTINUOUS
 62
     0
100
AcDbLine
 10
-0.768782217350008
 20
2.73156986040721
 11
1.98121778264999
 21
-2.03156986040719
  0
LINE
  5
512
100
AcDbEntity
  8
2
  6
CONTINUOUS
 62
     0
100
AcDbLine
 10
4.40608891324598
 20
-0.631569860407211
 11
1.375
 21
-2.38156986040721
  0
LINE
  5
513
100
AcDbEntity
  8
2
  6
CONTINUOUS
 62
     0
100
AcDbLine
 10
1.65608891324598
 20
4.13156986040721
 11
-1.375
 21
2.38156986040721
  0
LINE
  5
514
100
AcDbEntity
  8
2
  6
CONTINUOUS
 62
     0
100
AcDbLine
 10
2.00249907475995
 20
3.93156986040719
 11
4.40608891324598
 21
-0.231569860407205
  0
LINE
  5
515
100
AcDbEntity
  8
2
  6
CONTINUOUS
 62
     0
100
AcDbLine
 10
1.65608891324598
 20
4.13156986040721
 11
4.40608891324598
 21
-0.631569860407211
  0
LINE
  5
516
100
AcDbEntity
  8
2
  6
CONTINUOUS
 62
     0
100
AcDbLine
 10
4.40608891324598
 20
-0.631569860407211
 11
4.40608891324598
 21
-0.231569860407205
  0
LINE
  5
517
100
AcDbEntity
  8
2
  6
CONTINUOUS
 62
     0
100
AcDbLine
 10
1.65608891324598
 20
4.13156986040721
 11
2.00249907475995
 21
3.93156986040719
  0
LINE
  5
518
100
AcDbEntity
  8
2
  6
CONTINUOUS
 62
     0
100
AcDbLine
 10
0.606217782649992
 20
0.349999999999994
 11
-0.442787647246973
 21
0.766930701996188
  0
LINE
  5
519
100
AcDbEntity
  8
2
  6
CONTINUOUS
 62
     0
100
AcDbLine
 10
0.0
 20
0.0
 11
1.04776258364598
 21
-0.414778029144287
  0
ENDBLK
  5
51A
100
AcDbEntity
  8
2
100
AcDbBlockEnd
  0
BLOCK
  5
51E
100
AcDbEntity
  8
2
100
AcDbBlockBegin
  2
SUB26
 70
    64
 10
0.0
 20
0.0
  0
LINE
  5
51F
100
AcDbEntity
  8
2
  6
CONTINUOUS
 62
     0
100
AcDbLine
 10
-1.375
 20
-2.38156986040721
 11
1.375
 21
2.38156986040721
  0
LINE
  5
520
100
AcDbEntity
  8
2
  6
CONTINUOUS
 62
     0
100
AcDbLine
 10
-1.98121778264897
 20
-2.03156986040719
 11
0.768782217351031
 21
2.73156986040721
  0
LINE
  5
521
100
AcDbEntity
  8
2
  6
CONTINUOUS
 62
     0
100
AcDbLine
 10
-1.65608891324496
 20
4.13156986040721
 11
1.375
 21
2.38156986040721
  0
LINE
  5
522
100
AcDbEntity
  8
2
  6
CONTINUOUS
 62
     0
100
AcDbLine
 10
-4.40608891324496
 20
-0.631569860407211
 11
-1.375
 21
-2.38156986040721
  0
LINE
  5
523
100
AcDbEntity
  8
2
  6
CONTINUOUS
 62
     0
100
AcDbLine
 10
-4.40608891324496
 20
-0.231569860407205
 11
-2.00249907475893
 21
3.93156986040731
  0
LINE
  5
524
100
AcDbEntity
  8
2
  6
CONTINUOUS
 62
     0
100
AcDbLine
 10
-4.40608891324496
 20
-0.631569860407211
 11
-1.65608891324496
 21
4.13156986040721
  0
LINE
  5
525
100
AcDbEntity
  8
2
  6
CONTINUOUS
 62
     0
100
AcDbLine
 10
-1.65608891324496
 20
4.13156986040721
 11
-2.00249907475893
 21
3.93156986040731
  0
LINE
  5
526
100
AcDbEntity
  8
2
  6
CONTINUOUS
 62
     0
100
AcDbLine
 10
-4.40608891324496
 20
-0.631569860407211
 11
-4.40608891324496
 21
-0.231569860407205
  0
LINE
  5
527
100
AcDbEntity
  8
2
  6
CONTINUOUS
 62
     0
100
AcDbLine
 10
-0.606217782648969
 20
0.349999999999994
 11
-0.442787647246973
 21
-0.766930701996188
  0
LINE
  5
528
100
AcDbEntity
  8
2
  6
CONTINUOUS
 62
     0
100
AcDbLine
 10
0.0
 20
0.0
 11
-0.164672981651961
 21
1.1147780291443
  0
ENDBLK
  5
529
100
AcDbEntity
  8
2
100
AcDbBlockEnd
  0
BLOCK
  5
552
100
AcDbEntity
  8
2
100
AcDbBlockBegin
  2
SUB27
 70
    64
 10
0.0
 20
0.0
  0
CIRCLE
  5
553
100
AcDbEntity
  8
2
  6
CONTINUOUS
 62
     0
100
AcDbCircle
 10
0.0
 20
0.0
 40
2.75
  0
CIRCLE
  5
554
100
AcDbEntity
  8
2
  6
CONTINUOUS
 62
     0
100
AcDbCircle
 10
0.0
 20
0.0
 40
2.41
  0
LWPOLYLINE
  5
555
100
AcDbEntity
  8
2
  6
CONTINUOUS
 62
     0
100
AcDbPolyline
 90
        6
 70
     1
 43
0.0
 10
1.44337567297407
 20
0.0
 10
0.721687836487035
 20
1.25
 10
-0.721687836487035
 20
1.25
 10
-1.44337567297396
 20
0.0
 10
-0.721687836487035
 20
-1.25
 10
0.721687836487035
 20
-1.25
  0
ENDBLK
  5
556
100
AcDbEntity
  8
2
100
AcDbBlockEnd
  0
BLOCK
  5
559
100
AcDbEntity
  8
2
100
AcDbBlockBegin
  2
SUB28
 70
    64
 10
0.0
 20
0.0
  0
CIRCLE
  5
55A
100
AcDbEntity
  8
2
  6
CONTINUOUS
 62
     0
100
AcDbCircle
 10
0.0
 20
0.0
 40
2.75
  0
CIRCLE
  5
55B
100
AcDbEntity
  8
2
  6
CONTINUOUS
 62
     0
100
AcDbCircle
 10
0.0
 20
0.0
 40
2.41
  0
LWPOLYLINE
  5
55C
100
AcDbEntity
  8
2
  6
CONTINUOUS
 62
     0
100
AcDbPolyline
 90
        6
 70
     1
 43
0.0
 10
1.44337567297407
 20
0.0
 10
0.721687836487035
 20
1.25
 10
-0.721687836487035
 20
1.25
 10
-1.44337567297396
 20
0.0
 10
-0.721687836487035
 20
-1.25
 10
0.721687836487035
 20
-1.25
  0
ENDBLK
  5
55D
100
AcDbEntity
  8
2
100
AcDbBlockEnd
  0
BLOCK
  5
56A
100
AcDbEntity
  8
2
100
AcDbBlockBegin
  2
SUB29
 70
    64
 10
0.0
 20
0.0
  0
CIRCLE
  5
56B
100
AcDbEntity
  8
2
  6
CONTINUOUS
 62
     0
100
AcDbCircle
 10
0.0
 20
0.0
 40
2.75
  0
CIRCLE
  5
56C
100
AcDbEntity
  8
2
  6
CONTINUOUS
 62
     0
100
AcDbCircle
 10
0.0
 20
0.0
 40
2.41
  0
LWPOLYLINE
  5
56D
100
AcDbEntity
  8
2
  6
CONTINUOUS
 62
     0
100
AcDbPolyline
 90
        6
 70
     1
 43
0.0
 10
1.44337567297396
 20
0.0
 10
0.721687836487035
 20
1.25
 10
-0.721687836487035
 20
1.25
 10
-1.44337567297407
 20
0.0
 10
-0.721687836487035
 20
-1.25
 10
0.721687836487035
 20
-1.25
  0
ENDBLK
  5
56E
100
AcDbEntity
  8
2
100
AcDbBlockEnd
  0
BLOCK
  5
571
100
AcDbEntity
  8
2
100
AcDbBlockBegin
  2
SUB30
 70
    64
 10
0.0
 20
0.0
  0
CIRCLE
  5
572
100
AcDbEntity
  8
2
  6
CONTINUOUS
 62
     0
100
AcDbCircle
 10
0.0
 20
0.0
 40
2.75
  0
CIRCLE
  5
573
100
AcDbEntity
  8
2
  6
CONTINUOUS
 62
     0
100
AcDbCircle
 10
0.0
 20
0.0
 40
2.41
  0
LWPOLYLINE
  5
574
100
AcDbEntity
  8
2
  6
CONTINUOUS
 62
     0
100
AcDbPolyline
 90
        6
 70
     1
 43
0.0
 10
1.44337567297396
 20
0.0
 10
0.721687836487035
 20
1.25
 10
-0.721687836487035
 20
1.25
 10
-1.44337567297407
 20
0.0
 10
-0.721687836487035
 20
-1.25
 10
0.721687836487035
 20
-1.25
  0
ENDBLK
  5
575
100
AcDbEntity
  8
2
100
AcDbBlockEnd
  0
BLOCK
  5
73A
100
AcDbEntity
  8
2
100
AcDbBlockBegin
  2
SUB31
 70
    64
 10
0.0
 20
0.0
  0
CIRCLE
  5
73B
100
AcDbEntity
  8
2
  6
CONTINUOUS
 62
     0
100
AcDbCircle
 10
0.0
 20
0.0
 40
4.25
  0
CIRCLE
  5
73C
100
AcDbEntity
  8
2
  6
CONTINUOUS
 62
     0
100
AcDbCircle
 10
0.0
 20
0.0
 40
3.75
  0
LWPOLYLINE
  5
73D
100
AcDbEntity
  8
2
  6
CONTINUOUS
 62
     0
100
AcDbPolyline
 90
        6
 70
     1
 43
0.0
 10
2.3094010767585
 20
0.0
 10
1.15470053837925
 20
2.0
 10
-1.15470053837925
 20
2.0
 10
-2.3094010767585
 20
0.0
 10
-1.15470053837925
 20
-2.0
 10
1.15470053837925
 20
-2.0
  0
ENDBLK
  5
73E
100
AcDbEntity
  8
2
100
AcDbBlockEnd
  0
BLOCK
  5
741
100
AcDbEntity
  8
2
100
AcDbBlockBegin
  2
SUB32
 70
    64
 10
0.0
 20
0.0
  0
CIRCLE
  5
742
100
AcDbEntity
  8
2
  6
CONTINUOUS
 62
     0
100
AcDbCircle
 10
0.0
 20
0.0
 40
4.25
  0
CIRCLE
  5
743
100
AcDbEntity
  8
2
  6
CONTINUOUS
 62
     0
100
AcDbCircle
 10
0.0
 20
0.0
 40
3.75
  0
LWPOLYLINE
  5
744
100
AcDbEntity
  8
2
  6
CONTINUOUS
 62
     0
100
AcDbPolyline
 90
        6
 70
     1
 43
0.0
 10
2.30940107675849
 20
0.0
 10
1.15470053837925
 20
2.0
 10
-1.15470053837925
 20
2.0
 10
-2.30940107675852
 20
0.0
 10
-1.15470053837927
 20
-2.0
 10
1.15470053837925
 20
-2.0
  0
ENDBLK
  5
745
100
AcDbEntity
  8
2
100
AcDbBlockEnd
  0
BLOCK
  5
748
100
AcDbEntity
  8
2
100
AcDbBlockBegin
  2
SUB33
 70
    64
 10
0.0
 20
0.0
  0
CIRCLE
  5
749
100
AcDbEntity
  8
2
  6
CONTINUOUS
 62
     0
100
AcDbCircle
 10
0.0
 20
0.0
 40
4.25
  0
CIRCLE
  5
74A
100
AcDbEntity
  8
2
  6
CONTINUOUS
 62
     0
100
AcDbCircle
 10
0.0
 20
0.0
 40
3.75
  0
LWPOLYLINE
  5
74B
100
AcDbEntity
  8
2
  6
CONTINUOUS
 62
     0
100
AcDbPolyline
 90
        6
 70
     1
 43
0.0
 10
2.3094010767585
 20
0.0
 10
1.15470053837925
 20
2.0
 10
-1.15470053837925
 20
2.0
 10
-2.3094010767585
 20
0.0
 10
-1.15470053837925
 20
-2.0
 10
1.15470053837925
 20
-2.0
  0
ENDBLK
  5
74C
100
AcDbEntity
  8
2
100
AcDbBlockEnd
  0
ENDSEC
  0
SECTION
  2
ENTITIES
  0
INSERT
  5
25
100
AcDbEntity
  8
0
  6
HIDDEN
100
AcDbBlockReference
  2
SUB1
 10
45.0
 20
0.0
 41
1.0
 42
1.0
 50
0.0
  0
INSERT
  5
267
100
AcDbEntity
  8
8
  6
HIDDEN
 62
     7
100
AcDbBlockReference
  2
SUB10
 10
45.0
 20
200.0
 41
1.0
 42
1.0
 50
0.0
  0
LINE
  5
4C7
100
AcDbEntity
  8
7
  6
CENTER2
 62
    40
100
AcDbLine
 10
45.0
 20
-234.52067620305
 11
45.0
 21
-106.60880716011
  0
LINE
  5
4C8
100
AcDbEntity
  8
2
  6
CONTINUOUS
100
AcDbLine
 10
77.5
 20
-150.0
 11
77.5
 21
-144.0
  0
LINE
  5
4C9
100
AcDbEntity
  8
2
  6
CONTINUOUS
100
AcDbLine
 10
12.5
 20
-150.0
 11
12.5
 21
-144.0
  0
LINE
  5
4CA
100
AcDbEntity
  8
7
  6
CENTER2
 62
    40
100
AcDbLine
 10
100.425625842186
 20
-180.000000000001
 11
-15.0
 21
-180.000000000001
  0
LINE
  5
4CB
100
AcDbEntity
  8
2
  6
CONTINUOUS
100
AcDbLine
 10
14.5
 20
-120.0
 11
75.5
 21
-120.0
  0
LINE
  5
4CC
100
AcDbEntity
  8
2
  6
CONTINUOUS
100
AcDbLine
 10
77.5
 20
-112.0
 11
77.5
 21
-144.5
  0
LINE
  5
4CD
100
AcDbEntity
  8
2
  6
CONTINUOUS
100
AcDbLine
 10
75.5
 20
-110.0
 11
77.5
 21
-112.0
  0
LINE
  5
4CE
100
AcDbEntity
  8
2
  6
CONTINUOUS
100
AcDbLine
 10
14.5
 20
-110.0
 11
75.5
 21
-110.0
  0
LINE
  5
4CF
100
AcDbEntity
  8
2
  6
CONTINUOUS
100
AcDbLine
 10
12.5
 20
-112.0
 11
12.5
 21
-144.0
  0
LINE
  5
4D0
100
AcDbEntity
  8
2
  6
CONTINUOUS
100
AcDbLine
 10
14.5
 20
-110.0
 11
12.5
 21
-112.0
  0
LINE
  5
4D1
100
AcDbEntity
  8
2
  6
CONTINUOUS
100
AcDbLine
 10
14.5
 20
-120.0
 11
12.5
 21
-122.0
  0
LINE
  5
4D2
100
AcDbEntity
  8
2
  6
CONTINUOUS
100
AcDbLine
 10
75.5
 20
-120.0
 11
77.5
 21
-122.0
  0
LINE
  5
4D3
100
AcDbEntity
  8
2
  6
CONTINUOUS
100
AcDbLine
 10
12.5
 20
-150.0
 11
27.9784138863691
 21
-150.0
  0
LINE
  5
4D4
100
AcDbEntity
  8
2
  6
CONTINUOUS
100
AcDbLine
 10
62.0215861136378
 20
-150.0
 11
77.5
 21
-150.0
  0
LINE
  5
4D5
100
AcDbEntity
  8
2
  6
CONTINUOUS
100
AcDbLine
 10
36.5
 20
-148.07303761306
 11
36.5
 21
-144.0
  0
LINE
  5
4D6
100
AcDbEntity
  8
2
  6
CONTINUOUS
100
AcDbLine
 10
53.5
 20
-148.07303761306
 11
53.5
 21
-144.0
  0
ARC
  5
4D7
100
AcDbEntity
  8
2
  6
CONTINUOUS
100
AcDbCircle
 10
45.0
 20
-141.501036
 40
2.998964
100
AcDbArc
 50
236.436722899219
 51
303.563277100781
  0
LINE
  5
4D8
100
AcDbEntity
  8
2
  6
CONTINUOUS
100
AcDbLine
 10
12.5
 20
-144.0
 11
77.5
 21
-144.0
  0
LINE
  5
4D9
100
AcDbEntity
  8
2
  6
CONTINUOUS
100
AcDbLine
 10
75.5
 20
-110.0
 11
75.5
 21
-144.5
  0
LINE
  5
4DA
100
AcDbEntity
  8
2
  6
CONTINUOUS
100
AcDbLine
 10
14.5
 20
-110.0
 11
14.5
 21
-144.0
  0
DIMENSION
  5
4EA
100
AcDbEntity
  8
4
  6
CONTINUOUS
 62
     2
100
AcDbDimension
  2
*D1
 10
12.5
 20
-100.000000000001
 11
45.0
 21
-100.000000000001
 70
    32
  3
ISO-25
100
AcDbAlignedDimension
 13
77.5
 23
-112.0
 14
12.5
 24
-112.0
 50
180.0
100
AcDbRotatedDimension
  0
LINE
  5
4EB
100
AcDbEntity
  8
2
  6
CONTINUOUS
100
AcDbLine
 10
53.6000000000001
 20
-148.096124432172
 11
53.6000000000001
 21
-144.0
  0
LINE
  5
4EC
100
AcDbEntity
  8
2
  6
CONTINUOUS
100
AcDbLine
 10
36.4
 20
-148.096124432172
 11
36.4
 21
-144.0
  0
LINE
  5
4ED
100
AcDbEntity
  8
2
  6
CONTINUOUS
100
AcDbLine
 10
76.0
 20
-150.0
 11
76.0
 21
-144.0
  0
LINE
  5
4EE
100
AcDbEntity
  8
2
  6
CONTINUOUS
100
AcDbLine
 10
14.0
 20
-150.0
 11
14.0
 21
-144.0
  0
ARC
  5
4EF
100
AcDbEntity
  8
2
  6
CONTINUOUS
100
AcDbCircle
 10
525.500000000001
 20
-79.000000000001
 40
2.0
100
AcDbArc
 50
0.0
 51
90.0
  0
ARC
  5
4F0
100
AcDbEntity
  8
2
  6
CONTINUOUS
100
AcDbCircle
 10
505.500000000001
 20
-79.000000000001
 40
2.0
100
AcDbArc
 50
90.0
 51
180.0
  0
ARC
  5
4F1
100
AcDbEntity
  8
2
  6
CONTINUOUS
100
AcDbCircle
 10
515.500000000001
 20
-180.000000000001
 40
31.0
100
AcDbArc
 50
0.0
 51
51.3178125465106
  0
ARC
  5
4F2
100
AcDbEntity
  8
2
  6
CONTINUOUS
100
AcDbCircle
 10
515.500000000001
 20
-180.000000000001
 40
31.0
100
AcDbArc
 50
128.682187453489
 51
0.0
  0
LINE
  5
4F3
100
AcDbEntity
  8
7
  6
CENTER2
 62
    40
100
AcDbLine
 10
457.755574234889
 20
-180.000000000001
 11
571.326187588909
 21
-180.000000000001
  0
LINE
  5
4F4
100
AcDbEntity
  8
2
  6
CONTINUOUS
100
AcDbLine
 10
498.000000000001
 20
-146.000000000001
 11
533.000000000001
 21
-146.000000000001
  0
LINE
  5
4F5
100
AcDbEntity
  8
2
  6
CONTINUOUS
100
AcDbLine
 10
498.000000000001
 20
-151.897509007208
 11
498.000000000001
 21
-146.000000000001
  0
LINE
  5
4F6
100
AcDbEntity
  8
2
  6
CONTINUOUS
100
AcDbLine
 10
533.000000000001
 20
-151.897509007208
 11
533.000000000001
 21
-146.000000000001
  0
LINE
  5
4F7
100
AcDbEntity
  8
2
  6
CONTINUOUS
100
AcDbLine
 10
523.800000000001
 20
-137.000000000002
 11
515.500000000001
 21
-137.000000000002
  0
LINE
  5
4F8
100
AcDbEntity
  8
2
  6
CONTINUOUS
100
AcDbLine
 10
526.800000000001
 20
-146.000000000002
 11
526.800000000001
 21
-140.000000000002
  0
ARC
  5
4F9
100
AcDbEntity
  8
2
  6
CONTINUOUS
100
AcDbCircle
 10
523.800000000001
 20
-140.000000000002
 40
2.99999999999994
100
AcDbArc
 50
0.0
 51
90.0
  0
LINE
  5
4FA
100
AcDbEntity
  8
2
  6
CONTINUOUS
100
AcDbLine
 10
507.200000000001
 20
-137.000000000002
 11
515.500000000001
 21
-137.000000000002
  0
LINE
  5
4FB
100
AcDbEntity
  8
2
  6
CONTINUOUS
100
AcDbLine
 10
504.200000000001
 20
-146.000000000002
 11
504.200000000001
 21
-140.000000000002
  0
ARC
  5
4FC
100
AcDbEntity
  8
2
  6
CONTINUOUS
100
AcDbCircle
 10
507.200000000001
 20
-140.000000000002
 40
2.99999999999994
100
AcDbArc
 50
90.0
 51
180.0
  0
LINE
  5
4FD
100
AcDbEntity
  8
2
  6
CONTINUOUS
100
AcDbLine
 10
498.000000000001
 20
-148.000000000001
 11
533.000000000001
 21
-148.000000000001
  0
LINE
  5
4FE
100
AcDbEntity
  8
2
  6
CONTINUOUS
100
AcDbLine
 10
498.000000000001
 20
-149.000000000001
 11
533.000000000001
 21
-149.000000000001
  0
INSERT
  5
500
100
AcDbEntity
  8
2
  6
CONTINUOUS
100
AcDbBlockReference
  2
SUB24
 10
515.500000000001
 20
-211.000000000001
 41
1.0
 42
1.0
 50
0.0
  0
INSERT
  5
50E
100
AcDbEntity
  8
2
  6
CONTINUOUS
100
AcDbBlockReference
  2
SUB25
 10
542.346787517318
 20
-164.500000000001
 41
1.0
 42
1.0
 50
0.0
  0
LINE
  5
51B
100
AcDbEntity
  8
7
  6
CENTER2
 62
    40
100
AcDbLine
 10
573.970123099252
 20
-146.242258689098
 11
515.500000000001
 21
-180.000000000001
  0
INSERT
  5
51D
100
AcDbEntity
  8
2
  6
CONTINUOUS
100
AcDbBlockReference
  2
SUB26
 10
488.653212482683
 20
-164.500000000001
 41
1.0
 42
1.0
 50
0.0
  0
LINE
  5
52A
100
AcDbEntity
  8
7
  6
CENTER2
 62
    40
100
AcDbLine
 10
458.363470326792
 20
-147.012209212613
 11
515.500000000001
 21
-180.000000000001
  0
ARC
  5
52B
100
AcDbEntity
  8
2
  6
CONTINUOUS
100
AcDbCircle
 10
493.000000000001
 20
-151.897509007208
 40
5.0
100
AcDbArc
 50
308.682187453489
 51
0.0
  0
ARC
  5
52C
100
AcDbEntity
  8
2
  6
CONTINUOUS
100
AcDbCircle
 10
538.000000000001
 20
-151.897509007208
 40
5.0
100
AcDbArc
 50
180.0
 51
231.317812546511
  0
INSERT
  5
52E
100
AcDbEntity
  8
0
  6
CONTINUOUS
100
AcDbBlockReference
  2
M6_0001
 10
515.500000000001
 20
-218.000000000001
 41
1.0
 42
1.0
 50
0.0
  0
ARC
  5
533
100
AcDbEntity
  8
2
  6
CONTINUOUS
100
AcDbCircle
 10
515.500000000001
 20
-180.000000000001
 40
43.9999999999998
100
AcDbArc
 50
76.8634412130564
 51
81.8995451763708
  0
ARC
  5
534
100
AcDbEntity
  8
2
  6
CONTINUOUS
100
AcDbCircle
 10
515.500000000001
 20
-180.000000000001
 40
43.9999999999999
100
AcDbArc
 50
98.1004548236292
 51
103.136558786945
  0
ARC
  5
535
100
AcDbEntity
  8
2
  6
CONTINUOUS
100
AcDbCircle
 10
515.500000000001
 20
-180.000000000001
 40
43.9999999999999
100
AcDbArc
 50
256.863441213055
 51
283.136558786944
  0
LINE
  5
536
100
AcDbEntity
  8
2
  6
CONTINUOUS
100
AcDbLine
 10
525.5
 20
-222.848570571258
 11
541.887568081105
 21
-196.269488337532
  0
LINE
  5
537
100
AcDbEntity
  8
2
  6
CONTINUOUS
100
AcDbLine
 10
505.500000000001
 20
-222.848570571258
 11
489.112431918896
 21
-196.269488337532
  0
LINE
  5
538
100
AcDbEntity
  8
2
  6
CONTINUOUS
100
AcDbLine
 10
505.500000000001
 20
-137.151429428744
 11
500.044335602645
 21
-146.000000000001
  0
LINE
  5
539
100
AcDbEntity
  8
2
  6
CONTINUOUS
100
AcDbLine
 10
498.000000000001
 20
-149.315718587841
 11
489.112431918896
 21
-163.73051166247
  0
LINE
  5
53A
100
AcDbEntity
  8
2
  6
CONTINUOUS
100
AcDbLine
 10
525.5
 20
-137.151429428744
 11
530.955664397356
 21
-146.000000000001
  0
LINE
  5
53B
100
AcDbEntity
  8
2
  6
CONTINUOUS
100
AcDbLine
 10
533.000000000001
 20
-149.315718587841
 11
541.887568081105
 21
-163.73051166247
  0
LINE
  5
53C
100
AcDbEntity
  8
2
  6
CONTINUOUS
100
AcDbLine
 10
548.000000000001
 20
-150.000000000001
 11
533.421899752964
 21
-150.000000000001
  0
LINE
  5
53D
100
AcDbEntity
  8
2
  6
CONTINUOUS
100
AcDbLine
 10
497.578100247037
 20
-150.000000000001
 11
483.000000000001
 21
-150.000000000001
  0
LINE
  5
53E
100
AcDbEntity
  8
6
  6
CENTER
100
AcDbLine
 10
544.000000000001
 20
-127.500000000002
 11
485.500000000001
 21
-127.500000000002
  0
LINE
  5
53F
100
AcDbEntity
  8
6
  6
CENTER
100
AcDbLine
 10
499.500000000001
 20
-105.500000000002
 11
499.500000000001
 21
-147.500000000002
  0
LINE
  5
540
100
AcDbEntity
  8
7
  6
CENTER2
 62
    40
100
AcDbLine
 10
530.000000000001
 20
-141.250000000002
 11
530.000000000001
 21
-113.750000000002
  0
LINE
  5
541
100
AcDbEntity
  8
7
  6
CENTER2
 62
    40
100
AcDbLine
 10
511.000000000001
 20
-109.654550611759
 11
511.000000000001
 21
-140.483571941804
  0
LINE
  5
542
100
AcDbEntity
  8
2
  6
CONTINUOUS
100
AcDbLine
 10
488.000000000001
 20
-113.000000000002
 11
509.300000000001
 21
-113.000000000002
  0
LINE
  5
543
100
AcDbEntity
  8
2
  6
CONTINUOUS
100
AcDbLine
 10
488.000000000001
 20
-142.000000000002
 11
502.510570958252
 21
-142.000000000002
  0
LINE
  5
544
100
AcDbEntity
  8
2
  6
CONTINUOUS
100
AcDbLine
 10
485.000000000001
 20
-116.000000000002
 11
485.000000000001
 21
-139.000000000002
  0
LINE
  5
545
100
AcDbEntity
  8
7
  6
CENTER2
 62
    40
100
AcDbLine
 10
484.070607821085
 20
-116.000000000002
 11
514.89962915113
 21
-116.000000000002
  0
LINE
  5
546
100
AcDbEntity
  8
7
  6
CENTER2
 62
    40
100
AcDbLine
 10
484.070607821085
 20
-139.000000000002
 11
514.89962915113
 21
-139.000000000002
  0
LINE
  5
547
100
AcDbEntity
  8
7
  6
CENTER2
 62
    40
100
AcDbLine
 10
488.000000000001
 20
-112.154550611759
 11
488.000000000001
 21
-142.983571941804
  0
ARC
  5
548
100
AcDbEntity
  8
2
  6
CONTINUOUS
100
AcDbCircle
 10
488.000000000001
 20
-116.000000000002
 40
3.0
100
AcDbArc
 50
90.0
 51
180.0
  0
ARC
  5
549
100
AcDbEntity
  8
2
  6
CONTINUOUS
100
AcDbCircle
 10
488.000000000001
 20
-139.000000000002
 40
3.0
100
AcDbArc
 50
180.0
 51
270.0
  0
ARC
  5
54A
100
AcDbEntity
  8
2
  6
CONTINUOUS
100
AcDbCircle
 10
499.500000000001
 20
-127.500000000002
 40
13.0
100
AcDbArc
 50
42.2667962874345
 51
289.834165837018
  0
ARC
  5
54B
100
AcDbEntity
  8
2
  6
CONTINUOUS
100
AcDbCircle
 10
499.500000000001
 20
-127.500000000002
 40
13.0
100
AcDbArc
 50
316.18172703415
 51
318.924651125598
  0
ARC
  5
54C
100
AcDbEntity
  8
2
  6
CONTINUOUS
100
AcDbCircle
 10
499.500000000001
 20
-127.500000000002
 40
12.5
100
AcDbArc
 50
44.6098764170822
 51
292.913582455303
  0
ARC
  5
54D
100
AcDbEntity
  8
2
  6
CONTINUOUS
100
AcDbCircle
 10
499.500000000001
 20
-127.500000000002
 40
12.4999999999999
100
AcDbArc
 50
313.01911270017
 51
321.628284852943
  0
ARC
  5
54E
100
AcDbEntity
  8
2
  6
CONTINUOUS
100
AcDbCircle
 10
499.500000000001
 20
-127.500000000002
 40
11.8
100
AcDbArc
 50
47.8863602569005
 51
297.894770801783
  0
ARC
  5
54F
100
AcDbEntity
  8
2
  6
CONTINUOUS
100
AcDbCircle
 10
499.500000000001
 20
-127.500000000002
 40
11.8
100
AcDbArc
 50
307.162546638948
 51
326.151006114685
  0
INSERT
  5
551
100
AcDbEntity
  8
2
  6
CONTINUOUS
100
AcDbBlockReference
  2
SUB27
 10
488.000000000001
 20
-116.000000000002
 41
1.0
 42
1.0
 50
0.0
  0
INSERT
  5
558
100
AcDbEntity
  8
2
  6
CONTINUOUS
100
AcDbBlockReference
  2
SUB28
 10
488.000000000001
 20
-139.000000000002
 41
1.0
 42
1.0
 50
0.0
  0
ARC
  5
55E
100
AcDbEntity
  8
2
  6
CONTINUOUS
100
AcDbCircle
 10
499.500000000001
 20
-127.500000000002
 40
4.3
100
AcDbArc
 50
125.0
 51
305.000000000001
  0
ARC
  5
55F
100
AcDbEntity
  8
2
  6
CONTINUOUS
100
AcDbCircle
 10
499.500000000001
 20
-128.000000000002
 40
11.5
100
AcDbArc
 50
52.7158196384799
 51
177.50809363102
  0
ARC
  5
560
100
AcDbEntity
  8
2
  6
CONTINUOUS
100
AcDbCircle
 10
499.500000000001
 20
-127.000000000002
 40
11.5
100
AcDbArc
 50
182.49190636898
 51
328.448909307112
  0
LINE
  5
561
100
AcDbEntity
  8
2
  6
CONTINUOUS
100
AcDbLine
 10
497.033621323692
 20
-123.977646209559
 11
502.603855224857
 21
-120.077326442372
  0
LINE
  5
562
100
AcDbEntity
  8
2
  6
CONTINUOUS
100
AcDbLine
 10
501.966378676311
 20
-131.022353790445
 11
506.479270690948
 21
-127.862392782669
  0
LINE
  5
563
100
AcDbEntity
  8
7
  6
CENTER2
 62
    40
100
AcDbLine
 10
547.397073014953
 20
-114.500000000002
 11
513.325718315054
 21
-114.500000000002
  0
LINE
  5
564
100
AcDbEntity
  8
7
  6
CENTER2
 62
    40
100
AcDbLine
 10
547.121987106188
 20
-140.500000000002
 11
513.404314288987
 21
-140.500000000002
  0
LINE
  5
565
100
AcDbEntity
  8
7
  6
CENTER2
 62
    40
100
AcDbLine
 10
543.000000000001
 20
-144.563905190068
 11
543.000000000001
 21
-109.981676659606
  0
LINE
  5
566
100
AcDbEntity
  8
7
  6
CENTER2
 62
    40
100
AcDbLine
 10
517.000000000001
 20
-142.142501164001
 11
517.000000000001
 21
-107.796060555337
  0
LINE
  5
567
100
AcDbEntity
  8
2
  6
CONTINUOUS
100
AcDbLine
 10
546.000000000001
 20
-140.500000000002
 11
546.000000000001
 21
-114.500000000002
  0
INSERT
  5
569
100
AcDbEntity
  8
2
  6
CONTINUOUS
100
AcDbBlockReference
  2
SUB29
 10
543.000000000001
 20
-114.500000000002
 41
1.0
 42
1.0
 50
0.0
  0
INSERT
  5
570
100
AcDbEntity
  8
2
  6
CONTINUOUS
100
AcDbBlockReference
  2
SUB30
 10
543.000000000001
 20
-140.500000000002
 41
1.0
 42
1.0
 50
0.0
  0
ARC
  5
576
100
AcDbEntity
  8
2
  6
CONTINUOUS
100
AcDbCircle
 10
543.000000000001
 20
-114.500000000002
 40
3.0
100
AcDbArc
 50
0.0
 51
90.0
  0
ARC
  5
577
100
AcDbEntity
  8
2
  6
CONTINUOUS
100
AcDbCircle
 10
543.000000000001
 20
-140.500000000002
 40
3.0
100
AcDbArc
 50
270.0
 51
0.0
  0
LINE
  5
578
100
AcDbEntity
  8
2
  6
CONTINUOUS
100
AcDbLine
 10
529.414267300102
 20
-143.500000000002
 11
543.000000000001
 21
-143.500000000002
  0
LINE
  5
579
100
AcDbEntity
  8
2
  6
CONTINUOUS
100
AcDbLine
 10
546.000000000001
 20
-145.000000000002
 11
530.339105558455
 21
-145.000000000002
  0
LINE
  5
57A
100
AcDbEntity
  8
2
  6
CONTINUOUS
100
AcDbLine
 10
500.660894441546
 20
-145.000000000002
 11
485.000000000001
 21
-145.000000000002
  0
LINE
  5
57B
100
AcDbEntity
  8
2
  6
CONTINUOUS
100
AcDbLine
 10
546.000000000001
 20
-145.000000000002
 11
548.000000000001
 21
-143.000000000002
  0
LINE
  5
57C
100
AcDbEntity
  8
2
  6
CONTINUOUS
100
AcDbLine
 10
485.000000000001
 20
-145.000000000002
 11
483.000000000001
 21
-143.000000000002
  0
ARC
  5
57D
100
AcDbEntity
  8
2
  6
CONTINUOUS
100
AcDbCircle
 10
530.000000000001
 20
-127.500000000002
 40
12.5
100
AcDbArc
 50
0.0
 51
131.605653783917
  0
ARC
  5
57E
100
AcDbEntity
  8
2
  6
CONTINUOUS
100
AcDbCircle
 10
530.000000000001
 20
-127.500000000002
 40
12.5
100
AcDbArc
 50
256.286215373616
 51
0.0
  0
ARC
  5
57F
100
AcDbEntity
  8
2
  6
CONTINUOUS
100
AcDbCircle
 10
530.000000000001
 20
-127.500000000002
 40
13.0
100
AcDbArc
 50
0.0
 51
129.677195725332
  0
ARC
  5
580
100
AcDbEntity
  8
2
  6
CONTINUOUS
100
AcDbCircle
 10
530.000000000001
 20
-127.500000000002
 40
13.0
100
AcDbArc
 50
258.476673702977
 51
0.0
  0
CIRCLE
  5
581
100
AcDbEntity
  8
2
  6
CONTINUOUS
100
AcDbCircle
 10
530.000000000001
 20
-121.500000000002
 40
1.0
  0
CIRCLE
  5
582
100
AcDbEntity
  8
2
  6
CONTINUOUS
100
AcDbCircle
 10
534.000000000001
 20
-121.500000000002
 40
1.0
  0
CIRCLE
  5
583
100
AcDbEntity
  8
2
  6
CONTINUOUS
100
AcDbCircle
 10
534.000000000001
 20
-121.500000000002
 40
0.7
  0
CIRCLE
  5
584
100
AcDbEntity
  8
2
  6
CONTINUOUS
100
AcDbCircle
 10
530.000000000001
 20
-121.500000000002
 40
0.7
  0
CIRCLE
  5
585
100
AcDbEntity
  8
2
  6
CONTINUOUS
100
AcDbCircle
 10
526.000000000001
 20
-121.500000000002
 40
1.0
  0
CIRCLE
  5
586
100
AcDbEntity
  8
2
  6
CONTINUOUS
100
AcDbCircle
 10
526.000000000001
 20
-121.500000000002
 40
0.7
  0
CIRCLE
  5
587
100
AcDbEntity
  8
2
  6
CONTINUOUS
100
AcDbCircle
 10
530.000000000001
 20
-133.500000000002
 40
1.0
  0
CIRCLE
  5
588
100
AcDbEntity
  8
2
  6
CONTINUOUS
100
AcDbCircle
 10
534.000000000001
 20
-133.500000000002
 40
1.0
  0
CIRCLE
  5
589
100
AcDbEntity
  8
2
  6
CONTINUOUS
100
AcDbCircle
 10
530.000000000001
 20
-133.500000000002
 40
0.7
  0
CIRCLE
  5
58A
100
AcDbEntity
  8
2
  6
CONTINUOUS
100
AcDbCircle
 10
534.000000000001
 20
-133.500000000002
 40
0.7
  0
CIRCLE
  5
58B
100
AcDbEntity
  8
2
  6
CONTINUOUS
100
AcDbCircle
 10
526.000000000001
 20
-133.500000000002
 40
1.0
  0
CIRCLE
  5
58C
100
AcDbEntity
  8
2
  6
CONTINUOUS
100
AcDbCircle
 10
526.000000000001
 20
-133.500000000002
 40
0.7
  0
CIRCLE
  5
58D
100
AcDbEntity
  8
2
  6
CONTINUOUS
100
AcDbCircle
 10
533.000000000001
 20
-127.500000000002
 40
1.0
  0
CIRCLE
  5
58E
100
AcDbEntity
  8
2
  6
CONTINUOUS
100
AcDbCircle
 10
533.000000000001
 20
-127.500000000002
 40
0.7
  0
CIRCLE
  5
58F
100
AcDbEntity
  8
2
  6
CONTINUOUS
100
AcDbCircle
 10
538.000000000001
 20
-127.500000000002
 40
1.0
  0
CIRCLE
  5
590
100
AcDbEntity
  8
2
  6
CONTINUOUS
100
AcDbCircle
 10
538.000000000001
 20
-127.500000000002
 40
0.7
  0
CIRCLE
  5
591
100
AcDbEntity
  8
2
  6
CONTINUOUS
100
AcDbCircle
 10
527.000000000001
 20
-127.500000000002
 40
1.0
  0
CIRCLE
  5
592
100
AcDbEntity
  8
2
  6
CONTINUOUS
100
AcDbCircle
 10
527.000000000001
 20
-127.500000000002
 40
0.7
  0
ARC
  5
593
100
AcDbEntity
  8
2
  6
CONTINUOUS
100
AcDbCircle
 10
522.000000000001
 20
-127.500000000002
 40
1.0
100
AcDbArc
 50
0.0
 51
107.457603123727
  0
ARC
  5
594
100
AcDbEntity
  8
2
  6
CONTINUOUS
100
AcDbCircle
 10
522.000000000001
 20
-127.500000000002
 40
1.00000000000003
100
AcDbArc
 50
252.542396876275
 51
0.0
  0
ARC
  5
595
100
AcDbEntity
  8
2
  6
CONTINUOUS
100
AcDbCircle
 10
522.000000000001
 20
-127.500000000002
 40
0.700000000000045
100
AcDbArc
 50
0.0
 51
115.376933525157
  0
ARC
  5
596
100
AcDbEntity
  8
2
  6
CONTINUOUS
100
AcDbCircle
 10
522.000000000001
 20
-127.500000000002
 40
0.700000000000043
100
AcDbArc
 50
244.623066474847
 51
0.0
  0
LINE
  5
597
100
AcDbEntity
  8
7
  6
CENTER2
 62
    40
100
AcDbLine
 10
515.500000000001
 20
-236.440773285154
 11
515.500000000001
 21
-70.8323999537169
  0
LINE
  5
598
100
AcDbEntity
  8
2
  6
CONTINUOUS
100
AcDbLine
 10
521.700000000001
 20
-109.000000000001
 11
521.700000000001
 21
-137.000000000002
  0
LINE
  5
599
100
AcDbEntity
  8
2
  6
CONTINUOUS
100
AcDbLine
 10
509.300000000001
 20
-137.000000000002
 11
509.300000000001
 21
-109.000000000001
  0
CIRCLE
  5
59A
100
AcDbEntity
  8
2
  6
CONTINUOUS
100
AcDbCircle
 10
515.500000000001
 20
-93.000000000001
 40
17.0
  0
LINE
  5
59B
100
AcDbEntity
  8
7
  6
CENTER2
 62
    40
100
AcDbLine
 10
496.500000000001
 20
-93.000000000001
 11
534.500000000001
 21
-93.000000000001
  0
CIRCLE
  5
59C
100
AcDbEntity
  8
2
  6
CONTINUOUS
100
AcDbCircle
 10
515.500000000001
 20
-93.000000000001
 40
16.0
  0
CIRCLE
  5
59D
100
AcDbEntity
  8
2
  6
CONTINUOUS
100
AcDbCircle
 10
515.500000000001
 20
-93.000000000001
 40
12.0
  0
CIRCLE
  5
59E
100
AcDbEntity
  8
2
  6
CONTINUOUS
100
AcDbCircle
 10
515.500000000001
 20
-93.000000000001
 40
11.0
  0
LINE
  5
59F
100
AcDbEntity
  8
2
  6
CONTINUOUS
100
AcDbLine
 10
505.500000000001
 20
-109.000000000001
 11
509.755437353463
 21
-109.000000000001
  0
LINE
  5
5A0
100
AcDbEntity
  8
2
  6
CONTINUOUS
100
AcDbLine
 10
521.244562646539
 20
-109.000000000001
 11
525.500000000001
 21
-109.000000000001
  0
LINE
  5
5A1
100
AcDbEntity
  8
2
  6
CONTINUOUS
100
AcDbLine
 10
527.500000000001
 20
-107.000000000001
 11
527.500000000001
 21
-105.041594578793
  0
LINE
  5
5A2
100
AcDbEntity
  8
2
  6
CONTINUOUS
100
AcDbLine
 10
527.500000000001
 20
-80.958405421209
 11
527.500000000001
 21
-79.000000000001
  0
LINE
  5
5A3
100
AcDbEntity
  8
2
  6
CONTINUOUS
100
AcDbLine
 10
503.500000000001
 20
-107.000000000001
 11
503.500000000001
 21
-105.041594578793
  0
LINE
  5
5A4
100
AcDbEntity
  8
2
  6
CONTINUOUS
100
AcDbLine
 10
503.500000000001
 20
-80.958405421209
 11
503.500000000001
 21
-79.000000000001
  0
ARC
  5
5A5
100
AcDbEntity
  8
2
  6
CONTINUOUS
100
AcDbCircle
 10
525.500000000001
 20
-107.000000000001
 40
2.0
100
AcDbArc
 50
270.0
 51
0.0
  0
ARC
  5
5A6
100
AcDbEntity
  8
2
  6
CONTINUOUS
100
AcDbCircle
 10
505.500000000001
 20
-107.000000000001
 40
2.0
100
AcDbArc
 50
180.0
 51
270.0
  0
CIRCLE
  5
5A7
100
AcDbEntity
  8
2
  6
CONTINUOUS
100
AcDbCircle
 10
518.500000000001
 20
-100.000000000001
 40
1.0
  0
CIRCLE
  5
5A8
100
AcDbEntity
  8
2
  6
CONTINUOUS
100
AcDbCircle
 10
515.500000000001
 20
-85.000000000001
 40
0.75
  0
CIRCLE
  5
5A9
100
AcDbEntity
  8
2
  6
CONTINUOUS
100
AcDbCircle
 10
510.911388509192
 20
-86.446783645689
 40
0.75
  0
CIRCLE
  5
5AA
100
AcDbEntity
  8
2
  6
CONTINUOUS
100
AcDbCircle
 10
507.982459033714
 20
-90.263838853396
 40
0.75
  0
CIRCLE
  5
5AB
100
AcDbEntity
  8
2
  6
CONTINUOUS
100
AcDbCircle
 10
507.982459033714
 20
-95.7361611466063
 40
0.75
  0
CIRCLE
  5
5AC
100
AcDbEntity
  8
2
  6
CONTINUOUS
100
AcDbCircle
 10
512.500000000001
 20
-93.000000000001
 40
0.75
  0
CIRCLE
  5
5AD
100
AcDbEntity
  8
2
  6
CONTINUOUS
100
AcDbCircle
 10
512.500000000001
 20
-100.000000000001
 40
1.0
  0
CIRCLE
  5
5AE
100
AcDbEntity
  8
2
  6
CONTINUOUS
100
AcDbCircle
 10
518.500000000001
 20
-93.000000000001
 40
0.75
  0
CIRCLE
  5
5AF
100
AcDbEntity
  8
2
  6
CONTINUOUS
100
AcDbCircle
 10
520.088611490809
 20
-86.446783645689
 40
0.75
  0
CIRCLE
  5
5B0
100
AcDbEntity
  8
2
  6
CONTINUOUS
100
AcDbCircle
 10
523.017540966288
 20
-90.263838853396
 40
0.75
  0
CIRCLE
  5
5B1
100
AcDbEntity
  8
2
  6
CONTINUOUS
100
AcDbCircle
 10
523.017540966288
 20
-95.7361611466063
 40
0.75
  0
CIRCLE
  5
5B2
100
AcDbEntity
  8
2
  6
CONTINUOUS
100
AcDbCircle
 10
510.911388509192
 20
-86.446783645689
 40
0.95
  0
CIRCLE
  5
5B3
100
AcDbEntity
  8
2
  6
CONTINUOUS
100
AcDbCircle
 10
515.500000000001
 20
-85.000000000001
 40
0.95
  0
CIRCLE
  5
5B4
100
AcDbEntity
  8
2
  6
CONTINUOUS
100
AcDbCircle
 10
507.982459033714
 20
-90.263838853396
 40
0.95
  0
CIRCLE
  5
5B5
100
AcDbEntity
  8
2
  6
CONTINUOUS
100
AcDbCircle
 10
512.500000000001
 20
-93.000000000001
 40
0.95
  0
CIRCLE
  5
5B6
100
AcDbEntity
  8
2
  6
CONTINUOUS
100
AcDbCircle
 10
507.982459033714
 20
-95.7361611466063
 40
0.95
  0
CIRCLE
  5
5B7
100
AcDbEntity
  8
2
  6
CONTINUOUS
100
AcDbCircle
 10
512.500000000001
 20
-100.000000000001
 40
1.2
  0
CIRCLE
  5
5B8
100
AcDbEntity
  8
2
  6
CONTINUOUS
100
AcDbCircle
 10
518.500000000001
 20
-100.000000000001
 40
1.2
  0
CIRCLE
  5
5B9
100
AcDbEntity
  8
2
  6
CONTINUOUS
100
AcDbCircle
 10
518.500000000001
 20
-93.000000000001
 40
0.95
  0
CIRCLE
  5
5BA
100
AcDbEntity
  8
2
  6
CONTINUOUS
100
AcDbCircle
 10
523.017540966288
 20
-95.7361611466063
 40
0.55
  0
CIRCLE
  5
5BB
100
AcDbEntity
  8
2
  6
CONTINUOUS
100
AcDbCircle
 10
523.017540966288
 20
-90.263838853396
 40
0.95
  0
CIRCLE
  5
5BC
100
AcDbEntity
  8
2
  6
CONTINUOUS
100
AcDbCircle
 10
520.088611490809
 20
-86.446783645689
 40
0.95
  0
LINE
  5
5BD
100
AcDbEntity
  8
2
  6
CONTINUOUS
100
AcDbLine
 10
521.700000000001
 20
-111.500000000002
 11
543.000000000001
 21
-111.500000000002
  0
LINE
  5
5BE
100
AcDbEntity
  8
2
  6
CONTINUOUS
100
AcDbLine
 10
483.000000000001
 20
-144.000000000002
 11
484.000000000001
 21
-144.000000000002
  0
LINE
  5
5BF
100
AcDbEntity
  8
2
  6
CONTINUOUS
100
AcDbLine
 10
547.000000000001
 20
-144.000000000002
 11
548.000000000001
 21
-144.000000000002
  0
LINE
  5
5C0
100
AcDbEntity
  8
2
  6
CONTINUOUS
100
AcDbLine
 10
548.000000000001
 20
-112.000000000002
 11
546.000000000001
 21
-110.000000000002
  0
LINE
  5
5C1
100
AcDbEntity
  8
2
  6
CONTINUOUS
100
AcDbLine
 10
485.000000000001
 20
-110.000000000002
 11
503.500000000001
 21
-110.000000000002
  0
LINE
  5
5C2
100
AcDbEntity
  8
2
  6
CONTINUOUS
100
AcDbLine
 10
503.500000000001
 20
-110.000000000002
 11
509.300000000001
 21
-110.000000000002
  0
LINE
  5
5C3
100
AcDbEntity
  8
2
  6
CONTINUOUS
100
AcDbLine
 10
521.700000000001
 20
-110.000000000002
 11
527.500000000001
 21
-110.000000000002
  0
LINE
  5
5C4
100
AcDbEntity
  8
2
  6
CONTINUOUS
100
AcDbLine
 10
527.500000000001
 20
-110.000000000002
 11
546.000000000001
 21
-110.000000000002
  0
LINE
  5
5C5
100
AcDbEntity
  8
2
  6
CONTINUOUS
100
AcDbLine
 10
485.000000000001
 20
-110.000000000002
 11
483.000000000001
 21
-112.000000000002
  0
LINE
  5
5C6
100
AcDbEntity
  8
2
  6
CONTINUOUS
100
AcDbLine
 10
548.000000000001
 20
-112.000000000002
 11
548.000000000001
 21
-150.000000000001
  0
LINE
  5
5C7
100
AcDbEntity
  8
2
  6
CONTINUOUS
100
AcDbLine
 10
483.000000000001
 20
-112.000000000002
 11
483.000000000001
 21
-150.000000000001
  0
LINE
  5
5C8
100
AcDbEntity
  8
7
  6
CENTER2
 62
    40
100
AcDbLine
 10
508.737681841864
 20
-218.000000000001
 11
522.537158016277
 21
-218.000000000001
  0
LINE
  5
5C9
100
AcDbEntity
  8
2
  6
CONTINUOUS
100
AcDbLine
 10
505.500000000001
 20
-77.000000000001
 11
509.755437353463
 21
-77.000000000001
  0
LINE
  5
5CA
100
AcDbEntity
  8
2
  6
CONTINUOUS
100
AcDbLine
 10
521.244562646539
 20
-77.000000000001
 11
525.500000000001
 21
-77.000000000001
  0
CIRCLE
  5
5CB
100
AcDbEntity
  8
2
  6
CONTINUOUS
100
AcDbCircle
 10
45.0
 20
-180.000000000001
 40
9.9
  0
LINE
  5
5CC
100
AcDbEntity
  8
2
  6
CONTINUOUS
100
AcDbLine
 10
39.086760617056
 20
-187.940000000001
 11
50.913239382944
 21
-187.940000000001
  0
LINE
  5
5CD
100
AcDbEntity
  8
2
  6
CONTINUOUS
100
AcDbLine
 10
39.086760617056
 20
-172.060000000001
 11
50.913239382944
 21
-172.060000000001
  0
LINE
  5
5CE
100
AcDbEntity
  8
2
  6
CONTINUOUS
100
AcDbLine
 10
37.06
 20
-174.086760617057
 11
37.06
 21
-185.913239382945
  0
LINE
  5
5CF
100
AcDbEntity
  8
2
  6
CONTINUOUS
100
AcDbLine
 10
52.94
 20
-174.086760617057
 11
52.94
 21
-185.913239382945
  0
ARC
  5
5D0
100
AcDbEntity
  8
2
  6
CONTINUOUS
100
AcDbCircle
 10
45.0
 20
-180.000000000001
 40
8.89999999999999
100
AcDbArc
 50
206.857253068964
 51
243.142746931036
  0
ARC
  5
5D1
100
AcDbEntity
  8
2
  6
CONTINUOUS
100
AcDbCircle
 10
45.0
 20
-180.000000000001
 40
8.89999999999999
100
AcDbArc
 50
116.857253068964
 51
153.142746931031
  0
ARC
  5
5D2
100
AcDbEntity
  8
2
  6
CONTINUOUS
100
AcDbCircle
 10
45.0
 20
-180.000000000001
 40
8.89999999999999
100
AcDbArc
 50
26.8572530689692
 51
63.1427469310306
  0
ARC
  5
5D3
100
AcDbEntity
  8
2
  6
CONTINUOUS
100
AcDbCircle
 10
45.0
 20
-180.000000000001
 40
8.89999999999999
100
AcDbArc
 50
296.857253068969
 51
333.142746931036
  0
ARC
  5
5D4
100
AcDbEntity
  8
2
  6
CONTINUOUS
100
AcDbCircle
 10
45.0
 20
-180.000000000001
 40
45.0
100
AcDbArc
 50
145.79453439984
 51
154.20546560016
  0
ARC
  5
5D5
100
AcDbEntity
  8
2
  6
CONTINUOUS
100
AcDbCircle
 10
45.0
 20
-180.000000000001
 40
45.0
100
AcDbArc
 50
25.79453439984
 51
34.20546560016
  0
ARC
  5
5D6
100
AcDbEntity
  8
2
  6
CONTINUOUS
100
AcDbCircle
 10
45.0
 20
-180.000000000001
 40
45.0
100
AcDbArc
 50
265.79453439984
 51
274.20546560016
  0
ARC
  5
5D7
100
AcDbEntity
  8
7
  6
CENTER2
 62
    40
100
AcDbCircle
 10
45.0
 20
-180.000000000001
 40
38.0
100
AcDbArc
 50
123.398117698191
 51
164.361511562916
  0
ARC
  5
5D8
100
AcDbEntity
  8
7
  6
CENTER2
 62
    40
100
AcDbCircle
 10
45.0
 20
-180.000000000001
 40
38.0
100
AcDbArc
 50
15.2569982419259
 51
44.5288134749666
  0
ARC
  5
5D9
100
AcDbEntity
  8
7
  6
CENTER2
 62
    40
100
AcDbCircle
 10
45.0
 20
-180.000000000001
 40
38.0
100
AcDbArc
 50
255.638488437084
 51
310.426807554014
  0
CIRCLE
  5
5DA
100
AcDbEntity
  8
2
  6
CONTINUOUS
100
AcDbCircle
 10
45.0
 20
-180.000000000001
 40
24.0
  0
LINE
  5
5DB
100
AcDbEntity
  8
6
  6
CENTER
100
AcDbLine
 10
3.43078061834704
 20
-156.000000000001
 11
45.0
 21
-180.000000000001
  0
LINE
  5
5DC
100
AcDbEntity
  8
6
  6
CENTER
100
AcDbLine
 10
45.0
 20
-180.000000000001
 11
86.569219381653
 21
-156.000000000001
  0
CIRCLE
  5
5DD
100
AcDbEntity
  8
2
  6
CONTINUOUS
100
AcDbCircle
 10
45.0
 20
-180.000000000001
 40
23.5
  0
CIRCLE
  5
5DE
100
AcDbEntity
  8
8
  6
CONTINUOUS
 62
     7
100
AcDbCircle
 10
45.0
 20
-218.0
 40
4.0
  0
CIRCLE
  5
5DF
100
AcDbEntity
  8
2
  6
CONTINUOUS
100
AcDbCircle
 10
45.0
 20
-218.0
 40
3.40000009536743
  0
CIRCLE
  5
5E0
100
AcDbEntity
  8
8
  6
CONTINUOUS
 62
     7
100
AcDbCircle
 10
12.0910053253174
 20
-161.0
 40
4.0
  0
CIRCLE
  5
5E1
100
AcDbEntity
  8
2
  6
CONTINUOUS
100
AcDbCircle
 10
12.0910053253174
 20
-161.0
 40
3.40000009536743
  0
CIRCLE
  5
5E2
100
AcDbEntity
  8
8
  6
CONTINUOUS
 62
     7
100
AcDbCircle
 10
77.9091033935547
 20
-161.0
 40
4.0
  0
CIRCLE
  5
5E3
100
AcDbEntity
  8
2
  6
CONTINUOUS
100
AcDbCircle
 10
77.9091033935547
 20
-161.0
 40
3.40000009536743
  0
CIRCLE
  5
5E4
100
AcDbEntity
  8
2
  6
CONTINUOUS
100
AcDbCircle
 10
45.0
 20
-218.000000000001
 40
4.25
  0
CIRCLE
  5
5E5
100
AcDbEntity
  8
2
  6
CONTINUOUS
100
AcDbCircle
 10
12.091034656191
 20
-161.000000000001
 40
4.25
  0
CIRCLE
  5
5E6
100
AcDbEntity
  8
2
  6
CONTINUOUS
100
AcDbCircle
 10
77.908965882833
 20
-161.000000933619
 40
4.25
  0
LINE
  5
5E7
100
AcDbEntity
  8
7
  6
CENTER2
 62
    40
100
AcDbLine
 10
44.999999999998
 20
-180.0
 11
71.846418634347
 21
-154.074714881038
  0
CIRCLE
  5
5E8
100
AcDbEntity
  8
2
  6
CONTINUOUS
100
AcDbCircle
 10
69.097883311344
 20
-156.728944589622
 40
4.75
  0
LINE
  5
5E9
100
AcDbEntity
  8
2
  6
CONTINUOUS
100
AcDbLine
 10
35.0
 20
-222.848570571258
 11
25.6200881285372
 21
-207.635242532414
  0
ARC
  5
5EA
100
AcDbEntity
  8
2
  6
CONTINUOUS
100
AcDbCircle
 10
45.0
 20
-180.000000000001
 40
43.9999999999999
100
AcDbArc
 50
256.863441213055
 51
264.368734489846
  0
LINE
  5
5EB
100
AcDbEntity
  8
2
  6
CONTINUOUS
100
AcDbLine
 10
55.0
 20
-222.848570571258
 11
64.3799118714645
 21
-207.635242532412
  0
ARC
  5
5EC
100
AcDbEntity
  8
2
  6
CONTINUOUS
100
AcDbCircle
 10
45.0
 20
-180.000000000001
 40
43.9999999999999
100
AcDbArc
 50
275.631265510154
 51
283.136558786945
  0
CIRCLE
  5
5ED
100
AcDbEntity
  8
2
  6
CONTINUOUS
100
AcDbCircle
 10
12.797733186064
 20
-170.766148580133
 40
4.75
  0
LINE
  5
5EE
100
AcDbEntity
  8
7
  6
CENTER2
 62
    40
100
AcDbLine
 10
45.0
 20
-180.000000000003
 11
9.12483516945004
 21
-169.712962021506
  0
CIRCLE
  5
5EF
100
AcDbEntity
  8
2
  6
CONTINUOUS
100
AcDbCircle
 10
53.104383502591
 20
-212.504906830247
 40
4.75
  0
LINE
  5
5F0
100
AcDbEntity
  8
7
  6
CENTER2
 62
    40
100
AcDbLine
 10
45.000000000001
 20
-179.999999999999
 11
54.028746196203
 21
-216.212323097459
  0
ARC
  5
5F1
100
AcDbEntity
  8
2
  6
CONTINUOUS
100
AcDbCircle
 10
515.500000000001
 20
-180.000000000001
 40
45.0
100
AcDbArc
 50
23.7617426926798
 51
36.2382573073217
  0
ARC
  5
5F2
100
AcDbEntity
  8
2
  6
CONTINUOUS
100
AcDbCircle
 10
515.500000000001
 20
-180.000000000001
 40
45.0
100
AcDbArc
 50
143.76174269268
 51
156.238257307319
  0
ARC
  5
5F3
100
AcDbEntity
  8
2
  6
CONTINUOUS
100
AcDbCircle
 10
515.500000000001
 20
-180.000000000001
 40
45.0
100
AcDbArc
 50
263.761742692681
 51
276.238257307322
  0
CIRCLE
  5
5F4
100
AcDbEntity
  8
7
  6
CENTER2
 62
    40
100
AcDbCircle
 10
515.500000000001
 20
-180.000000000001
 40
38.0
  0
ARC
  5
5F5
100
AcDbEntity
  8
2
  6
CONTINUOUS
100
AcDbCircle
 10
548.40896534381
 20
-161.000000000001
 40
5.0
100
AcDbArc
 50
0.0
 51
176.632987030769
  0
ARC
  5
5F6
100
AcDbEntity
  8
2
  6
CONTINUOUS
100
AcDbCircle
 10
548.40896534381
 20
-161.000000000001
 40
5.0
100
AcDbArc
 50
243.367012969234
 51
0.0
  0
ARC
  5
5F7
100
AcDbEntity
  8
2
  6
CONTINUOUS
100
AcDbCircle
 10
548.40896534381
 20
-161.000000000001
 40
4.42000000000002
100
AcDbArc
 50
0.0
 51
172.004582591883
  0
ARC
  5
5F8
100
AcDbEntity
  8
2
  6
CONTINUOUS
100
AcDbCircle
 10
548.40896534381
 20
-161.000000000001
 40
4.42
100
AcDbArc
 50
247.99541740812
 51
0.0
  0
LWPOLYLINE
  5
5F9
100
AcDbEntity
  8
2
  6
CONTINUOUS
100
AcDbPolyline
 90
        6
 70
     1
 43
0.0
 10
551.295716689758
 20
-161.000000000001
 10
549.852341016784
 20
-158.500000000001
 10
546.965589670835
 20
-158.500000000001
 10
545.522213997861
 20
-161.000000000001
 10
546.965589670835
 20
-163.500000000001
 10
549.852341016784
 20
-163.500000000001
  0
ARC
  5
5FA
100
AcDbEntity
  8
2
  6
CONTINUOUS
100
AcDbCircle
 10
482.591034656192
 20
-161.000000000001
 40
5.00000000000001
100
AcDbArc
 50
3.36701296923091
 51
296.632987030768
  0
ARC
  5
5FB
100
AcDbEntity
  8
2
  6
CONTINUOUS
100
AcDbCircle
 10
482.591034656192
 20
-161.000000000001
 40
4.42000000000002
100
AcDbArc
 50
7.99541740811808
 51
292.004582591882
  0
LWPOLYLINE
  5
5FC
100
AcDbEntity
  8
2
  6
CONTINUOUS
100
AcDbPolyline
 90
        6
 70
     1
 43
0.0
 10
485.477786002141
 20
-161.000000000001
 10
484.034410329166
 20
-158.500000000001
 10
481.147658983218
 20
-158.500000000001
 10
479.704283310244
 20
-161.000000000001
 10
481.147658983218
 20
-163.500000000001
 10
484.034410329166
 20
-163.500000000001
  0
ARC
  5
5FD
100
AcDbEntity
  8
2
  6
CONTINUOUS
100
AcDbCircle
 10
515.500000000001
 20
-180.000000000001
 40
32.5
100
AcDbArc
 50
200.0
 51
220.000000000002
  0
ARC
  5
5FE
100
AcDbEntity
  8
2
  6
CONTINUOUS
100
AcDbCircle
 10
515.500000000001
 20
-180.000000000001
 40
32.5000000000005
100
AcDbArc
 50
320.000000000001
 51
340.0
  0
LINE
  5
5FF
100
AcDbEntity
  8
2
  6
CONTINUOUS
100
AcDbLine
 10
484.959989824459
 20
-191.115654658085
 11
474.314698712224
 21
-161.867957703697
  0
LINE
  5
600
100
AcDbEntity
  8
2
  6
CONTINUOUS
100
AcDbLine
 10
497.468282887267
 20
-150.178113349192
 11
479.204540105019
 21
-153.398503970422
  0
LINE
  5
601
100
AcDbEntity
  8
2
  6
CONTINUOUS
100
AcDbLine
 10
533.531717112733
 20
-150.17811334919
 11
551.795459894984
 21
-153.398503970421
  0
LINE
  5
602
100
AcDbEntity
  8
2
  6
CONTINUOUS
100
AcDbLine
 10
546.040010175544
 20
-191.115654658085
 11
556.685301287779
 21
-161.867957703696
  0
LINE
  5
603
100
AcDbEntity
  8
2
  6
CONTINUOUS
100
AcDbLine
 10
540.396444401368
 20
-200.890597314813
 11
535.275813560762
 21
-206.993127515454
  0
LINE
  5
604
100
AcDbEntity
  8
2
  6
CONTINUOUS
100
AcDbLine
 10
521.330991145578
 20
-223.611919726839
 11
520.389841392797
 21
-224.733538325885
  0
LINE
  5
605
100
AcDbEntity
  8
2
  6
CONTINUOUS
100
AcDbLine
 10
490.603555598634
 20
-200.890597314813
 11
495.724186439235
 21
-206.993127515448
  0
LINE
  5
606
100
AcDbEntity
  8
2
  6
CONTINUOUS
100
AcDbLine
 10
509.669008854426
 20
-223.61191972684
 11
510.610158607206
 21
-224.733538325884
  0
CIRCLE
  5
607
100
AcDbEntity
  8
7
  6
CENTER2
 62
    40
100
AcDbCircle
 10
45.0
 20
-180.000000000001
 40
33.5000000000012
  0
LINE
  5
608
100
AcDbEntity
  8
0
  6
PHANTOM
 62
     3
100
AcDbLine
 10
45.0
 20
41.615
 11
45.0
 21
32.0
  0
DIMENSION
  5
618
100
AcDbEntity
  8
4
  6
CONTINUOUS
 62
     2
100
AcDbDimension
  2
*D2
 10
235.0
 20
92.0
 11
375.250000000001
 21
92.0
 70
    32
  3
ISO-25
100
AcDbAlignedDimension
 13
515.500000000001
 23
33.999999999999
 14
235.0
 24
43.999999999999
 50
180.0
100
AcDbRotatedDimension
  0
DIMENSION
  5
628
100
AcDbEntity
  8
4
  6
CONTINUOUS
 62
     2
100
AcDbDimension
  2
*D3
 10
20.0
 20
76.0
 11
10.0
 21
76.0
 70
    32
  3
ISO-25
100
AcDbAlignedDimension
 13
0.0
 23
7.93999999999997
 14
20.0
 24
9.99999999999997
 50
0.0
100
AcDbRotatedDimension
  0
DIMENSION
  5
638
100
AcDbEntity
  8
4
  6
CONTINUOUS
 62
     2
100
AcDbDimension
  2
*D4
 10
8.0
 20
60.0
 11
4.0
 21
60.0
 70
    32
  3
ISO-25
100
AcDbAlignedDimension
 13
0.0
 23
7.93999999999997
 14
8.0
 24
7.93999999999997
 50
0.0
100
AcDbRotatedDimension
  0
DIMENSION
  5
64A
100
AcDbEntity
  8
4
  6
CONTINUOUS
 62
     2
100
AcDbDimension
  2
*D5
 10
-30.0
 20
-24.0
 11
-31.0
 21
-4.87500000000003
 70
    32
  3
ISO-25
100
AcDbAlignedDimension
 13
36.5
 23
24.0
 14
36.5
 24
-24.0
 50
270.0
100
AcDbRotatedDimension
1001
ACAD
1000
DSTYLE
1002
{
1070
    47
1040
-0.03
1070
    48
1040
0.05
1070
    71
1070
     1
1070
   146
1040
0.714285714285714
1070
   272
1070
     2
1002
}
  0
DIMENSION
  5
65A
100
AcDbEntity
  8
4
  6
CONTINUOUS
 62
     2
100
AcDbDimension
  2
*D6
 10
-15.0
 20
-10.0
 11
-15.0
 21
-2.84217094304040E-014
 70
    32
  3
ISO-25
100
AcDbAlignedDimension
 13
19.9
 23
9.99999999999997
 14
19.9
 24
-10.0
 50
270.0
100
AcDbRotatedDimension
  0
DIMENSION
  5
66A
100
AcDbEntity
  8
4
  6
CONTINUOUS
 62
     2
100
AcDbDimension
  2
*D7
 10
6.54625552867471
 20
-1.79718555145436
 11
-12.7470909449609
 21
-20.3576863045406
 70
    35
  3
ISO-25
100
AcDbDiametricDimension
 15
9.25374447132528
 25
1.79718555145431
1001
ACAD
1000
DSTYLE
1002
{
1070
   280
1070
     1
1002
}
  0
ARC
  5
66B
100
AcDbEntity
  8
2
  6
CONTINUOUS
100
AcDbCircle
 10
508.200000000001
 20
-130.319848915536
 40
3.00000000000003
100
AcDbArc
 50
68.4898117331111
 51
125.000000000001
  0
ARC
  5
66C
100
AcDbEntity
  8
2
  6
CONTINUOUS
100
AcDbCircle
 10
508.200000000001
 20
-130.319848915536
 40
11.6
100
AcDbArc
 50
84.5586035694205
 51
125.000000000001
  0
DIMENSION
  5
67C
100
AcDbEntity
  8
4
  6
CONTINUOUS
 62
     2
100
AcDbDimension
  2
*D8
 10
3.81469871222304
 20
-85.000000000001
 11
45.0000000000005
 21
-85.000000000001
 70
    32
  3
ISO-25
100
AcDbAlignedDimension
 13
86.185301287778
 23
-161.867957703696
 14
3.81469871222304
 24
-161.867957703697
 50
180.0
100
AcDbRotatedDimension
  0
DIMENSION
  5
68C
100
AcDbEntity
  8
4
  6
CONTINUOUS
 62
     2
100
AcDbDimension
  2
*D9
 10
-30.0
 20
-180.000000000001
 11
-30.0
 21
-145.000000000001
 70
    32
  3
ISO-25
100
AcDbAlignedDimension
 13
14.5
 23
-110.0
 14
-15.0
 24
-180.000000000001
 50
270.0
100
AcDbRotatedDimension
  0
DIMENSION
  5
69B
100
AcDbEntity
  8
4
  6
CONTINUOUS
 62
     2
100
AcDbDimension
  2
*D10
 10
-30.0
 20
-225.000000000001
 11
-30.0
 21
-202.500000000001
 70
    32
  3
ISO-25
100
AcDbAlignedDimension
 13
-15.0
 23
-180.000000000001
 14
45.0
 24
-225.000000000001
 50
270.0
100
AcDbRotatedDimension
1001
ACAD
1000
DSTYLE
1002
{
1070
    75
1070
     1
1002
}
  0
DIMENSION
  5
6AB
100
AcDbEntity
  8
4
  6
CONTINUOUS
 62
     2
100
AcDbDimension
  2
*D11
 10
52.94
 20
-243.972235575763
 11
45.0
 21
-243.972235575763
 70
    32
  3
ISO-25
100
AcDbAlignedDimension
 13
37.06
 23
-185.913239382945
 14
52.94
 24
-185.913239382945
 50
0.0
100
AcDbRotatedDimension
  0
DIMENSION
  5
6BA
100
AcDbEntity
  8
4
  6
CONTINUOUS
 62
     2
100
AcDbDimension
  2
*D12
 10
67.2111396446187
 20
-210.832860322833
 11
80.3970715623455
 21
-223.584504780794
 70
    35
  3
ISO-25
100
AcDbDiametricDimension
 15
22.7888603553814
 25
-149.167139677169
1001
ACAD
1000
DSTYLE
1002
{
1070
   280
1070
     1
1002
}
  0
DIMENSION
  5
6C9
100
AcDbEntity
  8
4
  6
CONTINUOUS
 62
     2
100
AcDbDimension
  2
*D13
 10
10.7715191294211
 20
-209.213200736867
 11
3.50390804527601
 21
-212.00202969168
 70
    35
  3
ISO-25
100
AcDbDiametricDimension
 15
79.2284808705789
 25
-150.786799263135
1001
ACAD
1000
DSTYLE
1002
{
1070
   280
1070
     1
1002
}
  0
DIMENSION
  5
6D8
100
AcDbEntity
  8
4
  6
CONTINUOUS
 62
     2
100
AcDbDimension
  2
*D14
 10
98.7260752419822
 20
-165.604141526418
 11
98.7260752419822
 21
-165.604141526418
 70
    37
  3
ISO-25
100
AcDb3PointAngularDimension
 13
100.425625842186
 23
-180.000000000001
 14
86.569219381653
 24
-156.000000000001
 15
45.0
 25
-180.000000000001
1001
ACAD
1000
DSTYLE
1002
{
1070
    75
1070
     1
1002
}
  0
DIMENSION
  5
6E7
100
AcDbEntity
  8
4
  6
CONTINUOUS
 62
     2
100
AcDbDimension
  2
*D15
 10
-12.9555495773441
 20
-164.47085729385
 11
-12.9555495773441
 21
-164.47085729385
 70
    37
  3
ISO-25
100
AcDb3PointAngularDimension
 13
3.43078061834704
 23
-156.000000000001
 14
-15.0
 24
-180.000000000001
 15
45.0
 25
-180.000000000001
1001
ACAD
1000
DSTYLE
1002
{
1070
    76
1070
     1
1002
}
  0
MTEXT
  5
6E8
100
AcDbEntity
  8
4
  6
CONTINUOUS
 62
     2
100
AcDbMText
 10
69.2255620877373
 20
-239.781319519647
 40
3.5
 41
0.0
 11
1.0
 21
0.0
 71
     7
 72
     5
  7
STANDARD
  1
{\T1.60714;\W0.666667;3-M8}
  0
LINE
  5
6E9
100
AcDbEntity
  8
4
  6
CONTINUOUS
 62
     2
100
AcDbLine
 10
47.5160947167618
 20
-221.177756710329
 11
68.7255620877373
 21
-240.281319519647
  0
LINE
  5
6EA
100
AcDbEntity
  8
4
  6
CONTINUOUS
 62
     2
100
AcDbLine
 10
68.7255620877373
 20
-240.281319519647
 11
79.3505620877373
 21
-240.281319519647
  0
INSERT
  5
6EB
100
AcDbEntity
  8
4
  6
CONTINUOUS
 62
     2
100
AcDbBlockReference
  2
MARK1_1
 10
47.5160947167618
 20
-221.177756710329
 41
2.0
 42
2.0
 50
317.990344975165
  0
ARC
  5
6ED
100
AcDbEntity
  8
8
  6
PHANTOM
 62
     7
100
AcDbCircle
 10
45.0
 20
-180.000000000001
 40
45.0
100
AcDbArc
 50
36.2382573073217
 51
50.5908787201394
  0
ARC
  5
6EE
100
AcDbEntity
  8
8
  6
PHANTOM
 62
     7
100
AcDbCircle
 10
45.0
 20
-180.000000000001
 40
45.0
100
AcDbArc
 50
214.152751533252
 51
263.761742692681
  0
DIMENSION
  5
6FE
100
AcDbEntity
  8
4
  6
CONTINUOUS
 62
     2
100
AcDbDimension
  2
*D16
 10
116.880242150789
 20
-150.0
 11
116.880242150789
 21
-165.000000000001
 70
    32
  3
ISO-25
100
AcDbAlignedDimension
 13
100.425625842186
 23
-180.000000000001
 14
77.5
 24
-150.0
 50
90.0
100
AcDbRotatedDimension
  0
DIMENSION
  5
70E
100
AcDbEntity
  8
4
  6
CONTINUOUS
 62
     2
100
AcDbDimension
  2
*D17
 10
45.0
 20
92.0
 11
140.0
 21
92.0
 70
    32
  3
ISO-25
100
AcDbAlignedDimension
 13
235.0
 23
43.999999999999
 14
45.0
 24
27.5
 50
180.0
100
AcDbRotatedDimension
  0
DIMENSION
  5
71E
100
AcDbEntity
  8
4
  6
CONTINUOUS
 62
     2
100
AcDbDimension
  2
*D18
 10
0.0
 20
108.0
 11
257.750000000001
 21
108.0
 70
    32
  3
ISO-25
100
AcDbAlignedDimension
 13
515.500000000001
 23
46.2881124429805
 14
0.0
 24
34.2463879634905
 50
180.0
100
AcDbRotatedDimension
1001
ACAD
1000
DSTYLE
1002
{
1070
     3
1000
約<>
1002
}
  0
DIMENSION
  5
72E
100
AcDbEntity
  8
4
  6
CONTINUOUS
 62
     2
100
AcDbDimension
  2
*D19
 10
45.0
 20
92.0
 11
22.5
 21
92.0
 70
    32
  3
ISO-25
100
AcDbAlignedDimension
 13
0.0
 23
7.93999999999997
 14
45.0
 24
41.615
 50
0.0
100
AcDbRotatedDimension
  0
LINE
  5
72F
100
AcDbEntity
  8
2
  6
CONTINUOUS
100
AcDbLine
 10
48.8521634668367
 20
-147.000000000001
 11
41.1478365331634
 21
-147.000000000001
  0
LINE
  5
730
100
AcDbEntity
  8
2
  6
CONTINUOUS
100
AcDbLine
 10
71.6527565914682
 20
-199.836071421812
 11
75.5049200583048
 21
-193.16392857819
  0
LINE
  5
731
100
AcDbEntity
  8
2
  6
CONTINUOUS
100
AcDbLine
 10
48.3
 20
-224.878836883325
 11
71.6527565914682
 21
-199.836071421812
  0
LINE
  5
732
100
AcDbEntity
  8
2
  6
CONTINUOUS
100
AcDbLine
 10
41.7
 20
-224.878836883325
 11
18.3472434085319
 21
-199.836071421812
  0
LINE
  5
733
100
AcDbEntity
  8
2
  6
CONTINUOUS
100
AcDbLine
 10
18.3472434085319
 20
-199.836071421812
 11
14.4950799416952
 21
-193.16392857819
  0
LINE
  5
734
100
AcDbEntity
  8
2
  6
CONTINUOUS
100
AcDbLine
 10
85.5162128332566
 20
-160.418465390828
 11
75.5049200583048
 21
-193.16392857819
  0
LINE
  5
735
100
AcDbEntity
  8
2
  6
CONTINUOUS
100
AcDbLine
 10
82.2162128332566
 20
-154.70269772585
 11
48.8521634668367
 21
-147.000000000001
  0
LINE
  5
736
100
AcDbEntity
  8
2
  6
CONTINUOUS
100
AcDbLine
 10
7.78378716674344
 20
-154.70269772585
 11
41.1478365331634
 21
-147.000000000001
  0
LINE
  5
737
100
AcDbEntity
  8
2
  6
CONTINUOUS
100
AcDbLine
 10
4.48378716674345
 20
-160.418465390828
 11
14.4950799416952
 21
-193.16392857819
  0
INSERT
  5
739
100
AcDbEntity
  8
2
  6
CONTINUOUS
100
AcDbBlockReference
  2
SUB31
 10
53.1043835025909
 20
-212.504906830248
 41
1.0
 42
1.0
 50
0.0
  0
INSERT
  5
740
100
AcDbEntity
  8
2
  6
CONTINUOUS
100
AcDbBlockReference
  2
SUB32
 10
69.0978833113444
 20
-156.728944589622
 41
1.0
 42
1.0
 50
0.0
  0
INSERT
  5
747
100
AcDbEntity
  8
2
  6
CONTINUOUS
100
AcDbBlockReference
  2
SUB33
 10
12.7977331860647
 20
-170.766148580133
 41
1.0
 42
1.0
 50
0.0
  0
LINE
  5
74D
100
AcDbEntity
  8
8
  6
CONTINUOUS
 62
     7
100
AcDbLine
 10
1.00000000000001
 20
194.086760617057
 11
18.4999999999995
 21
205.913239382943
  0
LINE
  5
74E
100
AcDbEntity
  8
8
  6
CONTINUOUS
 62
     7
100
AcDbLine
 10
18.5
 20
194.086760617057
 11
1.00000000000001
 21
205.913239382943
  0
LINE
  5
74F
100
AcDbEntity
  8
8
  6
CONTINUOUS
 62
     7
100
AcDbLine
 10
1.00000000000004
 20
-5.91323938294306
 11
18.4999999999996
 21
5.91323938294295
  0
LINE
  5
750
100
AcDbEntity
  8
8
  6
CONTINUOUS
 62
     7
100
AcDbLine
 10
18.4999999999995
 20
-5.91323938294306
 11
1.00000000000004
 21
5.91323938294295
  0
DIMENSION
  5
760
100
AcDbEntity
  8
4
  6
CONTINUOUS
 62
     2
100
AcDbDimension
  2
*D20
 10
45.0
 20
76.0
 11
40.5
 21
76.0
 70
    32
  3
ISO-25
100
AcDbAlignedDimension
 13
36.0
 23
23.5
 14
45.0
 24
32.5
 50
0.0
100
AcDbRotatedDimension
  0
MTEXT
  5
761
100
AcDbEntity
  8
4
  6
CONTINUOUS
 62
     2
100
AcDbMText
 10
549.158033034592
 20
245.643520266661
 40
3.5
 41
0.0
 11
1.0
 21
0.0
 71
     7
 72
     5
  7
BIGFONT
  1
{\T1.35185;\W0.747922;センサーケーブル　ＵＫ－ＡＣＧＢ１－＊}
  0
LINE
  5
762
100
AcDbEntity
  8
2
  6
CONTINUOUS
100
AcDbLine
 10
359.75019406702
 20
-179.77201355006
 11
359.75019406702
 21
-157.27201355006
  0
MTEXT
  5
763
100
AcDbEntity
  8
4
  6
CONTINUOUS
 62
     2
100
AcDbMText
 10
339.75019406702
 20
-163.52201355006
 40
3.5
 41
0.0
 11
1.0
 21
0.0
 71
     5
 72
     5
  7
BIGFONT
  1
{\T1.38889;\W0.676692;備　　　　　考}
  0
LINE
  5
764
100
AcDbEntity
  8
2
  6
CONTINUOUS
100
AcDbLine
 10
289.75019406702
 20
-179.77201355006
 11
289.75019406702
 21
-157.27201355006
  0
LINE
  5
765
100
AcDbEntity
  8
2
  6
CONTINUOUS
100
AcDbLine
 10
259.75019406702
 20
-179.77201355006
 11
259.75019406702
 21
-157.27201355006
  0
LINE
  5
766
100
AcDbEntity
  8
2
  6
CONTINUOUS
100
AcDbLine
 10
229.75019406702
 20
-179.77201355006
 11
229.75019406702
 21
-157.27201355006
  0
LINE
  5
767
100
AcDbEntity
  8
2
  6
CONTINUOUS
100
AcDbLine
 10
199.75019406702
 20
-179.77201355006
 11
199.75019406702
 21
-157.27201355006
  0
LINE
  5
768
100
AcDbEntity
  8
2
  6
CONTINUOUS
100
AcDbLine
 10
199.75019406702
 20
-164.77201355006
 11
319.75019406702
 21
-164.77201355006
  0
MTEXT
  5
769
100
AcDbEntity
  8
4
  6
CONTINUOUS
 62
     2
100
AcDbMText
 10
214.75019406702
 20
-161.02201355006
 40
2.5
 41
0.0
 11
1.0
 21
0.0
 71
     5
 72
     5
  7
BIGFONT
  1
{\T1.25;\W1.05263;締付トルク範囲}
  0
MTEXT
  5
76A
100
AcDbEntity
  8
4
  6
CONTINUOUS
 62
     2
100
AcDbMText
 10
214.75019406702
 20
-167.27201355006
 40
2.5
 41
0.0
 11
1.0
 21
0.0
 71
     5
 72
     5
  7
BIGFONT
  1
{\T1.35714;\W0.736842;約　Ｎ・ｍ}
  0
MTEXT
  5
76B
100
AcDbEntity
  8
4
  6
CONTINUOUS
 62
     2
100
AcDbMText
 10
244.75019406702
 20
-167.27201355006
 40
2.5
 41
0.0
 11
1.0
 21
0.0
 71
     5
 72
     5
  7
BIGFONT
  1
{\T1.42857;\W0.614035;約　　ｒｐｍ}
  0
MTEXT
  5
76C
100
AcDbEntity
  8
4
  6
CONTINUOUS
 62
     2
100
AcDbMText
 10
244.750200170536
 20
-161.022007446544
 40
3.3
 41
0.0
 11
1.0
 21
0.0
 71
     5
 72
     5
  7
BIGFONT
  1
{\T1.34615;\W0.760234;回転速度（ＭＡＸ）}
  0
MTEXT
  5
76D
100
AcDbEntity
  8
4
  6
CONTINUOUS
 62
     2
100
AcDbMText
 10
274.75019406702
 20
-161.02201355006
 40
3.5
 41
0.0
 11
1.0
 21
0.0
 71
     5
 72
     5
  7
BIGFONT
  1
{\T1.375;\W0.701754;全　　　　長}
  0
MTEXT
  5
76E
100
AcDbEntity
  8
4
  6
CONTINUOUS
 62
     2
100
AcDbMText
 10
274.75019406702
 20
-167.27201355006
 40
2.5
 41
0.0
 11
1.0
 21
0.0
 71
     5
 72
     5
  7
BIGFONT
  1
{\T1.4;\W0.657895;約　ｍｍ}
  0
MTEXT
  5
76F
100
AcDbEntity
  8
4
  6
CONTINUOUS
 62
     2
100
AcDbMText
 10
304.75019406702
 20
-161.02201355006
 40
3.5
 41
0.0
 11
1.0
 21
0.0
 71
     5
 72
     5
  7
BIGFONT
  1
{\T1.375;\W0.701754;質　　　　量}
  0
MTEXT
  5
770
100
AcDbEntity
  8
4
  6
CONTINUOUS
 62
     2
100
AcDbMText
 10
304.75019406702
 20
-167.27201355006
 40
2.5
 41
0.0
 11
1.0
 21
0.0
 71
     5
 72
     5
  7
BIGFONT
  1
{\T1.4;\W0.657895;約　ｋｇ}
  0
LINE
  5
771
100
AcDbEntity
  8
2
  6
CONTINUOUS
100
AcDbLine
 10
319.75019406702
 20
-179.77201355006
 11
319.75019406702
 21
-157.27201355006
  0
LINE
  5
772
100
AcDbEntity
  8
2
  6
CONTINUOUS
100
AcDbLine
 10
154.75019406702
 20
-169.77201355006
 11
359.75019406702
 21
-169.77201355006
  0
LINE
  5
773
100
AcDbEntity
  8
2
  6
CONTINUOUS
100
AcDbLine
 10
154.75019406702
 20
-157.27201355006
 11
359.75019406702
 21
-157.27201355006
  0
LINE
  5
774
100
AcDbEntity
  8
2
  6
CONTINUOUS
100
AcDbLine
 10
154.75019406702
 20
-179.77201355006
 11
359.75019406702
 21
-179.77201355006
  0
MTEXT
  5
775
100
AcDbEntity
  8
4
  6
CONTINUOUS
 62
     2
100
AcDbMText
 10
174.75019406702
 20
-163.52201355006
 40
3.5
 41
0.0
 11
1.0
 21
0.0
 71
     5
 72
     5
  7
BIGFONT
  1
{\T1.375;\W0.701754;型　　　　式}
  0
LINE
  5
776
100
AcDbEntity
  8
2
  6
CONTINUOUS
100
AcDbLine
 10
154.75019406702
 20
-179.77201355006
 11
154.75019406702
 21
-157.27201355006
  0
MTEXT
  5
777
100
AcDbEntity
  8
4
  6
CONTINUOUS
 62
     2
100
AcDbMText
 10
177.25019406702
 20
-174.77201355006
 40
3.5
 41
0.0
 11
1.0
 21
0.0
 71
     5
 72
     5
  7
STANDARD
  1
{\T1.60714;\W0.666667;UNR-G100-2500NT}
  0
MTEXT
  5
778
100
AcDbEntity
  8
4
  6
CONTINUOUS
 62
     2
100
AcDbMText
 10
274.75019406702
 20
-174.77201355006
 40
3.5
 41
0.0
 11
1.0
 21
0.0
 71
     5
 72
     5
  7
STANDARD
  1
{\T1.60714;\W0.666667;516}
  0
MTEXT
  5
779
100
AcDbEntity
  8
4
  6
CONTINUOUS
 62
     2
100
AcDbMText
 10
244.75019406702
 20
-174.77201355006
 40
3.5
 41
0.0
 11
1.0
 21
0.0
 71
     5
 72
     5
  7
STANDARD
  1
{\T1.60714;\W0.666667;530}
  0
MTEXT
  5
77A
100
AcDbEntity
  8
4
  6
CONTINUOUS
 62
     2
100
AcDbMText
 10
214.75019406702
 20
-174.77201355006
 40
3.5
 41
0.0
 11
1.0
 21
0.0
 71
     5
 72
     5
  7
BIGFONT
  1
{\T1.42857;\W0.614035;７５～２５０}
  0
MTEXT
  5
77B
100
AcDbEntity
  8
4
  6
CONTINUOUS
 62
     2
100
AcDbMText
 10
304.75019406702
 20
-174.77201355006
 40
3.5
 41
0.0
 11
1.0
 21
0.0
 71
     5
 72
     5
  7
STANDARD
  1
{\T1.60714;\W0.666667;8.7}
  0
ENDSEC
  0
SECTION
  2
OBJECTS
  0
DICTIONARY
  5
C
100
AcDbDictionary
  3
ACAD_GROUP
350
D
  3
ACAD_MLINESTYLE
350
E
  3
ACDBVARIABLEDICTIONARY
350
77C
  0
DICTIONARY
  5
D
102
{ACAD_REACTORS
330
C
102
}
100
AcDbDictionary
  0
DICTIONARY
  5
E
102
{ACAD_REACTORS
330
C
102
}
100
AcDbDictionary
  3
STANDARD
350
13
  0
DICTIONARY
  5
77C
102
{ACAD_REACTORS
330
C
102
}
330
C
100
AcDbDictionary
  3
SORTENTS
350
77D
  0
MLINESTYLE
  5
13
102
{ACAD_REACTORS
330
E
102
}
100
AcDbMlineStyle
  2
STANDARD
 70
     0
  3

 62
   256
 51
90.0
 52
90.0
 71
     2
 49
0.5
 62
   256
  6
BYLAYER
 49
-0.5
 62
   256
  6
BYLAYER
  0
DICTIONARYVAR
  5
77D
102
{ACAD_REACTORS
330
77C
102
}
100
DictionaryVariables
280
     0
  1
96
  0
ENDSEC
  0
EOF
